<?xml version="1.0" standalone="no"?>
<!DOCTYPE svg PUBLIC "-//W3C//DTD SVG 1.1//EN" "http://www.w3.org/Graphics/SVG/1.1/DTD/svg11.dtd" >
<svg xmlns="http://www.w3.org/2000/svg" xmlns:xlink="http://www.w3.org/1999/xlink" version="1.1">
<metadata>
Created by FontForge 20200511 at Thu May 31 09:19:27 2018
 By convertio
(c) 2017, Forgotten Shapes GbR. All rights reserved.
</metadata>
<defs>
<font id="GerstnerProgrammFSL-Medium" horiz-adv-x="644" >
  <font-face 
    font-family="Gerstner Programm FSL Medium"
    font-weight="500"
    font-stretch="normal"
    units-per-em="1000"
    panose-1="2 1 6 4 1 1 1 1 1 4"
    ascent="741"
    descent="-259"
    x-height="482"
    cap-height="706"
    bbox="-430 -259 1408 1045"
    underline-thickness="50"
    underline-position="-100"
    stemh="101"
    stemv="112"
    unicode-range="U+000D-FEFF"
  />
<missing-glyph horiz-adv-x="540" 
d="M59 0v706h422v-706h-422zM112 53h316v600h-316v-600z" />
    <glyph glyph-name="f_f" unicode="ff" horiz-adv-x="638" 
d="M417 0v396h-198v-396h-112v396h-98v86h98v89c0 83 44 145 138 145c27 0 55 -1 75 -5v-87c-12 1 -30 3 -43 3c-34 0 -58 -18 -58 -78v-67h198v89c0 83 44 145 138 145c27 0 56 -1 75 -5v-87c-11 1 -30 3 -43 3c-34 0 -58 -18 -58 -78v-67h100v-86h-100v-396h-112z" />
    <glyph glyph-name="f_f_i" unicode="ffi" horiz-adv-x="866" 
d="M417 0v396h-198v-396h-112v396h-98v86h98v89c0 83 44 145 138 145c27 0 55 -1 75 -5v-87c-12 1 -30 3 -43 3c-34 0 -58 -18 -58 -78v-67h198v89c0 83 44 145 138 145c27 0 56 -1 75 -5v-87c-11 1 -30 3 -43 3c-34 0 -58 -18 -58 -78v-67h100v-86h-100v-396h-112zM696 0
v482h112v-482h-112zM696 586v120h112v-120h-112z" />
    <glyph glyph-name="f_f_l" unicode="ffl" horiz-adv-x="866" 
d="M417 0v396h-198v-396h-112v396h-98v86h98v89c0 83 44 145 138 145c27 0 55 -1 75 -5v-87c-12 1 -30 3 -43 3c-34 0 -58 -18 -58 -78v-67h198v89c0 83 44 145 138 145c27 0 56 -1 75 -5v-87c-11 1 -30 3 -43 3c-34 0 -58 -18 -58 -78v-67h100v-86h-100v-396h-112zM696 0
v706h112v-706h-112z" />
    <glyph glyph-name="f_i" unicode="fi" horiz-adv-x="556" 
d="M107 0v396h-98v86h98v89c0 83 44 145 138 145c27 0 55 -1 75 -5v-87c-12 1 -30 3 -43 3c-34 0 -58 -18 -58 -78v-67h100v-86h-100v-396h-112zM386 0v482h112v-482h-112zM386 586v120h112v-120h-112z" />
    <glyph glyph-name="f_l" unicode="fl" horiz-adv-x="556" 
d="M107 0v396h-98v86h98v89c0 83 44 145 138 145c27 0 55 -1 75 -5v-87c-12 1 -30 3 -43 3c-34 0 -58 -18 -58 -78v-67h100v-86h-100v-396h-112zM386 0v706h112v-706h-112z" />
    <glyph glyph-name=".notdef" horiz-adv-x="540" 
d="M59 0v706h422v-706h-422zM112 53h316v600h-316v-600z" />
    <glyph glyph-name=".null" horiz-adv-x="0" 
 />
    <glyph glyph-name=".null" horiz-adv-x="0" 
 />
    <glyph glyph-name="uni000D" unicode="&#xd;" horiz-adv-x="217" 
 />
    <glyph glyph-name="space" unicode=" " horiz-adv-x="217" 
 />
    <glyph glyph-name="exclam" unicode="!" horiz-adv-x="266" 
d="M66 0v133h133v-133h-133zM80 181l-13 525h132l-13 -525h-106z" />
    <glyph glyph-name="quotedbl" unicode="&#x22;" horiz-adv-x="360" 
d="M58 402v304h83v-304h-83zM219 402v304h83v-304h-83z" />
    <glyph glyph-name="numbersign" unicode="#" 
d="M133 0l32 222h-138v83h149l14 97h-136v83h148l31 221h91l-32 -221h97l32 221h91l-32 -221h138v-83h-150l-14 -97h137v-83h-149l-31 -222h-90l31 222h-97l-32 -222h-90zM267 305h97l14 97h-97z" />
    <glyph glyph-name="dollar" unicode="$" 
d="M293 -96v81c-132 10 -239 84 -264 235l127 25c3 -96 61 -147 137 -158v226c-130 29 -243 59 -243 205c0 118 107 195 243 204v80h59v-81c156 -10 226 -106 244 -205l-124 -25c-13 78 -59 119 -120 128v-205l47 -10c88 -19 215 -58 215 -197c0 -121 -103 -213 -262 -222
v-81h-59zM352 300v-214c82 8 133 56 133 111c0 68 -56 84 -101 95zM293 428v192c-67 -7 -117 -40 -117 -102c0 -58 57 -76 117 -90z" />
    <glyph glyph-name="percent" unicode="%" horiz-adv-x="850" 
d="M224 387c52 0 79 69 79 132s-27 132 -79 132c-53 0 -79 -69 -79 -132s26 -132 79 -132zM224 323c-107 0 -161 102 -161 196c0 95 54 196 161 196s161 -101 161 -196c0 -94 -54 -196 -161 -196zM140 0l489 706h91l-489 -706h-91zM626 55c52 0 79 69 79 132
s-27 132 -79 132c-53 0 -79 -69 -79 -132s26 -132 79 -132zM626 -9c-107 0 -161 102 -161 196c0 95 54 196 161 196s161 -101 161 -196c0 -94 -54 -196 -161 -196z" />
    <glyph glyph-name="ampersand" unicode="&#x26;" horiz-adv-x="683" 
d="M394 0v358h-105c-73 0 -130 -53 -130 -131c0 -91 62 -139 142 -139c17 0 29 1 44 4v-92c-26 -8 -51 -11 -75 -11c-133 0 -233 90 -233 238c0 92 51 159 130 189c-55 23 -89 66 -89 128c0 103 86 179 218 179c138 0 216 -76 216 -179v-83h161v-103h-161v-358h-118z
M394 461v83c0 48 -32 83 -97 83c-64 0 -100 -37 -100 -83c0 -51 37 -83 99 -83h98z" />
    <glyph glyph-name="quotesingle" unicode="'" horiz-adv-x="198" 
d="M58 402v304h82v-304h-82z" />
    <glyph glyph-name="parenleft" unicode="(" horiz-adv-x="299" 
d="M145 241c0 -179 74 -331 144 -464h-87c-81 128 -169 295 -169 464s88 337 169 465h87c-70 -133 -144 -285 -144 -465z" />
    <glyph glyph-name="parenright" unicode=")" horiz-adv-x="299" 
d="M154 241c0 180 -74 332 -144 465h87c81 -128 169 -296 169 -465s-88 -336 -169 -464h-87c70 133 144 285 144 464z" />
    <glyph glyph-name="asterisk" unicode="*" horiz-adv-x="429" 
d="M74 406l83 99l-128 31l28 87l119 -49l-9 132h91l-10 -130l123 51l27 -87l-125 -31l85 -101l-74 -53l-68 109l-69 -112z" />
    <glyph glyph-name="plus" unicode="+" 
d="M279 0v265h-258v90h258v266h89v-266h255v-90h-255v-265h-89z" />
    <glyph glyph-name="comma" unicode="," horiz-adv-x="234" 
d="M-10 -171l81 304h119l-109 -304h-91z" />
    <glyph glyph-name="hyphen" unicode="-" horiz-adv-x="427" 
d="M55 276v103h317v-103h-317z" />
    <glyph glyph-name="period" unicode="." horiz-adv-x="243" 
d="M55 0v133h133v-133h-133z" />
    <glyph glyph-name="slash" unicode="/" horiz-adv-x="411" 
d="M21 0l256 706h114l-255 -706h-115z" />
    <glyph glyph-name="zero" unicode="0" horiz-adv-x="642" 
d="M321 84c108 0 152 138 152 268c0 131 -44 270 -152 270s-152 -139 -152 -270c0 -130 44 -268 152 -268zM321 -17c-191 0 -278 191 -278 369c0 179 87 371 278 371s278 -192 278 -371c0 -178 -87 -369 -278 -369z" />
    <glyph glyph-name="one" unicode="1" horiz-adv-x="351" 
d="M152 0v511h-132v100h47c68 0 97 18 97 95h111v-706h-123z" />
    <glyph glyph-name="two" unicode="2" horiz-adv-x="591" 
d="M37 0v114c102 53 376 226 376 393c0 69 -45 115 -111 115c-70 0 -123 -38 -125 -164l-127 30c3 167 129 235 252 235c138 0 237 -87 237 -216c0 -173 -193 -329 -338 -408h351v-99h-515z" />
    <glyph glyph-name="three" unicode="3" horiz-adv-x="596" 
d="M34 224l127 27c4 -106 53 -167 132 -167c89 0 134 58 134 120c0 58 -38 115 -147 115h-86v101h86c84 0 130 53 130 105c0 61 -46 97 -115 97c-93 0 -121 -72 -122 -142l-127 28c2 88 77 215 249 215c133 0 241 -64 241 -198c0 -60 -43 -135 -139 -154
c112 -15 156 -94 156 -171c0 -108 -92 -217 -260 -217c-125 0 -247 70 -259 241z" />
    <glyph glyph-name="four" unicode="4" horiz-adv-x="603" 
d="M20 176v100l281 430h155v-431h126v-99h-126v-176h-119v176h-317zM149 275h188v305z" />
    <glyph glyph-name="five" unicode="5" horiz-adv-x="577" 
d="M39 177l118 27c13 -71 56 -120 130 -120c80 0 133 64 133 151c0 73 -39 148 -127 148c-72 0 -116 -54 -126 -94l-122 25l49 392h420v-101h-321l-23 -186c17 28 73 65 147 65c148 0 222 -115 222 -249c0 -151 -103 -252 -252 -252c-145 0 -223 85 -248 194z" />
    <glyph glyph-name="six" unicode="6" horiz-adv-x="599" 
d="M546 552l-123 -26c-20 72 -55 96 -104 96c-112 0 -146 -139 -152 -235c16 43 79 87 156 87c144 0 232 -106 232 -240c0 -165 -125 -251 -240 -251c-212 0 -271 183 -271 354c0 185 70 386 282 386c88 0 184 -51 220 -171zM309 84c65 0 127 51 127 148
c0 91 -61 141 -128 141c-83 0 -129 -73 -129 -142c0 -94 59 -147 130 -147z" />
    <glyph glyph-name="seven" unicode="7" horiz-adv-x="548" 
d="M217 0h-134c71 182 272 533 317 605h-382v101h513v-99c-70 -104 -246 -439 -314 -607z" />
    <glyph glyph-name="eight" unicode="8" horiz-adv-x="602" 
d="M185 377c-76 26 -120 85 -120 159c0 76 72 187 236 187c163 0 235 -111 235 -187c0 -74 -42 -133 -120 -159c92 -25 145 -84 145 -184c0 -106 -98 -210 -260 -210c-168 0 -260 111 -260 211s54 156 144 183zM160 199c0 -58 50 -115 141 -115s140 57 140 115
c0 48 -19 124 -140 124c-122 0 -141 -80 -141 -124zM185 526c0 -47 33 -100 116 -100s116 53 116 100c0 46 -37 97 -116 97c-80 0 -116 -51 -116 -97z" />
    <glyph glyph-name="nine" unicode="9" horiz-adv-x="596" 
d="M46 160l126 28c15 -76 56 -104 105 -104c122 0 146 157 153 251c-15 -42 -78 -85 -155 -85c-147 0 -232 110 -232 238c0 144 120 235 240 235c209 0 269 -181 269 -353c0 -184 -67 -387 -281 -387c-86 0 -194 57 -225 177zM287 349c74 0 127 68 127 134
c0 78 -56 139 -127 139c-66 0 -124 -59 -124 -139c0 -79 61 -134 124 -134z" />
    <glyph glyph-name="colon" unicode=":" horiz-adv-x="241" 
d="M54 0v133h133v-133h-133zM54 349v133h133v-133h-133z" />
    <glyph glyph-name="semicolon" unicode=";" horiz-adv-x="265" 
d="M8 -171l81 304h119l-109 -304h-91zM69 349v133h133v-133h-133z" />
    <glyph glyph-name="less" unicode="&#x3c;" 
d="M7 300v78l600 253v-89l-482 -203l482 -203v-89z" />
    <glyph glyph-name="equal" unicode="=" 
d="M21 191v87h602v-87h-602zM21 361v87h602v-87h-602z" />
    <glyph glyph-name="greater" unicode="&#x3e;" 
d="M37 47v89l483 203l-483 203v89l600 -253v-78z" />
    <glyph glyph-name="question" unicode="?" horiz-adv-x="552" 
d="M207 181v237c11 -1 43 -3 59 -3c67 0 133 27 133 105c0 65 -55 102 -120 102c-75 0 -128 -45 -135 -132l-121 27c14 109 104 206 256 206c128 0 241 -68 241 -203c0 -109 -80 -186 -188 -194v-145h-125zM203 0v133h133v-133h-133z" />
    <glyph glyph-name="at" unicode="@" horiz-adv-x="783" 
d="M351 209c78 0 136 106 136 181c0 50 -32 89 -77 89c-88 0 -138 -102 -138 -177c0 -54 33 -93 79 -93zM407 659c-168 0 -297 -138 -297 -308c0 -175 131 -304 298 -304c82 0 169 34 223 90l41 -41c-65 -72 -163 -113 -264 -113c-207 0 -372 154 -372 368
c0 212 167 372 371 372c203 0 341 -129 341 -306c0 -155 -99 -285 -231 -285c-39 0 -68 24 -70 60c-26 -37 -71 -60 -116 -60c-88 0 -145 73 -145 169c0 128 87 255 221 255c43 0 91 -21 112 -74l19 57h71l-76 -272c-5 -16 -9 -33 -9 -47s5 -24 20 -24c73 0 132 102 132 222
c0 142 -106 241 -269 241z" />
    <glyph glyph-name="A" unicode="A" horiz-adv-x="705" 
d="M-1 0l279 706h150l277 -706h-132l-75 201h-292l-75 -201h-132zM242 299h220l-110 297z" />
    <glyph glyph-name="B" unicode="B" horiz-adv-x="689" 
d="M73 0v706h328c143 0 226 -78 226 -190c0 -85 -70 -141 -125 -148c97 -10 153 -77 153 -163c0 -149 -121 -205 -281 -205h-301zM199 101h187c82 0 143 28 143 105c0 75 -54 107 -145 107h-185v-212zM199 414h170c70 0 131 28 131 97c0 64 -49 94 -113 94h-188v-191z" />
    <glyph glyph-name="C" unicode="C" horiz-adv-x="730" 
d="M588 267l124 -25c-40 -161 -170 -259 -328 -259c-206 0 -348 157 -348 370c0 207 140 370 351 370c145 0 265 -79 317 -232l-122 -28c-36 102 -105 159 -195 159c-136 0 -224 -121 -224 -269c0 -153 87 -269 221 -269c101 0 178 72 204 183z" />
    <glyph glyph-name="D" unicode="D" horiz-adv-x="735" 
d="M199 101h117c179 0 255 108 255 252s-76 252 -255 252h-117v-504zM73 0v706h256c195 0 369 -108 369 -353s-174 -353 -369 -353h-256z" />
    <glyph glyph-name="E" unicode="E" horiz-adv-x="619" 
d="M73 0v706h495v-101h-369v-191h355v-101h-355v-212h377v-101h-503z" />
    <glyph glyph-name="F" unicode="F" horiz-adv-x="593" 
d="M73 0v706h496v-101h-370v-190h348v-101h-348v-314h-126z" />
    <glyph glyph-name="G" unicode="G" horiz-adv-x="751" 
d="M584 0v86c-43 -64 -112 -103 -209 -103c-193 0 -339 153 -339 370c0 207 139 370 350 370c134 0 248 -65 306 -200l-123 -29c-39 83 -103 128 -183 128c-136 0 -223 -121 -223 -269c0 -153 88 -269 221 -269c84 0 190 48 198 212h-222v101h341v-397h-117z" />
    <glyph glyph-name="H" unicode="H" horiz-adv-x="742" 
d="M73 0v706h126v-292h344v292h126v-706h-126v313h-344v-313h-126z" />
    <glyph glyph-name="I" unicode="I" horiz-adv-x="272" 
d="M73 0v706h126v-706h-126z" />
    <glyph glyph-name="J" unicode="J" horiz-adv-x="584" 
d="M12 225l125 25c0 -114 50 -167 129 -167c80 0 124 51 124 128v495h126v-493c0 -148 -99 -230 -249 -230c-141 0 -252 81 -255 242z" />
    <glyph glyph-name="K" unicode="K" horiz-adv-x="671" 
d="M73 0v706h126v-300l299 300h157l-338 -329l382 -377h-164l-336 337v-337h-126z" />
    <glyph glyph-name="L" unicode="L" horiz-adv-x="566" 
d="M73 0v706h126v-605h356v-101h-482z" />
    <glyph glyph-name="M" unicode="M" horiz-adv-x="912" 
d="M73 0v706h187l197 -580l196 580h186v-706h-116v578l-194 -578h-144l-195 577v-577h-117z" />
    <glyph glyph-name="N" unicode="N" horiz-adv-x="776" 
d="M73 0v706h169l348 -583v583h113v-706h-172l-345 582v-582h-113z" />
    <glyph glyph-name="O" unicode="O" horiz-adv-x="774" 
d="M389 84c154 0 222 133 222 267s-68 271 -222 271c-158 0 -226 -137 -226 -271s68 -267 226 -267zM389 -17c-246 0 -353 183 -353 368c0 184 107 372 353 372c242 0 349 -188 349 -372c0 -185 -107 -368 -349 -368z" />
    <glyph glyph-name="P" unicode="P" horiz-adv-x="648" 
d="M73 0v706h326c115 0 229 -50 229 -203c0 -152 -113 -205 -229 -205h-200v-298h-126zM199 399h183c72 0 121 24 121 104c0 70 -41 102 -121 102h-183v-206z" />
    <glyph glyph-name="Q" unicode="Q" horiz-adv-x="781" 
d="M696 -38l-88 92c-54 -44 -127 -71 -219 -71c-246 0 -353 183 -353 368c0 184 107 372 353 372c242 0 349 -188 349 -372c0 -76 -18 -151 -56 -213l95 -100zM389 84c154 0 222 133 222 267s-68 271 -222 271c-158 0 -226 -137 -226 -271s68 -267 226 -267z" />
    <glyph glyph-name="R" unicode="R" horiz-adv-x="688" 
d="M73 0v706h314c139 0 237 -63 237 -185c0 -117 -75 -159 -113 -166c64 -14 111 -48 111 -135v-109c0 -37 5 -74 41 -111h-136c-27 29 -29 67 -29 95v103c0 69 -36 100 -103 100h-199v-298h-123zM196 399h185c92 0 120 58 120 109c0 61 -43 97 -123 97h-182v-206z" />
    <glyph glyph-name="S" unicode="S" horiz-adv-x="650" 
d="M24 219l127 25c3 -108 80 -160 177 -160c101 0 165 52 165 112c0 68 -53 86 -124 102l-87 19c-118 25 -236 53 -236 201c0 127 123 205 278 205c186 0 258 -102 279 -207l-124 -25c-14 90 -76 131 -155 131c-85 0 -153 -33 -153 -104c0 -61 68 -78 127 -91l106 -23
c92 -21 217 -58 217 -198c0 -128 -112 -223 -297 -223c-151 0 -271 74 -300 236z" />
    <glyph glyph-name="T" unicode="T" horiz-adv-x="588" 
d="M231 0v605h-221v101h568v-101h-222v-605h-125z" />
    <glyph glyph-name="U" unicode="U" horiz-adv-x="722" 
d="M67 254v452h126v-452c0 -109 68 -170 169 -170c100 0 167 58 167 170v452h126v-452c0 -184 -128 -271 -293 -271c-179 0 -295 100 -295 271z" />
    <glyph glyph-name="V" unicode="V" horiz-adv-x="684" 
d="M272 0l-272 706h126l216 -572l219 572h125l-276 -706h-138z" />
    <glyph glyph-name="W" unicode="W" horiz-adv-x="1006" 
d="M203 0l-197 706h123l153 -581l142 581h158l142 -581l153 581h123l-197 -706h-161l-139 594l-139 -594h-161z" />
    <glyph glyph-name="X" unicode="X" horiz-adv-x="668" 
d="M-18 0l280 376l-242 330h145l174 -247l171 247h142l-245 -329l278 -377h-146l-207 292l-205 -292h-145z" />
    <glyph glyph-name="Y" unicode="Y" horiz-adv-x="679" 
d="M278 0v324l-277 382h146l194 -287l196 287h141l-277 -382v-324h-123z" />
    <glyph glyph-name="Z" unicode="Z" horiz-adv-x="626" 
d="M27 0v110l397 492h-381v104h535v-104l-409 -498h434v-104h-576z" />
    <glyph glyph-name="bracketleft" unicode="[" horiz-adv-x="319" 
d="M72 -223v929h230v-81h-125v-767h126v-81h-231z" />
    <glyph glyph-name="backslash" unicode="\" horiz-adv-x="411" 
d="M276 0l-256 706h114l256 -706h-114z" />
    <glyph glyph-name="bracketright" unicode="]" horiz-adv-x="318" 
d="M16 -223v81h126v767h-125v81h229v-929h-230z" />
    <glyph glyph-name="asciicircum" unicode="^" 
d="M95 334l190 372h80l183 -372h-103l-121 255l-127 -255h-102z" />
    <glyph glyph-name="underscore" unicode="_" horiz-adv-x="520" 
d="M0 -125v53h520v-53h-520z" />
    <glyph glyph-name="grave" unicode="`" horiz-adv-x="286" 
d="M148 540l-98 178h111l75 -178h-88z" />
    <glyph glyph-name="a" unicode="a" horiz-adv-x="514" 
d="M466 0h-112c-1 5 -7 44 -7 63c-25 -47 -76 -75 -148 -75c-105 0 -168 69 -168 143c0 116 90 141 197 159c8 1 58 8 68 10c51 8 56 25 56 48c0 31 -27 63 -91 63c-60 0 -101 -29 -104 -95l-110 24c9 53 38 92 77 117s87 37 137 37c108 0 198 -43 198 -166v-203
c0 -81 6 -120 7 -125zM144 138c0 -36 36 -67 78 -67c41 0 125 19 125 114v50c-8 -3 -43 -9 -59 -12l-36 -7c-56 -10 -108 -22 -108 -78z" />
    <glyph glyph-name="b" unicode="b" horiz-adv-x="569" 
d="M58 0v706h112v-282c26 39 79 70 143 70c179 0 224 -161 224 -254c0 -79 -38 -252 -228 -252c-55 0 -121 33 -144 77v-65h-107zM293 75c91 0 131 81 131 165c0 97 -49 168 -131 168c-46 0 -125 -35 -125 -168c0 -132 81 -165 125 -165z" />
    <glyph glyph-name="c" unicode="c" horiz-adv-x="521" 
d="M385 190l113 -22c-10 -69 -80 -180 -227 -180c-160 0 -239 126 -239 253s84 253 239 253c143 0 210 -100 225 -171l-113 -22c-6 37 -31 107 -112 107c-88 0 -126 -87 -126 -167s35 -166 126 -166c81 0 108 70 114 115z" />
    <glyph glyph-name="d" unicode="d" horiz-adv-x="573" 
d="M409 0v64c-23 -43 -91 -76 -148 -76c-185 0 -229 169 -229 252c0 88 47 254 231 254c61 0 114 -32 140 -70v282h112v-706h-106zM279 75c47 0 125 33 125 165c0 133 -78 168 -122 168c-104 0 -137 -102 -137 -167c0 -58 30 -166 134 -166z" />
    <glyph glyph-name="e" unicode="e" horiz-adv-x="524" 
d="M379 165l104 -25c-15 -67 -94 -152 -209 -152c-168 0 -242 124 -242 252c0 132 81 254 231 254c137 0 229 -106 229 -252c0 -13 0 -25 -1 -32h-346c2 -75 43 -139 122 -139c69 0 102 47 112 94zM146 294h233c0 58 -38 117 -116 117c-74 0 -117 -52 -117 -117z" />
    <glyph glyph-name="f" unicode="f" horiz-adv-x="328" 
d="M107 0v396h-98v86h98v89c0 83 44 145 138 145c27 0 55 -1 75 -5v-87c-12 1 -30 3 -43 3c-34 0 -58 -18 -58 -78v-67h100v-86h-100v-396h-112z" />
    <glyph glyph-name="g" unicode="g" horiz-adv-x="571" 
d="M53 -67l115 23c7 -55 43 -105 114 -105c92 0 119 78 119 139v75c-26 -39 -86 -69 -143 -69c-175 0 -226 146 -226 245c0 83 42 253 230 253c55 0 122 -33 144 -77v65h107v-495c0 -130 -78 -222 -231 -222c-132 0 -213 80 -229 168zM276 82c49 0 126 36 126 162
c0 127 -75 164 -122 164c-106 0 -135 -109 -135 -163c0 -74 34 -163 131 -163z" />
    <glyph glyph-name="h" unicode="h" horiz-adv-x="541" 
d="M58 0v706h109v-294c11 31 59 82 150 82c60 0 107 -25 137 -68c29 -41 33 -82 33 -140v-286h-112v286c0 42 -3 66 -17 86c-10 17 -34 36 -74 36c-29 0 -57 -11 -79 -34c-24 -26 -36 -56 -36 -126v-248h-111z" />
    <glyph glyph-name="i" unicode="i" horiz-adv-x="228" 
d="M58 0v482h112v-482h-112zM58 586v120h112v-120h-112z" />
    <glyph glyph-name="j" unicode="j" horiz-adv-x="234" 
d="M-44 -227v91c13 -2 26 -4 37 -4c65 0 71 34 71 66v556h112v-567c0 -87 -24 -147 -147 -147c-34 0 -52 1 -73 5zM64 586v120h112v-120h-112z" />
    <glyph glyph-name="k" unicode="k" horiz-adv-x="523" 
d="M58 0v706h112v-413l196 189h144l-237 -216l273 -266h-144l-232 223v-223h-112z" />
    <glyph glyph-name="l" unicode="l" horiz-adv-x="228" 
d="M58 0v706h112v-706h-112z" />
    <glyph glyph-name="m" unicode="m" horiz-adv-x="800" 
d="M58 0v482h109v-69c9 30 50 81 134 81c38 0 77 -8 112 -47c10 -11 18 -24 26 -38c18 46 66 85 138 85c56 0 102 -20 133 -61c28 -38 36 -80 36 -147v-286h-112v297c0 41 -8 111 -79 111c-32 0 -59 -18 -75 -44c-17 -26 -22 -54 -22 -96v-268h-112v297c0 41 -7 111 -78 111
c-33 0 -60 -18 -77 -44c-18 -27 -21 -57 -21 -109v-255h-112z" />
    <glyph glyph-name="n" unicode="n" horiz-adv-x="538" 
d="M58 0v482h109v-69c10 30 58 81 148 81c59 0 107 -24 137 -67c28 -41 32 -83 32 -141v-286h-112v286c0 42 -3 66 -16 86c-11 17 -34 36 -74 36c-29 0 -56 -11 -78 -34c-24 -26 -34 -60 -34 -126v-248h-112z" />
    <glyph glyph-name="o" unicode="o" horiz-adv-x="545" 
d="M273 75c87 0 128 87 128 165s-41 168 -128 168s-129 -90 -129 -168s42 -165 129 -165zM273 -12c-156 0 -242 129 -242 252c0 124 86 254 242 254s241 -130 241 -254c0 -123 -85 -252 -241 -252z" />
    <glyph glyph-name="p" unicode="p" horiz-adv-x="573" 
d="M58 -223v705h107v-64c23 43 90 76 148 76c179 0 228 -160 228 -252c0 -80 -42 -254 -232 -254c-61 0 -113 31 -139 70v-281h-112zM293 75c109 0 135 111 135 166c0 68 -34 167 -133 167c-48 0 -127 -34 -127 -166c0 -133 80 -167 125 -167z" />
    <glyph glyph-name="q" unicode="q" horiz-adv-x="568" 
d="M399 -223v281c-26 -39 -79 -70 -143 -70c-185 0 -224 170 -224 253c0 88 43 253 227 253c54 0 122 -33 145 -77v65h106v-705h-111zM276 75c46 0 124 34 124 166c0 133 -78 167 -122 167c-84 0 -133 -72 -133 -166c0 -88 45 -167 131 -167z" />
    <glyph glyph-name="r" unicode="r" horiz-adv-x="348" 
d="M58 0v482h109v-71c20 44 70 83 137 83c13 0 27 -1 34 -2v-105c-7 2 -18 4 -43 4c-52 0 -82 -23 -102 -50c-21 -30 -23 -70 -23 -108v-233h-112z" />
    <glyph glyph-name="s" unicode="s" horiz-adv-x="489" 
d="M25 149l111 24c7 -63 40 -102 106 -102c56 0 102 23 102 68s-38 53 -92 63l-42 8c-82 16 -170 38 -170 144c0 60 58 140 207 140c90 0 176 -51 197 -147l-102 -23c-10 54 -34 87 -101 87c-59 0 -92 -27 -92 -56c0 -42 52 -53 85 -59l41 -7c83 -14 184 -39 184 -143
c0 -102 -96 -158 -217 -158c-128 0 -204 79 -217 161z" />
    <glyph glyph-name="t" unicode="t" horiz-adv-x="335" 
d="M102 106v290h-93v86h93v159h112v-159h98v-86h-98v-251c0 -42 16 -60 51 -60c15 0 33 1 47 4v-89c-16 -4 -44 -7 -72 -7c-76 0 -138 30 -138 113z" />
    <glyph glyph-name="u" unicode="u" horiz-adv-x="537" 
d="M54 196v286h112v-286c0 -42 4 -66 17 -86c10 -17 33 -35 73 -35c29 0 55 10 77 33c24 26 34 56 34 126v248h112v-482h-110v69c-9 -30 -56 -81 -146 -81c-59 0 -107 24 -137 67c-28 41 -32 83 -32 141z" />
    <glyph glyph-name="v" unicode="v" horiz-adv-x="500" 
d="M184 0l-177 482h115l129 -359l132 359h111l-179 -482h-131z" />
    <glyph glyph-name="w" unicode="w" horiz-adv-x="766" 
d="M158 0l-152 482h111l104 -350l98 350h128l99 -351l104 351h110l-151 -482h-127l-99 350l-98 -350h-127z" />
    <glyph glyph-name="x" unicode="x" horiz-adv-x="472" 
d="M0 0l171 251l-156 231h126l98 -152l99 152h125l-162 -232l166 -250h-126l-104 168l-110 -168h-127z" />
    <glyph glyph-name="y" unicode="y" horiz-adv-x="488" 
d="M34 -227v93c16 -3 30 -6 40 -6c40 0 70 9 83 45l34 93l-184 484h118l125 -351l121 351h113l-231 -621c-23 -63 -74 -93 -149 -93c-17 0 -55 3 -70 5z" />
    <glyph glyph-name="z" unicode="z" horiz-adv-x="464" 
d="M23 0v92l266 302h-245v88h386v-83l-272 -310h278v-89h-413z" />
    <glyph glyph-name="braceleft" unicode="{" horiz-adv-x="313" 
d="M303 -177v-46c-82 2 -136 4 -174 47c-33 38 -34 85 -34 149v75c0 64 0 81 -7 102c-11 37 -36 60 -68 70v44c32 10 57 33 68 70c7 21 7 38 7 102v74c0 64 1 111 34 149c38 43 92 45 174 47v-46c-49 -14 -78 -27 -94 -71c-8 -24 -9 -50 -9 -94v-54c-1 -85 -2 -109 -18 -140
c-21 -41 -57 -53 -79 -59c22 -6 58 -18 79 -59c16 -31 17 -55 18 -140v-55c0 -44 1 -70 9 -94c16 -44 45 -57 94 -71z" />
    <glyph glyph-name="bar" unicode="|" horiz-adv-x="244" 
d="M72 -223v929h100v-929h-100z" />
    <glyph glyph-name="braceright" unicode="}" horiz-adv-x="313" 
d="M10 -223v46c49 14 78 27 94 71c8 24 9 50 9 94v55c1 85 2 109 18 140c21 41 57 53 79 59c-22 6 -58 18 -79 59c-16 31 -17 55 -18 140v54c0 44 -1 70 -9 94c-16 44 -45 57 -94 71v46c82 -2 136 -4 174 -47c33 -38 34 -85 34 -149v-74c0 -64 0 -81 7 -102
c11 -37 36 -60 68 -70v-44c-32 -10 -57 -33 -68 -70c-7 -21 -7 -38 -7 -102v-75c0 -64 -1 -111 -34 -149c-38 -43 -92 -45 -174 -47z" />
    <glyph glyph-name="asciitilde" unicode="~" 
d="M69 246l-45 9c28 120 100 173 175 173c124 0 191 -96 275 -96c60 0 93 27 109 91l46 -9c-28 -120 -101 -172 -176 -172c-124 0 -191 96 -275 96c-59 0 -92 -27 -109 -92z" />
    <glyph glyph-name="uni00A0" unicode="&#xa0;" horiz-adv-x="217" 
 />
    <glyph glyph-name="exclamdown" unicode="&#xa1;" horiz-adv-x="266" 
d="M66 573v133h133v-133h-133zM67 0l13 525h106l13 -525h-132z" />
    <glyph glyph-name="cent" unicode="&#xa2;" 
d="M253 -96v89c-151 34 -242 167 -242 361c0 178 93 320 242 359v89h60v-79c8 0 17 1 26 1s17 -1 26 -1v79h60v-88c102 -26 181 -103 209 -223l-109 -27c-15 64 -49 117 -100 142v-500c58 29 93 93 103 162l112 -25c-22 -120 -97 -218 -215 -249v-90h-60v80
c-10 -1 -18 -1 -28 -1c-8 0 -16 0 -24 1v-80h-60zM365 83v541c-12 2 -17 2 -26 2s-18 -1 -26 -2v-541c8 -1 16 -2 24 -2c9 0 18 0 28 2zM253 106v493c-73 -40 -115 -133 -115 -245c0 -120 40 -211 115 -248z" />
    <glyph glyph-name="sterling" unicode="&#xa3;" 
d="M64 0l120 337h-126v101h163l43 122c32 88 80 156 205 156c32 0 61 -5 79 -9v-104c-15 4 -49 9 -72 9c-50 0 -78 -33 -92 -73l-36 -101h166v-101h-202l-83 -235h357v-102h-522z" />
    <glyph glyph-name="currency" unicode="&#xa4;" 
d="M23 110l73 78c-20 32 -46 74 -46 154c0 81 29 126 46 152l-71 78l73 76l75 -77c27 18 71 47 149 47s124 -31 148 -47l75 78l75 -77l-74 -78c16 -25 46 -71 46 -153s-30 -129 -46 -154l73 -79l-75 -77l-75 80c-29 -19 -72 -47 -148 -47s-119 28 -148 47l-76 -78zM323 164
c87 0 169 68 169 178c0 111 -85 176 -170 176c-86 0 -171 -65 -171 -177c0 -107 82 -177 172 -177z" />
    <glyph glyph-name="yen" unicode="&#xa5;" 
d="M258 0v212h-213v60h213v52h-213v60h172l-210 322h143l171 -287l173 287h142l-214 -322h175v-60h-216v-52h216v-60h-216v-212h-123z" />
    <glyph glyph-name="brokenbar" unicode="&#xa6;" horiz-adv-x="248" 
d="M74 -223v389h100v-389h-100zM74 317v389h100v-389h-100z" />
    <glyph glyph-name="section" unicode="&#xa7;" horiz-adv-x="456" 
d="M140 -201v86c12 -2 33 -3 48 -3c37 0 75 17 75 64c0 37 -39 69 -70 104l-86 96c-51 56 -81 112 -81 173c0 70 48 113 98 138c-24 29 -47 77 -47 113c0 95 79 153 163 153c28 0 57 -1 75 -5v-86c-12 2 -33 3 -48 3c-37 0 -75 -17 -75 -64c0 -37 39 -69 70 -104l86 -96
c51 -56 81 -112 81 -173c0 -70 -49 -114 -99 -138c24 -29 48 -77 48 -113c0 -95 -79 -153 -163 -153c-28 0 -57 1 -75 5zM190 213l74 -80c33 4 58 27 58 64s-18 65 -57 107l-75 80c-32 -4 -57 -27 -57 -64s18 -65 57 -107z" />
    <glyph glyph-name="dieresis" unicode="&#xa8;" horiz-adv-x="416" 
d="M50 568v123h121v-123h-121zM245 568v123h121v-123h-121z" />
    <glyph glyph-name="copyright" unicode="&#xa9;" horiz-adv-x="812" 
d="M523 302l96 -18c-11 -80 -75 -175 -213 -175c-128 0 -232 110 -232 245c0 139 108 245 232 245c125 0 189 -79 209 -157l-96 -21c-12 46 -45 83 -113 83c-75 0 -131 -63 -131 -150c0 -86 56 -150 131 -150c78 0 111 49 117 98zM68 353c0 -186 152 -338 338 -338
s338 152 338 338s-152 338 -338 338s-338 -152 -338 -338zM36 353c0 204 166 370 370 370s370 -166 370 -370s-166 -370 -370 -370s-370 166 -370 370z" />
    <glyph glyph-name="ordfeminine" unicode="&#xaa;" horiz-adv-x="377" 
d="M325 389h-75c-1 5 -4 26 -4 38c-17 -28 -51 -46 -97 -46c-71 0 -112 50 -112 96c0 76 62 94 135 106c2 0 39 5 40 5c33 5 37 15 37 30c0 21 -18 42 -59 42c-40 0 -66 -19 -68 -62l-74 15c5 32 20 55 41 71c25 21 63 32 101 32c29 0 72 -5 98 -36c19 -16 33 -41 33 -84
v-124c0 -51 4 -80 4 -83zM246 544c-5 -2 -36 -8 -40 -9l-7 -1c-36 -5 -86 -13 -86 -52c0 -23 22 -45 49 -45s84 13 84 74v33z" />
    <glyph glyph-name="guillemotleft" unicode="&#xab;" horiz-adv-x="446" 
d="M39 279v92l171 119v-97l-108 -68l108 -68v-97zM217 279v92l171 119v-97l-107 -68l107 -68v-97z" />
    <glyph glyph-name="logicalnot" unicode="&#xac;" 
d="M38 281v90h548v-314h-90v224h-458z" />
    <glyph glyph-name="uni00AD" unicode="&#xad;" horiz-adv-x="427" 
d="M55 276v103h317v-103h-317z" />
    <glyph glyph-name="registered" unicode="&#xae;" horiz-adv-x="492" 
d="M152 461v259h96c30 0 44 0 61 -6c26 -10 39 -34 39 -59c0 -36 -26 -56 -58 -62c27 -11 36 -25 42 -57c6 -38 8 -52 19 -75h-44c-11 21 -12 52 -16 77c-6 38 -29 43 -66 43h-35v-120h-38zM191 612h61c18 0 58 1 58 41c0 11 -5 21 -13 28c-11 9 -24 10 -55 10h-51v-79z
M63 589c0 -101 82 -183 183 -183s183 82 183 183s-82 183 -183 183s-183 -82 -183 -183zM31 589c0 119 96 215 215 215s215 -96 215 -215s-96 -215 -215 -215s-215 96 -215 215z" />
    <glyph glyph-name="macron" unicode="&#xaf;" horiz-adv-x="418" 
d="M50 598v86h318v-86h-318z" />
    <glyph glyph-name="degree" unicode="&#xb0;" horiz-adv-x="402" 
d="M201 450c53 0 96 43 96 96s-43 95 -96 95s-96 -42 -96 -95s43 -96 96 -96zM201 375c-94 0 -171 77 -171 171s77 171 171 171s171 -77 171 -171s-77 -171 -171 -171z" />
    <glyph glyph-name="plusminus" unicode="&#xb1;" 
d="M40 355v90h239v208h89v-208h236v-90h-236v-207h-89v207h-239zM40 0v90h564v-90h-564z" />
    <glyph glyph-name="twosuperior" unicode="&#xb2;" horiz-adv-x="360" 
d="M36 502v69c24 11 95 52 144 99c31 31 54 63 54 100c0 31 -22 51 -49 51c-34 0 -59 -18 -59 -83l-83 19c0 95 77 128 142 128c73 0 131 -44 131 -115c0 -65 -44 -110 -78 -145c-17 -17 -68 -49 -90 -58h175v-65h-287z" />
    <glyph glyph-name="threesuperior" unicode="&#xb3;" horiz-adv-x="360" 
d="M34 621l82 18c0 -48 22 -82 62 -82c44 0 62 28 62 55c0 24 -13 56 -72 56h-42v59h39c43 0 66 23 66 47c0 27 -20 47 -52 47c-43 0 -57 -30 -58 -69l-82 18c2 54 49 115 140 115c71 0 134 -36 134 -113c0 -15 -13 -66 -69 -74c66 -9 78 -60 78 -94
c0 -57 -53 -111 -144 -111c-66 0 -136 33 -144 128z" />
    <glyph glyph-name="acute" unicode="&#xb4;" horiz-adv-x="286" 
d="M50 540l75 178h111l-98 -178h-88z" />
    <glyph glyph-name="mu" unicode="&#xb5;" horiz-adv-x="561" 
d="M68 -223v705h112v-293c0 -60 20 -114 91 -114c80 0 110 69 110 144v263h112v-482h-109v68c-10 -30 -60 -80 -132 -80c-24 0 -50 6 -72 20v-231h-112z" />
    <glyph glyph-name="paragraph" unicode="&#xb6;" horiz-adv-x="540" 
d="M180 -223v524c-89 22 -156 103 -156 200c0 113 92 205 206 205h258v-65h-35v-864h-70v864h-133v-864h-70z" />
    <glyph glyph-name="periodcentered" unicode="&#xb7;" horiz-adv-x="238" 
d="M45 341c0 41 33 74 74 74c40 0 74 -33 74 -74c0 -40 -34 -73 -74 -73c-41 0 -74 33 -74 73z" />
    <glyph glyph-name="cedilla" unicode="&#xb8;" horiz-adv-x="250" 
d="M50 -238v56h39c27 0 47 17 47 45c0 22 -20 39 -47 39h-39v106h59v-51c51 -3 91 -38 91 -94c0 -65 -48 -101 -105 -101h-45z" />
    <glyph glyph-name="onesuperior" unicode="&#xb9;" horiz-adv-x="360" 
d="M159 502v259h-72v65h33c33 0 45 11 45 50h76v-374h-82z" />
    <glyph glyph-name="ordmasculine" unicode="&#xba;" horiz-adv-x="383" 
d="M192 440c56 0 82 57 82 108s-26 109 -82 109c-57 0 -84 -58 -84 -109s27 -108 84 -108zM192 381c-103 0 -160 85 -160 167s57 168 160 168s159 -86 159 -168s-56 -167 -159 -167z" />
    <glyph glyph-name="guillemotright" unicode="&#xbb;" horiz-adv-x="446" 
d="M58 160v97l107 68l-107 68v97l171 -119v-92zM236 160v97l108 68l-108 68v97l171 -119v-92z" />
    <glyph glyph-name="onequarter" unicode="&#xbc;" horiz-adv-x="850" 
d="M136 332v259h-72v65h33c33 0 45 11 45 50h76v-374h-82zM105 0l489 706h91l-489 -706h-91zM472 89v61l150 224h96v-221h71v-64h-71v-89h-77v89h-169zM559 153h82v135z" />
    <glyph glyph-name="onehalf" unicode="&#xbd;" horiz-adv-x="850" 
d="M141 332v259h-72v65h33c33 0 45 11 45 50h76v-374h-82zM110 0l489 706h91l-489 -706h-91zM489 0v69c24 11 95 52 144 99c31 31 54 63 54 100c0 31 -22 51 -49 51c-34 0 -59 -18 -59 -83l-83 19c0 95 77 128 142 128c73 0 131 -44 131 -115c0 -65 -44 -110 -78 -145
c-17 -17 -68 -49 -90 -58h175v-65h-287z" />
    <glyph glyph-name="threequarters" unicode="&#xbe;" horiz-adv-x="850" 
d="M41 451l82 18c0 -48 22 -82 62 -82c44 0 62 28 62 55c0 24 -13 56 -72 56h-42v59h39c43 0 66 23 66 47c0 27 -20 47 -52 47c-43 0 -57 -30 -58 -69l-82 18c2 54 49 115 140 115c71 0 134 -36 134 -113c0 -15 -13 -66 -69 -74c66 -9 78 -60 78 -94
c0 -57 -53 -111 -144 -111c-66 0 -136 33 -144 128zM131 0l489 706h91l-489 -706h-91zM498 89v61l150 224h96v-221h71v-64h-71v-89h-77v89h-169zM585 153h82v135z" />
    <glyph glyph-name="questiondown" unicode="&#xbf;" horiz-adv-x="554" 
d="M222 380v145h125v-237c-12 1 -43 3 -60 3c-66 0 -133 -27 -133 -105c0 -65 55 -102 121 -102c75 0 128 45 135 132l121 -27c-14 -109 -105 -206 -256 -206c-128 0 -242 68 -242 203c0 109 81 186 189 194zM218 573v133h133v-133h-133z" />
    <glyph glyph-name="Agrave" unicode="&#xc0;" horiz-adv-x="705" 
d="M-1 0l279 706h150l277 -706h-132l-75 201h-292l-75 -201h-132zM242 299h220l-110 297zM314 763l-98 178h111l75 -178h-88z" />
    <glyph glyph-name="Aacute" unicode="&#xc1;" horiz-adv-x="705" 
d="M-1 0l279 706h150l277 -706h-132l-75 201h-292l-75 -201h-132zM242 299h220l-110 297zM305 763l75 178h111l-98 -178h-88z" />
    <glyph glyph-name="Acircumflex" unicode="&#xc2;" horiz-adv-x="705" 
d="M-1 0l279 706h150l277 -706h-132l-75 201h-292l-75 -201h-132zM242 299h220l-110 297zM172 763l132 178h96l132 -178h-98l-82 116l-83 -116h-97z" />
    <glyph glyph-name="Atilde" unicode="&#xc3;" horiz-adv-x="705" 
d="M-1 0l279 706h150l277 -706h-132l-75 201h-292l-75 -201h-132zM242 299h220l-110 297zM193 791v95c20 20 59 37 90 37c27 0 48 -7 69 -14s49 -20 73 -20c35 0 65 21 86 48v-95c-21 -21 -61 -39 -91 -39s-52 9 -76 17c-22 7 -42 18 -66 18c-35 0 -65 -21 -85 -47z" />
    <glyph glyph-name="Adieresis" unicode="&#xc4;" horiz-adv-x="705" 
d="M-1 0l279 706h150l277 -706h-132l-75 201h-292l-75 -201h-132zM242 299h220l-110 297zM194 791v123h121v-123h-121zM389 791v123h121v-123h-121z" />
    <glyph glyph-name="Aring" unicode="&#xc5;" horiz-adv-x="704" 
d="M-1 0l280 708c-17 16 -27 40 -27 66c0 55 45 101 101 101c55 0 101 -46 101 -101c0 -26 -12 -50 -28 -67l279 -707h-132l-75 201h-292l-75 -201h-132zM242 299h220l-110 297zM353 722c28 0 51 23 51 52c0 28 -23 52 -51 52c-29 0 -52 -24 -52 -52c0 -29 23 -52 52 -52z
" />
    <glyph glyph-name="AE" unicode="&#xc6;" horiz-adv-x="972" 
d="M-17 0l447 706h491v-101h-314v-191h300v-101h-300v-212h321v-101h-446v229h-215l-140 -229h-144zM330 334h152v249z" />
    <glyph glyph-name="Ccedilla" unicode="&#xc7;" horiz-adv-x="730" 
d="M344 -238v56h39c27 0 47 17 47 45c0 22 -20 39 -47 39h-39v83c-184 19 -308 169 -308 368c0 207 140 370 351 370c145 0 265 -79 317 -232l-122 -28c-36 102 -105 159 -195 159c-136 0 -224 -121 -224 -269c0 -153 87 -269 221 -269c101 0 178 72 204 183l124 -25
c-39 -155 -160 -251 -309 -258v-27c51 -3 91 -38 91 -94c0 -65 -48 -101 -105 -101h-45z" />
    <glyph glyph-name="Egrave" unicode="&#xc8;" horiz-adv-x="619" 
d="M73 0v706h495v-101h-369v-191h355v-101h-355v-212h377v-101h-503zM285 763l-98 178h111l75 -178h-88z" />
    <glyph glyph-name="Eacute" unicode="&#xc9;" horiz-adv-x="619" 
d="M73 0v706h495v-101h-369v-191h355v-101h-355v-212h377v-101h-503zM276 763l75 178h111l-98 -178h-88z" />
    <glyph glyph-name="Ecircumflex" unicode="&#xca;" horiz-adv-x="619" 
d="M73 0v706h495v-101h-369v-191h355v-101h-355v-212h377v-101h-503zM143 763l132 178h96l132 -178h-98l-82 116l-83 -116h-97z" />
    <glyph glyph-name="Edieresis" unicode="&#xcb;" horiz-adv-x="619" 
d="M73 0v706h495v-101h-369v-191h355v-101h-355v-212h377v-101h-503zM165 791v123h121v-123h-121zM360 791v123h121v-123h-121z" />
    <glyph glyph-name="Igrave" unicode="&#xcc;" horiz-adv-x="272" 
d="M73 0v706h126v-706h-126zM98 763l-98 178h111l75 -178h-88z" />
    <glyph glyph-name="Iacute" unicode="&#xcd;" horiz-adv-x="272" 
d="M73 0v706h126v-706h-126zM89 763l75 178h111l-98 -178h-88z" />
    <glyph glyph-name="Icircumflex" unicode="&#xce;" horiz-adv-x="272" 
d="M1 763l85 178h100l85 -178h-82l-53 116l-53 -116h-82zM73 0v706h126v-706h-126z" />
    <glyph glyph-name="Idieresis" unicode="&#xcf;" horiz-adv-x="272" 
d="M73 0v706h126v-706h-126zM-22 791v123h121v-123h-121zM173 791v123h121v-123h-121z" />
    <glyph glyph-name="Eth" unicode="&#xd0;" horiz-adv-x="751" 
d="M90 0v345h-72v69h72v292h255c195 0 369 -108 369 -353s-174 -353 -369 -353h-255zM216 101h117c178 0 254 108 254 252s-76 252 -254 252h-117v-191h203v-69h-203v-244z" />
    <glyph glyph-name="Ntilde" unicode="&#xd1;" horiz-adv-x="776" 
d="M73 0v706h169l348 -583v583h113v-706h-172l-345 582v-582h-113zM229 791v95c20 20 59 37 90 37c27 0 48 -7 69 -14s49 -20 73 -20c35 0 65 21 86 48v-95c-21 -21 -61 -39 -91 -39s-52 9 -76 17c-22 7 -42 18 -66 18c-35 0 -65 -21 -85 -47z" />
    <glyph glyph-name="Ograve" unicode="&#xd2;" horiz-adv-x="774" 
d="M389 84c154 0 222 133 222 267s-68 271 -222 271c-158 0 -226 -137 -226 -271s68 -267 226 -267zM389 -17c-246 0 -353 183 -353 368c0 184 107 372 353 372c242 0 349 -188 349 -372c0 -185 -107 -368 -349 -368zM352 763l-98 178h111l75 -178h-88z" />
    <glyph glyph-name="Oacute" unicode="&#xd3;" horiz-adv-x="774" 
d="M389 84c154 0 222 133 222 267s-68 271 -222 271c-158 0 -226 -137 -226 -271s68 -267 226 -267zM389 -17c-246 0 -353 183 -353 368c0 184 107 372 353 372c242 0 349 -188 349 -372c0 -185 -107 -368 -349 -368zM343 763l75 178h111l-98 -178h-88z" />
    <glyph glyph-name="Ocircumflex" unicode="&#xd4;" horiz-adv-x="774" 
d="M389 84c154 0 222 133 222 267s-68 271 -222 271c-158 0 -226 -137 -226 -271s68 -267 226 -267zM389 -17c-246 0 -353 183 -353 368c0 184 107 372 353 372c242 0 349 -188 349 -372c0 -185 -107 -368 -349 -368zM210 763l132 178h96l132 -178h-98l-82 116l-83 -116h-97
z" />
    <glyph glyph-name="Otilde" unicode="&#xd5;" horiz-adv-x="774" 
d="M389 84c154 0 222 133 222 267s-68 271 -222 271c-158 0 -226 -137 -226 -271s68 -267 226 -267zM389 -17c-246 0 -353 183 -353 368c0 184 107 372 353 372c242 0 349 -188 349 -372c0 -185 -107 -368 -349 -368zM231 791v95c20 20 59 37 90 37c27 0 48 -7 69 -14
s49 -20 73 -20c35 0 65 21 86 48v-95c-21 -21 -61 -39 -91 -39s-52 9 -76 17c-22 7 -42 18 -66 18c-35 0 -65 -21 -85 -47z" />
    <glyph glyph-name="Odieresis" unicode="&#xd6;" horiz-adv-x="774" 
d="M389 84c154 0 222 133 222 267s-68 271 -222 271c-158 0 -226 -137 -226 -271s68 -267 226 -267zM389 -17c-246 0 -353 183 -353 368c0 184 107 372 353 372c242 0 349 -188 349 -372c0 -185 -107 -368 -349 -368zM232 791v123h121v-123h-121zM427 791v123h121v-123h-121
z" />
    <glyph glyph-name="multiply" unicode="&#xd7;" 
d="M37 90l221 221l-223 223l63 64l224 -224l221 222l63 -64l-222 -221l225 -224l-63 -63l-224 224l-222 -221z" />
    <glyph glyph-name="Oslash" unicode="&#xd8;" horiz-adv-x="778" 
d="M38 0l84 97c-57 69 -84 161 -84 254c0 184 107 372 353 372c89 0 160 -26 214 -67l43 50h92l-85 -99c58 -70 85 -164 85 -256c0 -185 -107 -368 -349 -368c-92 0 -164 25 -219 66l-42 -49h-92zM391 84c154 0 222 133 222 267c0 57 -13 115 -39 163l-327 -379
c35 -32 83 -51 144 -51zM165 351c0 -57 12 -114 38 -160l327 379c-34 32 -81 52 -139 52c-158 0 -226 -137 -226 -271z" />
    <glyph glyph-name="Ugrave" unicode="&#xd9;" horiz-adv-x="722" 
d="M67 254v452h126v-452c0 -109 68 -170 169 -170c100 0 167 58 167 170v452h126v-452c0 -184 -128 -271 -293 -271c-179 0 -295 100 -295 271zM323 763l-98 178h111l75 -178h-88z" />
    <glyph glyph-name="Uacute" unicode="&#xda;" horiz-adv-x="722" 
d="M67 254v452h126v-452c0 -109 68 -170 169 -170c100 0 167 58 167 170v452h126v-452c0 -184 -128 -271 -293 -271c-179 0 -295 100 -295 271zM314 763l75 178h111l-98 -178h-88z" />
    <glyph glyph-name="Ucircumflex" unicode="&#xdb;" horiz-adv-x="722" 
d="M67 254v452h126v-452c0 -109 68 -170 169 -170c100 0 167 58 167 170v452h126v-452c0 -184 -128 -271 -293 -271c-179 0 -295 100 -295 271zM181 763l132 178h96l132 -178h-98l-82 116l-83 -116h-97z" />
    <glyph glyph-name="Udieresis" unicode="&#xdc;" horiz-adv-x="722" 
d="M67 254v452h126v-452c0 -109 68 -170 169 -170c100 0 167 58 167 170v452h126v-452c0 -184 -128 -271 -293 -271c-179 0 -295 100 -295 271zM203 791v123h121v-123h-121zM398 791v123h121v-123h-121z" />
    <glyph glyph-name="Yacute" unicode="&#xdd;" horiz-adv-x="679" 
d="M278 0v324l-277 382h146l194 -287l196 287h141l-277 -382v-324h-123zM294 763l75 178h111l-98 -178h-88z" />
    <glyph glyph-name="Thorn" unicode="&#xde;" horiz-adv-x="649" 
d="M73 0v706h126v-104h200c115 0 229 -50 229 -203c0 -152 -113 -204 -229 -204h-200v-195h-126zM199 296h183c72 0 121 23 121 103c0 70 -41 102 -121 102h-183v-205z" />
    <glyph glyph-name="germandbls" unicode="&#xdf;" horiz-adv-x="560" 
d="M58 0v501c0 154 81 222 213 222c155 0 215 -92 215 -170c0 -65 -33 -109 -89 -129c89 -27 131 -100 131 -191c0 -145 -102 -241 -242 -241c-22 0 -44 2 -67 8v99c18 -5 35 -8 53 -8c84 0 139 62 139 143c0 78 -53 138 -143 138h-49v94h42c61 0 108 32 108 87
c0 43 -34 78 -98 78s-101 -45 -101 -114v-517h-112z" />
    <glyph glyph-name="agrave" unicode="&#xe0;" horiz-adv-x="514" 
d="M466 0h-112c-1 5 -7 44 -7 63c-25 -47 -76 -75 -148 -75c-105 0 -168 69 -168 143c0 116 90 141 197 159c8 1 58 8 68 10c51 8 56 25 56 48c0 31 -27 63 -91 63c-60 0 -101 -29 -104 -95l-110 24c9 53 38 92 77 117s87 37 137 37c108 0 198 -43 198 -166v-203
c0 -81 6 -120 7 -125zM144 138c0 -36 36 -67 78 -67c41 0 125 19 125 114v50c-8 -3 -43 -9 -59 -12l-36 -7c-56 -10 -108 -22 -108 -78zM219 540l-98 178h111l75 -178h-88z" />
    <glyph glyph-name="aacute" unicode="&#xe1;" horiz-adv-x="514" 
d="M466 0h-112c-1 5 -7 44 -7 63c-25 -47 -76 -75 -148 -75c-105 0 -168 69 -168 143c0 116 90 141 197 159c8 1 58 8 68 10c51 8 56 25 56 48c0 31 -27 63 -91 63c-60 0 -101 -29 -104 -95l-110 24c9 53 38 92 77 117s87 37 137 37c108 0 198 -43 198 -166v-203
c0 -81 6 -120 7 -125zM144 138c0 -36 36 -67 78 -67c41 0 125 19 125 114v50c-8 -3 -43 -9 -59 -12l-36 -7c-56 -10 -108 -22 -108 -78zM210 540l75 178h111l-98 -178h-88z" />
    <glyph glyph-name="acircumflex" unicode="&#xe2;" horiz-adv-x="514" 
d="M466 0h-112c-1 5 -7 44 -7 63c-25 -47 -76 -75 -148 -75c-105 0 -168 69 -168 143c0 116 90 141 197 159c8 1 58 8 68 10c51 8 56 25 56 48c0 31 -27 63 -91 63c-60 0 -101 -29 -104 -95l-110 24c9 53 38 92 77 117s87 37 137 37c108 0 198 -43 198 -166v-203
c0 -81 6 -120 7 -125zM144 138c0 -36 36 -67 78 -67c41 0 125 19 125 114v50c-8 -3 -43 -9 -59 -12l-36 -7c-56 -10 -108 -22 -108 -78zM77 540l132 178h96l132 -178h-98l-82 116l-83 -116h-97z" />
    <glyph glyph-name="atilde" unicode="&#xe3;" horiz-adv-x="514" 
d="M466 0h-112c-1 5 -7 44 -7 63c-25 -47 -76 -75 -148 -75c-105 0 -168 69 -168 143c0 116 90 141 197 159c8 1 58 8 68 10c51 8 56 25 56 48c0 31 -27 63 -91 63c-60 0 -101 -29 -104 -95l-110 24c9 53 38 92 77 117s87 37 137 37c108 0 198 -43 198 -166v-203
c0 -81 6 -120 7 -125zM144 138c0 -36 36 -67 78 -67c41 0 125 19 125 114v50c-8 -3 -43 -9 -59 -12l-36 -7c-56 -10 -108 -22 -108 -78zM98 568v95c20 20 59 37 90 37c27 0 48 -7 69 -14s49 -20 73 -20c35 0 65 21 86 48v-95c-21 -21 -61 -39 -91 -39s-52 9 -76 17
c-22 7 -42 18 -66 18c-35 0 -65 -21 -85 -47z" />
    <glyph glyph-name="adieresis" unicode="&#xe4;" horiz-adv-x="514" 
d="M466 0h-112c-1 5 -7 44 -7 63c-25 -47 -76 -75 -148 -75c-105 0 -168 69 -168 143c0 116 90 141 197 159c8 1 58 8 68 10c51 8 56 25 56 48c0 31 -27 63 -91 63c-60 0 -101 -29 -104 -95l-110 24c9 53 38 92 77 117s87 37 137 37c108 0 198 -43 198 -166v-203
c0 -81 6 -120 7 -125zM144 138c0 -36 36 -67 78 -67c41 0 125 19 125 114v50c-8 -3 -43 -9 -59 -12l-36 -7c-56 -10 -108 -22 -108 -78zM99 568v123h121v-123h-121zM294 568v123h121v-123h-121z" />
    <glyph glyph-name="aring" unicode="&#xe5;" horiz-adv-x="514" 
d="M466 0h-112c-1 5 -7 44 -7 63c-25 -47 -76 -75 -148 -75c-105 0 -168 69 -168 143c0 116 90 141 197 159c8 1 58 8 68 10c51 8 56 25 56 48c0 31 -27 63 -91 63c-60 0 -101 -29 -104 -95l-110 24c9 53 38 92 77 117s87 37 137 37c108 0 198 -43 198 -166v-203
c0 -81 6 -120 7 -125zM144 138c0 -36 36 -67 78 -67c41 0 125 19 125 114v50c-8 -3 -43 -9 -59 -12l-36 -7c-56 -10 -108 -22 -108 -78zM257 582c28 0 51 23 51 52c0 28 -23 51 -51 51c-29 0 -52 -23 -52 -51c0 -29 23 -52 52 -52zM257 532c-56 0 -101 46 -101 102
c0 55 45 101 101 101c55 0 101 -46 101 -101c0 -56 -46 -102 -101 -102z" />
    <glyph glyph-name="ae" unicode="&#xe6;" horiz-adv-x="834" 
d="M157 316l-110 24c7 47 30 79 63 106c39 31 94 48 150 48c69 0 126 -23 160 -62c37 38 89 62 154 62c137 0 228 -109 228 -251c0 -13 -1 -26 -1 -33h-343c0 -80 34 -139 120 -139c68 0 100 47 111 94l103 -25c-16 -81 -106 -151 -212 -151c-77 0 -144 34 -181 97
c-35 -65 -93 -98 -199 -98s-169 73 -169 147c0 125 126 159 272 159h47v32c0 45 -33 85 -90 85c-60 0 -100 -29 -103 -95zM345 185v25h-56c-100 0 -145 -17 -145 -68c0 -45 36 -70 79 -70c52 0 122 30 122 113zM458 294h231c0 55 -39 117 -115 117c-73 0 -116 -54 -116 -117
z" />
    <glyph glyph-name="ccedilla" unicode="&#xe7;" horiz-adv-x="521" 
d="M235 -238v56h39c27 0 47 17 47 45c0 22 -20 39 -47 39h-39v88c-136 17 -203 134 -203 251c0 127 84 253 239 253c143 0 210 -100 225 -171l-113 -22c-6 37 -31 107 -112 107c-88 0 -126 -87 -126 -167s35 -166 126 -166c81 0 108 70 114 115l113 -22
c-10 -66 -73 -168 -204 -179v-32c51 -3 91 -38 91 -94c0 -65 -48 -101 -105 -101h-45z" />
    <glyph glyph-name="egrave" unicode="&#xe8;" horiz-adv-x="524" 
d="M379 165l104 -25c-15 -67 -94 -152 -209 -152c-168 0 -242 124 -242 252c0 132 81 254 231 254c137 0 229 -106 229 -252c0 -13 0 -25 -1 -32h-346c2 -75 43 -139 122 -139c69 0 102 47 112 94zM146 294h233c0 58 -38 117 -116 117c-74 0 -117 -52 -117 -117zM222 540
l-98 178h111l75 -178h-88z" />
    <glyph glyph-name="eacute" unicode="&#xe9;" horiz-adv-x="524" 
d="M379 165l104 -25c-15 -67 -94 -152 -209 -152c-168 0 -242 124 -242 252c0 132 81 254 231 254c137 0 229 -106 229 -252c0 -13 0 -25 -1 -32h-346c2 -75 43 -139 122 -139c69 0 102 47 112 94zM146 294h233c0 58 -38 117 -116 117c-74 0 -117 -52 -117 -117zM213 540
l75 178h111l-98 -178h-88z" />
    <glyph glyph-name="ecircumflex" unicode="&#xea;" horiz-adv-x="524" 
d="M379 165l104 -25c-15 -67 -94 -152 -209 -152c-168 0 -242 124 -242 252c0 132 81 254 231 254c137 0 229 -106 229 -252c0 -13 0 -25 -1 -32h-346c2 -75 43 -139 122 -139c69 0 102 47 112 94zM146 294h233c0 58 -38 117 -116 117c-74 0 -117 -52 -117 -117zM80 540
l132 178h96l132 -178h-98l-82 116l-83 -116h-97z" />
    <glyph glyph-name="edieresis" unicode="&#xeb;" horiz-adv-x="524" 
d="M379 165l104 -25c-15 -67 -94 -152 -209 -152c-168 0 -242 124 -242 252c0 132 81 254 231 254c137 0 229 -106 229 -252c0 -13 0 -25 -1 -32h-346c2 -75 43 -139 122 -139c69 0 102 47 112 94zM146 294h233c0 58 -38 117 -116 117c-74 0 -117 -52 -117 -117zM102 568
v123h121v-123h-121zM297 568v123h121v-123h-121z" />
    <glyph glyph-name="igrave" unicode="&#xec;" horiz-adv-x="228" 
d="M58 0v482h112v-482h-112zM76 540l-98 178h111l75 -178h-88z" />
    <glyph glyph-name="iacute" unicode="&#xed;" horiz-adv-x="228" 
d="M58 0v482h112v-482h-112zM67 540l75 178h111l-98 -178h-88z" />
    <glyph glyph-name="icircumflex" unicode="&#xee;" horiz-adv-x="228" 
d="M-21 540l85 178h100l85 -178h-82l-53 116l-53 -116h-82zM58 0v482h112v-482h-112z" />
    <glyph glyph-name="idieresis" unicode="&#xef;" horiz-adv-x="228" 
d="M58 0v482h112v-482h-112zM-44 568v123h121v-123h-121zM151 568v123h121v-123h-121z" />
    <glyph glyph-name="eth" unicode="&#xf0;" horiz-adv-x="553" 
d="M167 523l-14 46l131 41c-22 28 -43 50 -63 71l93 43c35 -37 43 -47 70 -84l101 31l14 -46l-86 -27c59 -91 103 -205 103 -334c0 -167 -75 -276 -243 -276c-213 0 -241 190 -241 252c0 67 33 254 231 254c53 0 95 -21 124 -57c-13 35 -31 72 -71 132zM280 75
c46 0 124 32 124 165s-78 168 -122 168c-117 0 -137 -125 -137 -168c0 -42 20 -165 135 -165z" />
    <glyph glyph-name="ntilde" unicode="&#xf1;" horiz-adv-x="538" 
d="M58 0v482h109v-69c10 30 58 81 148 81c59 0 107 -24 137 -67c28 -41 32 -83 32 -141v-286h-112v286c0 42 -3 66 -16 86c-11 17 -34 36 -74 36c-29 0 -56 -11 -78 -34c-24 -26 -34 -60 -34 -126v-248h-112zM113 568v95c20 20 59 37 90 37c27 0 48 -7 69 -14s49 -20 73 -20
c35 0 65 21 86 48v-95c-21 -21 -61 -39 -91 -39s-52 9 -76 17c-22 7 -42 18 -66 18c-35 0 -65 -21 -85 -47z" />
    <glyph glyph-name="ograve" unicode="&#xf2;" horiz-adv-x="545" 
d="M273 75c87 0 128 87 128 165s-41 168 -128 168s-129 -90 -129 -168s42 -165 129 -165zM273 -12c-156 0 -242 129 -242 252c0 124 86 254 242 254s241 -130 241 -254c0 -123 -85 -252 -241 -252zM234 540l-98 178h111l75 -178h-88z" />
    <glyph glyph-name="oacute" unicode="&#xf3;" horiz-adv-x="545" 
d="M273 75c87 0 128 87 128 165s-41 168 -128 168s-129 -90 -129 -168s42 -165 129 -165zM273 -12c-156 0 -242 129 -242 252c0 124 86 254 242 254s241 -130 241 -254c0 -123 -85 -252 -241 -252zM225 540l75 178h111l-98 -178h-88z" />
    <glyph glyph-name="ocircumflex" unicode="&#xf4;" horiz-adv-x="545" 
d="M273 75c87 0 128 87 128 165s-41 168 -128 168s-129 -90 -129 -168s42 -165 129 -165zM273 -12c-156 0 -242 129 -242 252c0 124 86 254 242 254s241 -130 241 -254c0 -123 -85 -252 -241 -252zM92 540l132 178h96l132 -178h-98l-82 116l-83 -116h-97z" />
    <glyph glyph-name="otilde" unicode="&#xf5;" horiz-adv-x="545" 
d="M273 75c87 0 128 87 128 165s-41 168 -128 168s-129 -90 -129 -168s42 -165 129 -165zM273 -12c-156 0 -242 129 -242 252c0 124 86 254 242 254s241 -130 241 -254c0 -123 -85 -252 -241 -252zM113 568v95c20 20 59 37 90 37c27 0 48 -7 69 -14s49 -20 73 -20
c35 0 65 21 86 48v-95c-21 -21 -61 -39 -91 -39s-52 9 -76 17c-22 7 -42 18 -66 18c-35 0 -65 -21 -85 -47z" />
    <glyph glyph-name="odieresis" unicode="&#xf6;" horiz-adv-x="545" 
d="M273 75c87 0 128 87 128 165s-41 168 -128 168s-129 -90 -129 -168s42 -165 129 -165zM273 -12c-156 0 -242 129 -242 252c0 124 86 254 242 254s241 -130 241 -254c0 -123 -85 -252 -241 -252zM114 568v123h121v-123h-121zM309 568v123h121v-123h-121z" />
    <glyph glyph-name="divide" unicode="&#xf7;" 
d="M249 98c0 41 32 73 73 73s73 -32 73 -73s-32 -73 -73 -73s-73 32 -73 73zM21 265v90h602v-90h-602zM249 523c0 41 32 73 73 73s73 -32 73 -73s-32 -72 -73 -72s-73 31 -73 72z" />
    <glyph glyph-name="oslash" unicode="&#xf8;" horiz-adv-x="551" 
d="M21 0l68 77c-36 46 -55 105 -55 163c0 124 86 254 242 254c56 0 104 -17 141 -46l30 34h83l-68 -77c36 -48 55 -107 55 -165c0 -123 -85 -252 -241 -252c-58 0 -105 17 -143 45l-29 -33h-83zM163 160l190 216c-20 20 -46 32 -77 32c-87 0 -129 -90 -129 -168
c0 -27 6 -56 16 -80zM388 321l-191 -215c20 -20 46 -31 79 -31c87 0 128 87 128 165c0 28 -5 56 -16 81z" />
    <glyph glyph-name="ugrave" unicode="&#xf9;" horiz-adv-x="537" 
d="M54 196v286h112v-286c0 -42 4 -66 17 -86c10 -17 33 -35 73 -35c29 0 55 10 77 33c24 26 34 56 34 126v248h112v-482h-110v69c-9 -30 -56 -81 -146 -81c-59 0 -107 24 -137 67c-28 41 -32 83 -32 141zM230 540l-98 178h111l75 -178h-88z" />
    <glyph glyph-name="uacute" unicode="&#xfa;" horiz-adv-x="537" 
d="M54 196v286h112v-286c0 -42 4 -66 17 -86c10 -17 33 -35 73 -35c29 0 55 10 77 33c24 26 34 56 34 126v248h112v-482h-110v69c-9 -30 -56 -81 -146 -81c-59 0 -107 24 -137 67c-28 41 -32 83 -32 141zM221 540l75 178h111l-98 -178h-88z" />
    <glyph glyph-name="ucircumflex" unicode="&#xfb;" horiz-adv-x="537" 
d="M54 196v286h112v-286c0 -42 4 -66 17 -86c10 -17 33 -35 73 -35c29 0 55 10 77 33c24 26 34 56 34 126v248h112v-482h-110v69c-9 -30 -56 -81 -146 -81c-59 0 -107 24 -137 67c-28 41 -32 83 -32 141zM88 540l132 178h96l132 -178h-98l-82 116l-83 -116h-97z" />
    <glyph glyph-name="udieresis" unicode="&#xfc;" horiz-adv-x="537" 
d="M54 196v286h112v-286c0 -42 4 -66 17 -86c10 -17 33 -35 73 -35c29 0 55 10 77 33c24 26 34 56 34 126v248h112v-482h-110v69c-9 -30 -56 -81 -146 -81c-59 0 -107 24 -137 67c-28 41 -32 83 -32 141zM110 568v123h121v-123h-121zM305 568v123h121v-123h-121z" />
    <glyph glyph-name="yacute" unicode="&#xfd;" horiz-adv-x="488" 
d="M34 -227v93c16 -3 30 -6 40 -6c40 0 70 9 83 45l34 93l-184 484h118l125 -351l121 351h113l-231 -621c-23 -63 -74 -93 -149 -93c-17 0 -55 3 -70 5zM199 540l75 178h111l-98 -178h-88z" />
    <glyph glyph-name="thorn" unicode="&#xfe;" horiz-adv-x="573" 
d="M58 -223v929h107v-288c23 43 90 76 148 76c179 0 228 -160 228 -252c0 -80 -42 -254 -232 -254c-61 0 -113 31 -139 70v-281h-112zM293 75c109 0 135 111 135 166c0 68 -34 167 -133 167c-48 0 -127 -34 -127 -166c0 -133 80 -167 125 -167z" />
    <glyph glyph-name="ydieresis" unicode="&#xff;" horiz-adv-x="488" 
d="M34 -227v93c16 -3 30 -6 40 -6c40 0 70 9 83 45l34 93l-184 484h118l125 -351l121 351h113l-231 -621c-23 -63 -74 -93 -149 -93c-17 0 -55 3 -70 5zM88 568v123h121v-123h-121zM283 568v123h121v-123h-121z" />
    <glyph glyph-name="Amacron" unicode="&#x100;" horiz-adv-x="705" 
d="M-1 0l279 706h150l277 -706h-132l-75 201h-292l-75 -201h-132zM242 299h220l-110 297zM193 821v86h318v-86h-318z" />
    <glyph glyph-name="amacron" unicode="&#x101;" horiz-adv-x="514" 
d="M466 0h-112c-1 5 -7 44 -7 63c-25 -47 -76 -75 -148 -75c-105 0 -168 69 -168 143c0 116 90 141 197 159c8 1 58 8 68 10c51 8 56 25 56 48c0 31 -27 63 -91 63c-60 0 -101 -29 -104 -95l-110 24c9 53 38 92 77 117s87 37 137 37c108 0 198 -43 198 -166v-203
c0 -81 6 -120 7 -125zM144 138c0 -36 36 -67 78 -67c41 0 125 19 125 114v50c-8 -3 -43 -9 -59 -12l-36 -7c-56 -10 -108 -22 -108 -78zM98 598v86h318v-86h-318z" />
    <glyph glyph-name="Abreve" unicode="&#x102;" horiz-adv-x="705" 
d="M-1 0l279 706h150l277 -706h-132l-75 201h-292l-75 -201h-132zM242 299h220l-110 297zM196 916v21h83v-21c0 -50 22 -89 73 -89c50 0 73 39 73 89v21h84v-21c0 -100 -67 -162 -157 -162c-91 0 -156 62 -156 162z" />
    <glyph glyph-name="abreve" unicode="&#x103;" horiz-adv-x="514" 
d="M466 0h-112c-1 5 -7 44 -7 63c-25 -47 -76 -75 -148 -75c-105 0 -168 69 -168 143c0 116 90 141 197 159c8 1 58 8 68 10c51 8 56 25 56 48c0 31 -27 63 -91 63c-60 0 -101 -29 -104 -95l-110 24c9 53 38 92 77 117s87 37 137 37c108 0 198 -43 198 -166v-203
c0 -81 6 -120 7 -125zM144 138c0 -36 36 -67 78 -67c41 0 125 19 125 114v50c-8 -3 -43 -9 -59 -12l-36 -7c-56 -10 -108 -22 -108 -78zM101 693v21h83v-21c0 -50 22 -89 73 -89c50 0 73 39 73 89v21h84v-21c0 -100 -67 -162 -157 -162c-91 0 -156 62 -156 162z" />
    <glyph glyph-name="Aogonek" unicode="&#x104;" horiz-adv-x="705" 
d="M242 299h220l-110 297zM530 -91c0 39 15 74 39 100l-71 192h-292l-75 -201h-132l279 706h150l277 -706h-28c-46 0 -83 -41 -83 -91s37 -91 83 -91h39v-56h-39c-81 0 -147 66 -147 147z" />
    <glyph glyph-name="aogonek" unicode="&#x105;" horiz-adv-x="514" 
d="M365 -91c0 -50 37 -91 83 -91h39v-56h-39c-81 0 -147 66 -147 147c0 44 19 84 50 110c-2 14 -4 32 -4 44c-25 -47 -76 -75 -148 -75c-105 0 -168 69 -168 143c0 116 90 141 197 159c8 1 58 8 68 10c51 8 56 25 56 48c0 31 -27 63 -91 63c-60 0 -101 -29 -104 -95l-110 24
c9 53 38 92 77 117s87 37 137 37c108 0 198 -43 198 -166v-203c0 -81 6 -120 7 -125h-18c-46 0 -83 -41 -83 -91zM144 138c0 -36 36 -67 78 -67c41 0 125 19 125 114v50c-8 -3 -43 -9 -59 -12l-36 -7c-56 -10 -108 -22 -108 -78z" />
    <glyph glyph-name="Cacute" unicode="&#x106;" horiz-adv-x="730" 
d="M588 267l124 -25c-40 -161 -170 -259 -328 -259c-206 0 -348 157 -348 370c0 207 140 370 351 370c145 0 265 -79 317 -232l-122 -28c-36 102 -105 159 -195 159c-136 0 -224 -121 -224 -269c0 -153 87 -269 221 -269c101 0 178 72 204 183zM334 763l75 178h111l-98 -178
h-88z" />
    <glyph glyph-name="cacute" unicode="&#x107;" horiz-adv-x="521" 
d="M385 190l113 -22c-10 -69 -80 -180 -227 -180c-160 0 -239 126 -239 253s84 253 239 253c143 0 210 -100 225 -171l-113 -22c-6 37 -31 107 -112 107c-88 0 -126 -87 -126 -167s35 -166 126 -166c81 0 108 70 114 115zM221 540l75 178h111l-98 -178h-88z" />
    <glyph glyph-name="Ccircumflex" unicode="&#x108;" horiz-adv-x="730" 
d="M588 267l124 -25c-40 -161 -170 -259 -328 -259c-206 0 -348 157 -348 370c0 207 140 370 351 370c145 0 265 -79 317 -232l-122 -28c-36 102 -105 159 -195 159c-136 0 -224 -121 -224 -269c0 -153 87 -269 221 -269c101 0 178 72 204 183zM201 763l132 178h96l132 -178
h-98l-82 116l-83 -116h-97z" />
    <glyph glyph-name="ccircumflex" unicode="&#x109;" horiz-adv-x="521" 
d="M385 190l113 -22c-10 -69 -80 -180 -227 -180c-160 0 -239 126 -239 253s84 253 239 253c143 0 210 -100 225 -171l-113 -22c-6 37 -31 107 -112 107c-88 0 -126 -87 -126 -167s35 -166 126 -166c81 0 108 70 114 115zM88 540l132 178h96l132 -178h-98l-82 116l-83 -116
h-97z" />
    <glyph glyph-name="Cdotaccent" unicode="&#x10a;" horiz-adv-x="730" 
d="M588 267l124 -25c-40 -161 -170 -259 -328 -259c-206 0 -348 157 -348 370c0 207 140 370 351 370c145 0 265 -79 317 -232l-122 -28c-36 102 -105 159 -195 159c-136 0 -224 -121 -224 -269c0 -153 87 -269 221 -269c101 0 178 72 204 183zM322 791v123h118v-123h-118z
" />
    <glyph glyph-name="cdotaccent" unicode="&#x10b;" horiz-adv-x="521" 
d="M385 190l113 -22c-10 -69 -80 -180 -227 -180c-160 0 -239 126 -239 253s84 253 239 253c143 0 210 -100 225 -171l-113 -22c-6 37 -31 107 -112 107c-88 0 -126 -87 -126 -167s35 -166 126 -166c81 0 108 70 114 115zM209 568v123h118v-123h-118z" />
    <glyph glyph-name="Ccaron" unicode="&#x10c;" horiz-adv-x="730" 
d="M588 267l124 -25c-40 -161 -170 -259 -328 -259c-206 0 -348 157 -348 370c0 207 140 370 351 370c145 0 265 -79 317 -232l-122 -28c-36 102 -105 159 -195 159c-136 0 -224 -121 -224 -269c0 -153 87 -269 221 -269c101 0 178 72 204 183zM333 763l-132 178h97l83 -117
l82 117h98l-132 -178h-96z" />
    <glyph glyph-name="ccaron" unicode="&#x10d;" horiz-adv-x="521" 
d="M385 190l113 -22c-10 -69 -80 -180 -227 -180c-160 0 -239 126 -239 253s84 253 239 253c143 0 210 -100 225 -171l-113 -22c-6 37 -31 107 -112 107c-88 0 -126 -87 -126 -167s35 -166 126 -166c81 0 108 70 114 115zM220 540l-132 178h97l83 -117l82 117h98l-132 -178
h-96z" />
    <glyph glyph-name="Dcaron" unicode="&#x10e;" horiz-adv-x="735" 
d="M199 101h117c179 0 255 108 255 252s-76 252 -255 252h-117v-504zM73 0v706h256c195 0 369 -108 369 -353s-174 -353 -369 -353h-256zM306 763l-132 178h97l83 -117l82 117h98l-132 -178h-96z" />
    <glyph glyph-name="dcaron" unicode="&#x10f;" horiz-adv-x="593" 
d="M409 0v64c-23 -43 -91 -76 -148 -76c-185 0 -229 169 -229 252c0 88 47 254 231 254c61 0 114 -32 140 -70v282h112v-706h-106zM279 75c47 0 125 33 125 165c0 133 -78 168 -122 168c-104 0 -137 -102 -137 -167c0 -58 30 -166 134 -166zM561 528l36 178h106l-77 -178
h-65z" />
    <glyph glyph-name="Dcroat" unicode="&#x110;" horiz-adv-x="751" 
d="M90 0v345h-72v69h72v292h255c195 0 369 -108 369 -353s-174 -353 -369 -353h-255zM216 101h117c178 0 254 108 254 252s-76 252 -254 252h-117v-191h203v-69h-203v-244z" />
    <glyph glyph-name="dcroat" unicode="&#x111;" horiz-adv-x="573" 
d="M267 560v69h136v77h112v-77h65v-69h-65v-560h-106v64c-23 -43 -91 -76 -148 -76c-185 0 -229 169 -229 252c0 88 47 254 231 254c61 0 114 -32 140 -70v136h-136zM279 75c47 0 125 33 125 165c0 133 -78 168 -122 168c-104 0 -137 -102 -137 -167c0 -58 30 -166 134 -166
z" />
    <glyph glyph-name="Emacron" unicode="&#x112;" horiz-adv-x="619" 
d="M73 0v706h495v-101h-369v-191h355v-101h-355v-212h377v-101h-503zM164 821v86h318v-86h-318z" />
    <glyph glyph-name="emacron" unicode="&#x113;" horiz-adv-x="524" 
d="M379 165l104 -25c-15 -67 -94 -152 -209 -152c-168 0 -242 124 -242 252c0 132 81 254 231 254c137 0 229 -106 229 -252c0 -13 0 -25 -1 -32h-346c2 -75 43 -139 122 -139c69 0 102 47 112 94zM146 294h233c0 58 -38 117 -116 117c-74 0 -117 -52 -117 -117zM101 598v86
h318v-86h-318z" />
    <glyph glyph-name="Ebreve" unicode="&#x114;" horiz-adv-x="619" 
d="M73 0v706h495v-101h-369v-191h355v-101h-355v-212h377v-101h-503zM167 916v21h83v-21c0 -50 22 -89 73 -89c50 0 73 39 73 89v21h84v-21c0 -100 -67 -162 -157 -162c-91 0 -156 62 -156 162z" />
    <glyph glyph-name="ebreve" unicode="&#x115;" horiz-adv-x="524" 
d="M379 165l104 -25c-15 -67 -94 -152 -209 -152c-168 0 -242 124 -242 252c0 132 81 254 231 254c137 0 229 -106 229 -252c0 -13 0 -25 -1 -32h-346c2 -75 43 -139 122 -139c69 0 102 47 112 94zM146 294h233c0 58 -38 117 -116 117c-74 0 -117 -52 -117 -117zM104 693v21
h83v-21c0 -50 22 -89 73 -89c50 0 73 39 73 89v21h84v-21c0 -100 -67 -162 -157 -162c-91 0 -156 62 -156 162z" />
    <glyph glyph-name="Edotaccent" unicode="&#x116;" horiz-adv-x="619" 
d="M73 0v706h495v-101h-369v-191h355v-101h-355v-212h377v-101h-503zM264 791v123h118v-123h-118z" />
    <glyph glyph-name="edotaccent" unicode="&#x117;" horiz-adv-x="524" 
d="M379 165l104 -25c-15 -67 -94 -152 -209 -152c-168 0 -242 124 -242 252c0 132 81 254 231 254c137 0 229 -106 229 -252c0 -13 0 -25 -1 -32h-346c2 -75 43 -139 122 -139c69 0 102 47 112 94zM146 294h233c0 58 -38 117 -116 117c-74 0 -117 -52 -117 -117zM201 568
v123h118v-123h-118z" />
    <glyph glyph-name="Eogonek" unicode="&#x118;" horiz-adv-x="619" 
d="M73 0v706h495v-101h-369v-191h355v-101h-355v-212h377v-101h-42c-44 -2 -79 -42 -79 -91c0 -50 37 -91 83 -91h39v-56h-39c-81 0 -147 66 -147 147c0 34 11 66 31 91h-349z" />
    <glyph glyph-name="eogonek" unicode="&#x119;" horiz-adv-x="524" 
d="M356 -238h-39c-81 0 -147 66 -147 147c0 33 10 64 29 89c-115 31 -167 135 -167 242c0 132 81 254 231 254c137 0 229 -106 229 -252c0 -13 0 -25 -1 -32h-346c2 -75 43 -139 122 -139c69 0 102 47 112 94l104 -25c-15 -67 -94 -151 -208 -152c-25 -16 -41 -45 -41 -79
c0 -50 37 -91 83 -91h39v-56zM146 294h233c0 58 -38 117 -116 117c-74 0 -117 -52 -117 -117z" />
    <glyph glyph-name="Ecaron" unicode="&#x11a;" horiz-adv-x="619" 
d="M73 0v706h495v-101h-369v-191h355v-101h-355v-212h377v-101h-503zM275 763l-132 178h97l83 -117l82 117h98l-132 -178h-96z" />
    <glyph glyph-name="ecaron" unicode="&#x11b;" horiz-adv-x="524" 
d="M379 165l104 -25c-15 -67 -94 -152 -209 -152c-168 0 -242 124 -242 252c0 132 81 254 231 254c137 0 229 -106 229 -252c0 -13 0 -25 -1 -32h-346c2 -75 43 -139 122 -139c69 0 102 47 112 94zM146 294h233c0 58 -38 117 -116 117c-74 0 -117 -52 -117 -117zM212 540
l-132 178h97l83 -117l82 117h98l-132 -178h-96z" />
    <glyph glyph-name="Gcircumflex" unicode="&#x11c;" horiz-adv-x="751" 
d="M584 0v86c-43 -64 -112 -103 -209 -103c-193 0 -339 153 -339 370c0 207 139 370 350 370c134 0 248 -65 306 -200l-123 -29c-39 83 -103 128 -183 128c-136 0 -223 -121 -223 -269c0 -153 88 -269 221 -269c84 0 190 48 198 212h-222v101h341v-397h-117zM206 763
l132 178h96l132 -178h-98l-82 116l-83 -116h-97z" />
    <glyph glyph-name="gcircumflex" unicode="&#x11d;" horiz-adv-x="571" 
d="M53 -67l115 23c7 -55 43 -105 114 -105c92 0 119 78 119 139v75c-26 -39 -86 -69 -143 -69c-175 0 -226 146 -226 245c0 83 42 253 230 253c55 0 122 -33 144 -77v65h107v-495c0 -130 -78 -222 -231 -222c-132 0 -213 80 -229 168zM276 82c49 0 126 36 126 162
c0 127 -75 164 -122 164c-106 0 -135 -109 -135 -163c0 -74 34 -163 131 -163zM92 541l132 178h96l132 -178h-98l-82 116l-83 -116h-97z" />
    <glyph glyph-name="Gbreve" unicode="&#x11e;" horiz-adv-x="751" 
d="M584 0v86c-43 -64 -112 -103 -209 -103c-193 0 -339 153 -339 370c0 207 139 370 350 370c134 0 248 -65 306 -200l-123 -29c-39 83 -103 128 -183 128c-136 0 -223 -121 -223 -269c0 -153 88 -269 221 -269c84 0 190 48 198 212h-222v101h341v-397h-117zM230 916v21h83
v-21c0 -50 22 -89 73 -89c50 0 73 39 73 89v21h84v-21c0 -100 -67 -162 -157 -162c-91 0 -156 62 -156 162z" />
    <glyph glyph-name="gbreve" unicode="&#x11f;" horiz-adv-x="571" 
d="M53 -67l115 23c7 -55 43 -105 114 -105c92 0 119 78 119 139v75c-26 -39 -86 -69 -143 -69c-175 0 -226 146 -226 245c0 83 42 253 230 253c55 0 122 -33 144 -77v65h107v-495c0 -130 -78 -222 -231 -222c-132 0 -213 80 -229 168zM276 82c49 0 126 36 126 162
c0 127 -75 164 -122 164c-106 0 -135 -109 -135 -163c0 -74 34 -163 131 -163zM116 694v21h83v-21c0 -50 22 -89 73 -89c50 0 73 39 73 89v21h84v-21c0 -100 -67 -162 -157 -162c-91 0 -156 62 -156 162z" />
    <glyph glyph-name="Gdotaccent" unicode="&#x120;" horiz-adv-x="751" 
d="M584 0v86c-43 -64 -112 -103 -209 -103c-193 0 -339 153 -339 370c0 207 139 370 350 370c134 0 248 -65 306 -200l-123 -29c-39 83 -103 128 -183 128c-136 0 -223 -121 -223 -269c0 -153 88 -269 221 -269c84 0 190 48 198 212h-222v101h341v-397h-117zM327 791v123
h118v-123h-118z" />
    <glyph glyph-name="gdotaccent" unicode="&#x121;" horiz-adv-x="571" 
d="M53 -67l115 23c7 -55 43 -105 114 -105c92 0 119 78 119 139v75c-26 -39 -86 -69 -143 -69c-175 0 -226 146 -226 245c0 83 42 253 230 253c55 0 122 -33 144 -77v65h107v-495c0 -130 -78 -222 -231 -222c-132 0 -213 80 -229 168zM276 82c49 0 126 36 126 162
c0 127 -75 164 -122 164c-106 0 -135 -109 -135 -163c0 -74 34 -163 131 -163zM213 569v123h118v-123h-118z" />
    <glyph glyph-name="uni0122" unicode="&#x122;" horiz-adv-x="751" 
d="M584 0v86c-43 -64 -112 -103 -209 -103c-193 0 -339 153 -339 370c0 207 139 370 350 370c134 0 248 -65 306 -200l-123 -29c-39 83 -103 128 -183 128c-136 0 -223 -121 -223 -269c0 -153 88 -269 221 -269c84 0 190 48 198 212h-222v101h341v-397h-117zM303 -231
l35 178h106l-76 -178h-65z" />
    <glyph glyph-name="uni0123" unicode="&#x123;" horiz-adv-x="571" 
d="M53 -67l115 23c7 -55 43 -105 114 -105c92 0 119 78 119 139v75c-26 -39 -86 -69 -143 -69c-175 0 -226 146 -226 245c0 83 42 253 230 253c55 0 122 -33 144 -77v65h107v-495c0 -130 -78 -222 -231 -222c-132 0 -213 80 -229 168zM276 82c49 0 126 36 126 162
c0 127 -75 164 -122 164c-106 0 -135 -109 -135 -163c0 -74 34 -163 131 -163zM248 541l76 178h66l-36 -178h-106z" />
    <glyph glyph-name="Hcircumflex" unicode="&#x124;" horiz-adv-x="742" 
d="M73 0v706h126v-292h344v292h126v-706h-126v313h-344v-313h-126zM191 763l132 178h96l132 -178h-98l-82 116l-83 -116h-97z" />
    <glyph glyph-name="hcircumflex" unicode="&#x125;" horiz-adv-x="541" 
d="M58 0v706h109v-294c11 31 59 82 150 82c60 0 107 -25 137 -68c29 -41 33 -82 33 -140v-286h-112v286c0 42 -3 66 -17 86c-10 17 -34 36 -74 36c-29 0 -57 -11 -79 -34c-24 -26 -36 -56 -36 -126v-248h-111zM-66 764l132 178h96l132 -178h-98l-82 116l-83 -116h-97z" />
    <glyph glyph-name="Hbar" unicode="&#x126;" horiz-adv-x="771" 
d="M15 520v70h72v116h126v-116h344v116h126v-116h73v-70h-73v-520h-126v313h-344v-313h-126v520h-72zM213 414h344v106h-344v-106z" />
    <glyph glyph-name="hbar" unicode="&#x127;" horiz-adv-x="541" 
d="M3 560v69h55v77h109v-77h136v-69h-136v-148c11 31 59 82 150 82c60 0 107 -25 137 -68c29 -41 33 -82 33 -140v-286h-112v286c0 42 -3 66 -17 86c-10 17 -34 36 -74 36c-29 0 -57 -11 -79 -34c-24 -26 -36 -56 -36 -126v-248h-111v560h-55z" />
    <glyph glyph-name="Itilde" unicode="&#x128;" horiz-adv-x="272" 
d="M73 0v706h126v-706h-126zM-23 791v95c20 20 59 37 90 37c27 0 48 -7 69 -14s49 -20 73 -20c35 0 65 21 86 48v-95c-21 -21 -61 -39 -91 -39s-52 9 -76 17c-22 7 -42 18 -66 18c-35 0 -65 -21 -85 -47z" />
    <glyph glyph-name="itilde" unicode="&#x129;" horiz-adv-x="228" 
d="M58 0v482h112v-482h-112zM-45 568v95c20 20 59 37 90 37c27 0 48 -7 69 -14s49 -20 73 -20c35 0 65 21 86 48v-95c-21 -21 -61 -39 -91 -39s-52 9 -76 17c-22 7 -42 18 -66 18c-35 0 -65 -21 -85 -47z" />
    <glyph glyph-name="Imacron" unicode="&#x12a;" horiz-adv-x="272" 
d="M73 0v706h126v-706h-126zM-23 822v86h318v-86h-318z" />
    <glyph glyph-name="imacron" unicode="&#x12b;" horiz-adv-x="228" 
d="M58 0v482h112v-482h-112zM-45 598v86h318v-86h-318z" />
    <glyph glyph-name="Ibreve" unicode="&#x12c;" horiz-adv-x="272" 
d="M73 0v706h126v-706h-126zM-20 916v21h83v-21c0 -50 22 -89 73 -89c50 0 73 39 73 89v21h84v-21c0 -100 -67 -162 -157 -162c-91 0 -156 62 -156 162z" />
    <glyph glyph-name="ibreve" unicode="&#x12d;" horiz-adv-x="228" 
d="M58 0v482h112v-482h-112zM-42 693v21h83v-21c0 -50 22 -89 73 -89c50 0 73 39 73 89v21h84v-21c0 -100 -67 -162 -157 -162c-91 0 -156 62 -156 162z" />
    <glyph glyph-name="Iogonek" unicode="&#x12e;" horiz-adv-x="272" 
d="M73 0v706h126v-706c-46 0 -83 -41 -83 -91s37 -91 83 -91h39v-56h-39c-81 0 -147 66 -147 147c0 34 11 66 31 91h-10z" />
    <glyph glyph-name="iogonek" unicode="&#x12f;" horiz-adv-x="228" 
d="M209 -238h-39c-81 0 -147 66 -147 147c0 37 12 71 35 96v477h112v-482c-46 0 -83 -41 -83 -91s37 -91 83 -91h39v-56zM58 586v120h112v-120h-112z" />
    <glyph glyph-name="Idotaccent" unicode="&#x130;" horiz-adv-x="272" 
d="M73 0v706h126v-706h-126zM77 791v123h118v-123h-118z" />
    <glyph glyph-name="dotlessi" unicode="&#x131;" horiz-adv-x="228" 
d="M58 0v482h112v-482h-112z" />
    <glyph glyph-name="IJ" unicode="&#x132;" horiz-adv-x="855" 
d="M73 0v706h126v-706h-126zM284 225l124 25c0 -114 51 -167 130 -167c80 0 124 51 124 128v495h125v-493c0 -148 -99 -230 -248 -230c-141 0 -253 81 -255 242z" />
    <glyph glyph-name="ij" unicode="&#x133;" horiz-adv-x="460" 
d="M58 0v482h112v-482h-112zM58 586v120h112v-120h-112zM182 -227v91c13 -2 26 -4 37 -4c64 0 71 34 71 66v556h112v-567c0 -87 -25 -147 -147 -147c-34 0 -52 1 -73 5zM290 586v120h112v-120h-112z" />
    <glyph glyph-name="Jcircumflex" unicode="&#x134;" horiz-adv-x="584" 
d="M12 225l125 25c0 -114 50 -167 129 -167c80 0 124 51 124 128v495h126v-493c0 -148 -99 -230 -249 -230c-141 0 -252 81 -255 242zM272 763l132 178h96l132 -178h-98l-82 116l-83 -116h-97z" />
    <glyph glyph-name="jcircumflex" unicode="&#x135;" horiz-adv-x="234" 
d="M-16 540l85 178h100l85 -178h-82l-53 116l-53 -116h-82zM-44 -227v91c13 -2 26 -4 37 -4c65 0 71 34 71 66v556h112v-567c0 -87 -24 -147 -147 -147c-34 0 -52 1 -73 5z" />
    <glyph glyph-name="uni0136" unicode="&#x136;" horiz-adv-x="671" 
d="M73 0v706h126v-300l299 300h157l-338 -329l382 -377h-164l-336 337v-337h-126zM252 -231l35 178h106l-76 -178h-65z" />
    <glyph glyph-name="uni0137" unicode="&#x137;" horiz-adv-x="523" 
d="M58 0v706h112v-413l196 189h144l-237 -216l273 -266h-144l-232 223v-223h-112zM184 -231l35 178h106l-76 -178h-65z" />
    <glyph glyph-name="kgreenlandic" unicode="&#x138;" horiz-adv-x="523" 
d="M58 0v482h112v-194l196 194h144l-237 -221l273 -261h-144l-232 218v-218h-112z" />
    <glyph glyph-name="Lacute" unicode="&#x139;" horiz-adv-x="566" 
d="M73 0v706h126v-605h356v-101h-482zM92 763l75 178h111l-98 -178h-88z" />
    <glyph glyph-name="lacute" unicode="&#x13a;" horiz-adv-x="228" 
d="M58 0v706h112v-706h-112zM67 764l75 178h111l-98 -178h-88z" />
    <glyph glyph-name="uni013B" unicode="&#x13b;" horiz-adv-x="566" 
d="M73 0v706h126v-605h356v-101h-482zM234 -231l35 178h106l-76 -178h-65z" />
    <glyph glyph-name="uni013C" unicode="&#x13c;" horiz-adv-x="228" 
d="M58 0v706h112v-706h-112zM32 -231l35 178h106l-76 -178h-65z" />
    <glyph glyph-name="Lcaron" unicode="&#x13d;" horiz-adv-x="566" 
d="M73 0v706h126v-605h356v-101h-482zM246 528l36 178h106l-77 -178h-65z" />
    <glyph glyph-name="lcaron" unicode="&#x13e;" horiz-adv-x="248" 
d="M58 0v706h112v-706h-112zM217 528l36 178h106l-77 -178h-65z" />
    <glyph glyph-name="Ldot" unicode="&#x13f;" horiz-adv-x="566" 
d="M73 0v706h126v-605h356v-101h-482zM312 306v123h118v-123h-118z" />
    <glyph glyph-name="ldot" unicode="&#x140;" horiz-adv-x="349" 
d="M58 0v706h112v-706h-112zM229 288v123h118v-123h-118z" />
    <glyph glyph-name="Lslash" unicode="&#x141;" horiz-adv-x="558" 
d="M91 0v232l-73 -50v76l73 49v399h126v-313l200 136v-76l-200 -135v-217h308v-101h-434z" />
    <glyph glyph-name="lslash" unicode="&#x142;" horiz-adv-x="307" 
d="M98 0v295l-71 -49v72l71 49v339h112v-261l71 49v-71l-71 -50v-373h-112z" />
    <glyph glyph-name="Nacute" unicode="&#x143;" horiz-adv-x="776" 
d="M73 0v706h169l348 -583v583h113v-706h-172l-345 582v-582h-113zM341 763l75 178h111l-98 -178h-88z" />
    <glyph glyph-name="nacute" unicode="&#x144;" horiz-adv-x="538" 
d="M58 0v482h109v-69c10 30 58 81 148 81c59 0 107 -24 137 -67c28 -41 32 -83 32 -141v-286h-112v286c0 42 -3 66 -16 86c-11 17 -34 36 -74 36c-29 0 -56 -11 -78 -34c-24 -26 -34 -60 -34 -126v-248h-112zM225 540l75 178h111l-98 -178h-88z" />
    <glyph glyph-name="uni0145" unicode="&#x145;" horiz-adv-x="776" 
d="M73 0v706h169l348 -583v583h113v-706h-172l-345 582v-582h-113zM306 -231l35 178h106l-76 -178h-65z" />
    <glyph glyph-name="uni0146" unicode="&#x146;" horiz-adv-x="538" 
d="M58 0v482h109v-69c10 30 58 81 148 81c59 0 107 -24 137 -67c28 -41 32 -83 32 -141v-286h-112v286c0 42 -3 66 -16 86c-11 17 -34 36 -74 36c-29 0 -56 -11 -78 -34c-24 -26 -34 -60 -34 -126v-248h-112zM187 -231l35 178h106l-76 -178h-65z" />
    <glyph glyph-name="Ncaron" unicode="&#x147;" horiz-adv-x="776" 
d="M73 0v706h169l348 -583v583h113v-706h-172l-345 582v-582h-113zM340 763l-132 178h97l83 -117l82 117h98l-132 -178h-96z" />
    <glyph glyph-name="ncaron" unicode="&#x148;" horiz-adv-x="538" 
d="M58 0v482h109v-69c10 30 58 81 148 81c59 0 107 -24 137 -67c28 -41 32 -83 32 -141v-286h-112v286c0 42 -3 66 -16 86c-11 17 -34 36 -74 36c-29 0 -56 -11 -78 -34c-24 -26 -34 -60 -34 -126v-248h-112zM224 540l-132 178h97l83 -117l82 117h98l-132 -178h-96z" />
    <glyph glyph-name="napostrophe" unicode="&#x149;" horiz-adv-x="538" 
d="M58 0v482h109v-69c10 30 58 81 148 81c59 0 107 -24 137 -67c28 -41 32 -83 32 -141v-286h-112v286c0 42 -3 66 -16 86c-11 17 -34 36 -74 36c-29 0 -56 -11 -78 -34c-24 -26 -34 -60 -34 -126v-248h-112zM42 528l36 178h106l-77 -178h-65z" />
    <glyph glyph-name="Eng" unicode="&#x14a;" horiz-adv-x="776" 
d="M483 -227v91c13 -2 26 -4 37 -4c64 0 70 34 70 66v74h-59l-345 582v-582h-113v706h169l348 -583v583h113v-791c0 -87 -25 -147 -147 -147c-34 0 -52 1 -73 5z" />
    <glyph glyph-name="eng" unicode="&#x14b;" horiz-adv-x="538" 
d="M264 -227v91c13 -2 26 -4 37 -4c65 0 71 34 71 66v360c0 42 -3 66 -16 86c-11 17 -34 36 -74 36c-29 0 -56 -11 -78 -34c-24 -26 -34 -60 -34 -126v-248h-112v482h109v-69c10 30 58 81 148 81c59 0 107 -24 137 -67c28 -41 32 -83 32 -141v-371c0 -87 -24 -147 -147 -147
c-34 0 -52 1 -73 5z" />
    <glyph glyph-name="Omacron" unicode="&#x14c;" horiz-adv-x="774" 
d="M389 84c154 0 222 133 222 267s-68 271 -222 271c-158 0 -226 -137 -226 -271s68 -267 226 -267zM389 -17c-246 0 -353 183 -353 368c0 184 107 372 353 372c242 0 349 -188 349 -372c0 -185 -107 -368 -349 -368zM231 821v86h318v-86h-318z" />
    <glyph glyph-name="omacron" unicode="&#x14d;" horiz-adv-x="545" 
d="M273 75c87 0 128 87 128 165s-41 168 -128 168s-129 -90 -129 -168s42 -165 129 -165zM273 -12c-156 0 -242 129 -242 252c0 124 86 254 242 254s241 -130 241 -254c0 -123 -85 -252 -241 -252zM113 598v86h318v-86h-318z" />
    <glyph glyph-name="Obreve" unicode="&#x14e;" horiz-adv-x="774" 
d="M389 84c154 0 222 133 222 267s-68 271 -222 271c-158 0 -226 -137 -226 -271s68 -267 226 -267zM389 -17c-246 0 -353 183 -353 368c0 184 107 372 353 372c242 0 349 -188 349 -372c0 -185 -107 -368 -349 -368zM234 916v21h83v-21c0 -50 22 -89 73 -89
c50 0 73 39 73 89v21h84v-21c0 -100 -67 -162 -157 -162c-91 0 -156 62 -156 162z" />
    <glyph glyph-name="obreve" unicode="&#x14f;" horiz-adv-x="545" 
d="M273 75c87 0 128 87 128 165s-41 168 -128 168s-129 -90 -129 -168s42 -165 129 -165zM273 -12c-156 0 -242 129 -242 252c0 124 86 254 242 254s241 -130 241 -254c0 -123 -85 -252 -241 -252zM116 693v21h83v-21c0 -50 22 -89 73 -89c50 0 73 39 73 89v21h84v-21
c0 -100 -67 -162 -157 -162c-91 0 -156 62 -156 162z" />
    <glyph glyph-name="Ohungarumlaut" unicode="&#x150;" horiz-adv-x="774" 
d="M389 84c154 0 222 133 222 267s-68 271 -222 271c-158 0 -226 -137 -226 -271s68 -267 226 -267zM389 -17c-246 0 -353 183 -353 368c0 184 107 372 353 372c242 0 349 -188 349 -372c0 -185 -107 -368 -349 -368zM273 763l75 178h112l-98 -178h-89zM414 763l75 178h112
l-98 -178h-89z" />
    <glyph glyph-name="ohungarumlaut" unicode="&#x151;" horiz-adv-x="545" 
d="M273 75c87 0 128 87 128 165s-41 168 -128 168s-129 -90 -129 -168s42 -165 129 -165zM273 -12c-156 0 -242 129 -242 252c0 124 86 254 242 254s241 -130 241 -254c0 -123 -85 -252 -241 -252zM148 540l75 178h112l-98 -178h-89zM289 540l75 178h112l-98 -178h-89z" />
    <glyph glyph-name="OE" unicode="&#x152;" horiz-adv-x="976" 
d="M611 101h322v-101h-518c-253 0 -379 166 -379 352c0 185 126 354 379 354h510v-101h-314v-191h300v-101h-300v-212zM415 101h71v504h-71c-164 0 -252 -118 -252 -253s88 -251 252 -251z" />
    <glyph glyph-name="oe" unicode="&#x153;" horiz-adv-x="893" 
d="M748 165l104 -25c-12 -62 -94 -152 -209 -152c-90 0 -151 35 -188 88c-40 -52 -101 -88 -182 -88c-156 0 -242 129 -242 252c0 124 86 254 242 254c81 0 142 -38 182 -90c38 54 96 90 177 90c137 0 229 -106 229 -252c0 -13 0 -25 -1 -32h-346c0 -61 26 -139 122 -139
c69 0 101 47 112 94zM273 75c87 0 128 87 128 165s-41 168 -128 168s-129 -90 -129 -168s42 -165 129 -165zM515 294h233c0 55 -38 117 -116 117c-74 0 -117 -54 -117 -117z" />
    <glyph glyph-name="Racute" unicode="&#x154;" horiz-adv-x="688" 
d="M73 0v706h314c139 0 237 -63 237 -185c0 -117 -75 -159 -113 -166c64 -14 111 -48 111 -135v-109c0 -37 5 -74 41 -111h-136c-27 29 -29 67 -29 95v103c0 69 -36 100 -103 100h-199v-298h-123zM196 399h185c92 0 120 58 120 109c0 61 -43 97 -123 97h-182v-206zM287 763
l75 178h111l-98 -178h-88z" />
    <glyph glyph-name="racute" unicode="&#x155;" horiz-adv-x="348" 
d="M58 0v482h109v-71c20 44 70 83 137 83c13 0 27 -1 34 -2v-105c-7 2 -18 4 -43 4c-52 0 -82 -23 -102 -50c-21 -30 -23 -70 -23 -108v-233h-112zM136 540l75 178h111l-98 -178h-88z" />
    <glyph glyph-name="uni0156" unicode="&#x156;" horiz-adv-x="688" 
d="M73 0v706h314c139 0 237 -63 237 -185c0 -117 -75 -159 -113 -166c64 -14 111 -48 111 -135v-109c0 -37 5 -74 41 -111h-136c-27 29 -29 67 -29 95v103c0 69 -36 100 -103 100h-199v-298h-123zM196 399h185c92 0 120 58 120 109c0 61 -43 97 -123 97h-182v-206zM262 -231
l35 178h106l-76 -178h-65z" />
    <glyph glyph-name="uni0157" unicode="&#x157;" horiz-adv-x="348" 
d="M58 0v482h109v-71c20 44 70 83 137 83c13 0 27 -1 34 -2v-105c-7 2 -18 4 -43 4c-52 0 -82 -23 -102 -50c-21 -30 -23 -70 -23 -108v-233h-112zM29 -231l35 178h106l-76 -178h-65z" />
    <glyph glyph-name="Rcaron" unicode="&#x158;" horiz-adv-x="688" 
d="M73 0v706h314c139 0 237 -63 237 -185c0 -117 -75 -159 -113 -166c64 -14 111 -48 111 -135v-109c0 -37 5 -74 41 -111h-136c-27 29 -29 67 -29 95v103c0 69 -36 100 -103 100h-199v-298h-123zM196 399h185c92 0 120 58 120 109c0 61 -43 97 -123 97h-182v-206zM286 763
l-132 178h97l83 -117l82 117h98l-132 -178h-96z" />
    <glyph glyph-name="rcaron" unicode="&#x159;" horiz-adv-x="348" 
d="M58 0v482h109v-71c20 44 70 83 137 83c13 0 27 -1 34 -2v-105c-7 2 -18 4 -43 4c-52 0 -82 -23 -102 -50c-21 -30 -23 -70 -23 -108v-233h-112zM135 540l-132 178h97l83 -117l82 117h98l-132 -178h-96z" />
    <glyph glyph-name="Sacute" unicode="&#x15a;" horiz-adv-x="650" 
d="M24 219l127 25c3 -108 80 -160 177 -160c101 0 165 52 165 112c0 68 -53 86 -124 102l-87 19c-118 25 -236 53 -236 201c0 127 123 205 278 205c186 0 258 -102 279 -207l-124 -25c-14 90 -76 131 -155 131c-85 0 -153 -33 -153 -104c0 -61 68 -78 127 -91l106 -23
c92 -21 217 -58 217 -198c0 -128 -112 -223 -297 -223c-151 0 -271 74 -300 236zM279 763l75 178h111l-98 -178h-88z" />
    <glyph glyph-name="sacute" unicode="&#x15b;" horiz-adv-x="489" 
d="M25 149l111 24c7 -63 40 -102 106 -102c56 0 102 23 102 68s-38 53 -92 63l-42 8c-82 16 -170 38 -170 144c0 60 58 140 207 140c90 0 176 -51 197 -147l-102 -23c-10 54 -34 87 -101 87c-59 0 -92 -27 -92 -56c0 -42 52 -53 85 -59l41 -7c83 -14 184 -39 184 -143
c0 -102 -96 -158 -217 -158c-128 0 -204 79 -217 161zM194 540l75 178h111l-98 -178h-88z" />
    <glyph glyph-name="Scircumflex" unicode="&#x15c;" horiz-adv-x="650" 
d="M24 219l127 25c3 -108 80 -160 177 -160c101 0 165 52 165 112c0 68 -53 86 -124 102l-87 19c-118 25 -236 53 -236 201c0 127 123 205 278 205c186 0 258 -102 279 -207l-124 -25c-14 90 -76 131 -155 131c-85 0 -153 -33 -153 -104c0 -61 68 -78 127 -91l106 -23
c92 -21 217 -58 217 -198c0 -128 -112 -223 -297 -223c-151 0 -271 74 -300 236zM146 763l132 178h96l132 -178h-98l-82 116l-83 -116h-97z" />
    <glyph glyph-name="scircumflex" unicode="&#x15d;" horiz-adv-x="489" 
d="M25 149l111 24c7 -63 40 -102 106 -102c56 0 102 23 102 68s-38 53 -92 63l-42 8c-82 16 -170 38 -170 144c0 60 58 140 207 140c90 0 176 -51 197 -147l-102 -23c-10 54 -34 87 -101 87c-59 0 -92 -27 -92 -56c0 -42 52 -53 85 -59l41 -7c83 -14 184 -39 184 -143
c0 -102 -96 -158 -217 -158c-128 0 -204 79 -217 161zM61 540l132 178h96l132 -178h-98l-82 116l-83 -116h-97z" />
    <glyph glyph-name="Scedilla" unicode="&#x15e;" horiz-adv-x="650" 
d="M292 -238v56h39c27 0 47 17 47 45c0 22 -20 39 -47 39h-39v82c-136 10 -241 84 -268 235l127 25c3 -108 80 -160 177 -160c101 0 165 52 165 112c0 68 -53 86 -124 102l-87 19c-118 25 -236 53 -236 201c0 127 123 205 278 205c186 0 258 -102 279 -207l-124 -25
c-14 90 -76 131 -155 131c-85 0 -153 -33 -153 -104c0 -61 68 -78 127 -91l106 -23c92 -21 217 -58 217 -198c0 -122 -102 -213 -270 -222v-27c51 -3 91 -38 91 -94c0 -65 -48 -101 -105 -101h-45z" />
    <glyph glyph-name="scedilla" unicode="&#x15f;" horiz-adv-x="489" 
d="M212 -238v56h39c27 0 47 17 47 45c0 22 -20 39 -47 39h-39v88c-110 10 -175 83 -187 159l111 24c7 -63 40 -102 106 -102c56 0 102 23 102 68s-38 53 -92 63l-42 8c-82 16 -170 38 -170 144c0 60 58 140 207 140c90 0 176 -51 197 -147l-102 -23c-10 54 -34 87 -101 87
c-59 0 -92 -27 -92 -56c0 -42 52 -53 85 -59l41 -7c83 -14 184 -39 184 -143c0 -94 -81 -148 -188 -157v-32c51 -3 91 -38 91 -94c0 -65 -48 -101 -105 -101h-45z" />
    <glyph glyph-name="Scaron" unicode="&#x160;" horiz-adv-x="650" 
d="M24 219l127 25c3 -108 80 -160 177 -160c101 0 165 52 165 112c0 68 -53 86 -124 102l-87 19c-118 25 -236 53 -236 201c0 127 123 205 278 205c186 0 258 -102 279 -207l-124 -25c-14 90 -76 131 -155 131c-85 0 -153 -33 -153 -104c0 -61 68 -78 127 -91l106 -23
c92 -21 217 -58 217 -198c0 -128 -112 -223 -297 -223c-151 0 -271 74 -300 236zM278 763l-132 178h97l83 -117l82 117h98l-132 -178h-96z" />
    <glyph glyph-name="scaron" unicode="&#x161;" horiz-adv-x="489" 
d="M25 149l111 24c7 -63 40 -102 106 -102c56 0 102 23 102 68s-38 53 -92 63l-42 8c-82 16 -170 38 -170 144c0 60 58 140 207 140c90 0 176 -51 197 -147l-102 -23c-10 54 -34 87 -101 87c-59 0 -92 -27 -92 -56c0 -42 52 -53 85 -59l41 -7c83 -14 184 -39 184 -143
c0 -102 -96 -158 -217 -158c-128 0 -204 79 -217 161zM193 540l-132 178h97l83 -117l82 117h98l-132 -178h-96z" />
    <glyph glyph-name="uni0162" unicode="&#x162;" horiz-adv-x="588" 
d="M231 0v605h-221v101h568v-101h-222v-605h-33v-43c51 -3 91 -38 91 -94c0 -65 -48 -101 -105 -101h-45v56h39c27 0 47 17 47 45c0 22 -20 39 -47 39h-39v98h-33z" />
    <glyph glyph-name="uni0163" unicode="&#x163;" horiz-adv-x="335" 
d="M162 -238v56h39c27 0 47 17 47 45c0 22 -20 39 -47 39h-39v105c-36 16 -60 47 -60 99v290h-93v86h93v159h112v-159h98v-86h-98v-251c0 -42 16 -60 51 -60c15 0 33 1 47 4v-89c-16 -4 -44 -7 -72 -7c-7 0 -13 0 -19 1v-37c51 -3 91 -38 91 -94c0 -65 -48 -101 -105 -101
h-45z" />
    <glyph glyph-name="Tcaron" unicode="&#x164;" horiz-adv-x="588" 
d="M231 0v605h-221v101h568v-101h-222v-605h-125zM246 763l-132 178h97l83 -117l82 117h98l-132 -178h-96z" />
    <glyph glyph-name="tcaron" unicode="&#x165;" horiz-adv-x="335" 
d="M102 106v290h-93v86h93v159h112v-159h98v-86h-98v-251c0 -42 16 -60 51 -60c15 0 33 1 47 4v-89c-16 -4 -44 -7 -72 -7c-76 0 -138 30 -138 113zM261 528l36 178h106l-77 -178h-65z" />
    <glyph glyph-name="Tbar" unicode="&#x166;" horiz-adv-x="593" 
d="M99 416v70h134v119h-221v101h568v-101h-222v-119h136v-70h-136v-416h-125v416h-134z" />
    <glyph glyph-name="tbar" unicode="&#x167;" horiz-adv-x="339" 
d="M31 229v69h73v98h-93v86h93v159h112v-159h98v-86h-98v-98h86v-69h-86v-84c0 -42 16 -60 51 -60c15 0 33 1 47 4v-89c-16 -4 -44 -7 -72 -7c-76 0 -138 30 -138 113v123h-73z" />
    <glyph glyph-name="Utilde" unicode="&#x168;" horiz-adv-x="722" 
d="M67 254v452h126v-452c0 -109 68 -170 169 -170c100 0 167 58 167 170v452h126v-452c0 -184 -128 -271 -293 -271c-179 0 -295 100 -295 271zM202 791v95c20 20 59 37 90 37c27 0 48 -7 69 -14s49 -20 73 -20c35 0 65 21 86 48v-95c-21 -21 -61 -39 -91 -39s-52 9 -76 17
c-22 7 -42 18 -66 18c-35 0 -65 -21 -85 -47z" />
    <glyph glyph-name="utilde" unicode="&#x169;" horiz-adv-x="537" 
d="M54 196v286h112v-286c0 -42 4 -66 17 -86c10 -17 33 -35 73 -35c29 0 55 10 77 33c24 26 34 56 34 126v248h112v-482h-110v69c-9 -30 -56 -81 -146 -81c-59 0 -107 24 -137 67c-28 41 -32 83 -32 141zM109 568v95c20 20 59 37 90 37c27 0 48 -7 69 -14s49 -20 73 -20
c35 0 65 21 86 48v-95c-21 -21 -61 -39 -91 -39s-52 9 -76 17c-22 7 -42 18 -66 18c-35 0 -65 -21 -85 -47z" />
    <glyph glyph-name="Umacron" unicode="&#x16a;" horiz-adv-x="722" 
d="M67 254v452h126v-452c0 -109 68 -170 169 -170c100 0 167 58 167 170v452h126v-452c0 -184 -128 -271 -293 -271c-179 0 -295 100 -295 271zM202 821v86h318v-86h-318z" />
    <glyph glyph-name="umacron" unicode="&#x16b;" horiz-adv-x="537" 
d="M54 196v286h112v-286c0 -42 4 -66 17 -86c10 -17 33 -35 73 -35c29 0 55 10 77 33c24 26 34 56 34 126v248h112v-482h-110v69c-9 -30 -56 -81 -146 -81c-59 0 -107 24 -137 67c-28 41 -32 83 -32 141zM109 598v86h318v-86h-318z" />
    <glyph glyph-name="Ubreve" unicode="&#x16c;" horiz-adv-x="722" 
d="M67 254v452h126v-452c0 -109 68 -170 169 -170c100 0 167 58 167 170v452h126v-452c0 -184 -128 -271 -293 -271c-179 0 -295 100 -295 271zM205 916v21h83v-21c0 -50 22 -89 73 -89c50 0 73 39 73 89v21h84v-21c0 -100 -67 -162 -157 -162c-91 0 -156 62 -156 162z" />
    <glyph glyph-name="ubreve" unicode="&#x16d;" horiz-adv-x="537" 
d="M54 196v286h112v-286c0 -42 4 -66 17 -86c10 -17 33 -35 73 -35c29 0 55 10 77 33c24 26 34 56 34 126v248h112v-482h-110v69c-9 -30 -56 -81 -146 -81c-59 0 -107 24 -137 67c-28 41 -32 83 -32 141zM112 693v21h83v-21c0 -50 22 -89 73 -89c50 0 73 39 73 89v21h84v-21
c0 -100 -67 -162 -157 -162c-91 0 -156 62 -156 162z" />
    <glyph glyph-name="Uring" unicode="&#x16e;" horiz-adv-x="722" 
d="M67 254v452h126v-452c0 -109 68 -170 169 -170c100 0 167 58 167 170v452h126v-452c0 -184 -128 -271 -293 -271c-179 0 -295 100 -295 271zM361 806c28 0 51 23 51 52c0 28 -23 51 -51 51c-29 0 -52 -23 -52 -51c0 -29 23 -52 52 -52zM361 756c-56 0 -101 46 -101 102
c0 55 45 101 101 101c55 0 101 -46 101 -101c0 -56 -46 -102 -101 -102z" />
    <glyph glyph-name="uring" unicode="&#x16f;" horiz-adv-x="537" 
d="M54 196v286h112v-286c0 -42 4 -66 17 -86c10 -17 33 -35 73 -35c29 0 55 10 77 33c24 26 34 56 34 126v248h112v-482h-110v69c-9 -30 -56 -81 -146 -81c-59 0 -107 24 -137 67c-28 41 -32 83 -32 141zM268 582c28 0 51 23 51 52c0 28 -23 51 -51 51
c-29 0 -52 -23 -52 -51c0 -29 23 -52 52 -52zM268 532c-56 0 -101 46 -101 102c0 55 45 101 101 101c55 0 101 -46 101 -101c0 -56 -46 -102 -101 -102z" />
    <glyph glyph-name="Uhungarumlaut" unicode="&#x170;" horiz-adv-x="722" 
d="M67 254v452h126v-452c0 -109 68 -170 169 -170c100 0 167 58 167 170v452h126v-452c0 -184 -128 -271 -293 -271c-179 0 -295 100 -295 271zM244 763l75 178h112l-98 -178h-89zM385 763l75 178h112l-98 -178h-89z" />
    <glyph glyph-name="uhungarumlaut" unicode="&#x171;" horiz-adv-x="537" 
d="M54 196v286h112v-286c0 -42 4 -66 17 -86c10 -17 33 -35 73 -35c29 0 55 10 77 33c24 26 34 56 34 126v248h112v-482h-110v69c-9 -30 -56 -81 -146 -81c-59 0 -107 24 -137 67c-28 41 -32 83 -32 141zM144 540l75 178h112l-98 -178h-89zM285 540l75 178h112l-98 -178h-89
z" />
    <glyph glyph-name="Uogonek" unicode="&#x172;" horiz-adv-x="722" 
d="M454 -238h-39c-81 0 -147 66 -147 147c0 29 8 57 23 80c-138 23 -224 118 -224 265v452h126v-452c0 -109 68 -170 169 -170c100 0 167 58 167 170v452h126v-452c0 -183 -126 -269 -289 -271c-21 -16 -34 -43 -34 -74c0 -50 37 -91 83 -91h39v-56z" />
    <glyph glyph-name="uogonek" unicode="&#x173;" horiz-adv-x="537" 
d="M378 -91c0 -50 37 -91 83 -91h39v-56h-39c-81 0 -147 66 -147 147c0 46 21 87 55 114v46c-9 -30 -56 -81 -146 -81c-59 0 -107 24 -137 67c-28 41 -32 83 -32 141v286h112v-286c0 -42 4 -66 17 -86c10 -17 33 -35 73 -35c29 0 55 10 77 33c24 26 34 56 34 126v248h112
v-482h-19c-46 0 -82 -42 -82 -91z" />
    <glyph glyph-name="Wcircumflex" unicode="&#x174;" horiz-adv-x="1006" 
d="M203 0l-197 706h123l153 -581l142 581h158l142 -581l153 581h123l-197 -706h-161l-139 594l-139 -594h-161zM323 763l132 178h96l132 -178h-98l-82 116l-83 -116h-97z" />
    <glyph glyph-name="wcircumflex" unicode="&#x175;" horiz-adv-x="766" 
d="M158 0l-152 482h111l104 -350l98 350h128l99 -351l104 351h110l-151 -482h-127l-99 350l-98 -350h-127zM204 540l132 178h96l132 -178h-98l-82 116l-83 -116h-97z" />
    <glyph glyph-name="Ycircumflex" unicode="&#x176;" horiz-adv-x="679" 
d="M278 0v324l-277 382h146l194 -287l196 287h141l-277 -382v-324h-123zM161 763l132 178h96l132 -178h-98l-82 116l-83 -116h-97z" />
    <glyph glyph-name="ycircumflex" unicode="&#x177;" horiz-adv-x="488" 
d="M34 -227v93c16 -3 30 -6 40 -6c40 0 70 9 83 45l34 93l-184 484h118l125 -351l121 351h113l-231 -621c-23 -63 -74 -93 -149 -93c-17 0 -55 3 -70 5zM66 540l132 178h96l132 -178h-98l-82 116l-83 -116h-97z" />
    <glyph glyph-name="Ydieresis" unicode="&#x178;" horiz-adv-x="679" 
d="M278 0v324l-277 382h146l194 -287l196 287h141l-277 -382v-324h-123zM183 791v123h121v-123h-121zM378 791v123h121v-123h-121z" />
    <glyph glyph-name="Zacute" unicode="&#x179;" horiz-adv-x="626" 
d="M27 0v110l397 492h-381v104h535v-104l-409 -498h434v-104h-576zM266 763l75 178h111l-98 -178h-88z" />
    <glyph glyph-name="zacute" unicode="&#x17a;" horiz-adv-x="464" 
d="M23 0v92l266 302h-245v88h386v-83l-272 -310h278v-89h-413zM186 540l75 178h111l-98 -178h-88z" />
    <glyph glyph-name="Zdotaccent" unicode="&#x17b;" horiz-adv-x="626" 
d="M27 0v110l397 492h-381v104h535v-104l-409 -498h434v-104h-576zM254 791v123h118v-123h-118z" />
    <glyph glyph-name="zdotaccent" unicode="&#x17c;" horiz-adv-x="464" 
d="M23 0v92l266 302h-245v88h386v-83l-272 -310h278v-89h-413zM174 568v123h118v-123h-118z" />
    <glyph glyph-name="Zcaron" unicode="&#x17d;" horiz-adv-x="626" 
d="M27 0v110l397 492h-381v104h535v-104l-409 -498h434v-104h-576zM265 763l-132 178h97l83 -117l82 117h98l-132 -178h-96z" />
    <glyph glyph-name="zcaron" unicode="&#x17e;" horiz-adv-x="464" 
d="M23 0v92l266 302h-245v88h386v-83l-272 -310h278v-89h-413zM185 540l-132 178h97l83 -117l82 117h98l-132 -178h-96z" />
    <glyph glyph-name="longs" unicode="&#x17f;" horiz-adv-x="228" 
d="M58 0v571c0 83 44 145 138 145c27 0 55 -1 75 -5v-87c-12 1 -30 3 -44 3c-33 0 -57 -18 -57 -78v-549h-112z" />
    <glyph glyph-name="uni018F" unicode="&#x18f;" horiz-adv-x="623" 
d="M166 465l-117 36c17 98 94 224 257 224c193 0 277 -146 277 -369c0 -210 -98 -373 -273 -373c-162 0 -272 130 -272 349c0 20 1 41 1 53h415c-3 122 -37 237 -145 237c-82 0 -129 -78 -143 -157zM453 283h-285c0 -84 51 -199 142 -199c86 0 143 104 143 199z" />
    <glyph glyph-name="uni0190" unicode="&#x190;" horiz-adv-x="647" 
d="M498 241l128 -19c-15 -163 -155 -239 -299 -239c-187 0 -289 101 -289 217c0 75 42 150 151 171c-84 19 -134 82 -134 154c0 129 119 199 269 199c198 0 270 -112 287 -209l-124 -23c-10 59 -45 130 -162 130c-86 0 -144 -38 -144 -100c0 -59 49 -105 150 -105h94v-101
h-94c-119 0 -167 -49 -167 -113c0 -61 56 -119 161 -119s168 54 173 157z" />
    <glyph glyph-name="florin" unicode="&#x192;" horiz-adv-x="371" 
d="M-42 -219l10 86c15 -3 28 -4 42 -4c47 0 50 28 55 76l50 457h-73l9 86h73l12 109c8 72 55 125 135 125c30 0 58 -6 87 -13l-9 -87c-15 4 -29 5 -42 5c-47 0 -54 -47 -58 -88l-5 -51h88l-9 -86h-89l-54 -504c-8 -72 -55 -124 -135 -124c-30 0 -58 5 -87 13z" />
    <glyph glyph-name="uni0194" unicode="&#x194;" horiz-adv-x="623" 
d="M310 -223c-91 0 -146 58 -146 134c0 55 18 96 78 224l-262 571h126l206 -462l212 462h120l-267 -566c61 -129 79 -172 79 -228c0 -78 -56 -135 -146 -135zM310 -133c23 0 37 21 37 49c0 30 -14 66 -37 120c-22 -54 -36 -90 -36 -120c0 -28 14 -49 36 -49z" />
    <glyph glyph-name="uni0197" unicode="&#x197;" horiz-adv-x="291" 
d="M14 329v72h68v305h126v-305h69v-72h-69v-329h-126v329h-68z" />
    <glyph glyph-name="uni019D" unicode="&#x19d;" horiz-adv-x="776" 
d="M74 -74l-1 780h169l348 -583v583h113v-706h-172l-344 581v-666c0 -87 -25 -147 -147 -147c-34 0 -52 1 -73 5v91c13 -2 26 -4 37 -4c64 0 70 34 70 66z" />
    <glyph glyph-name="uni01B5" unicode="&#x1b5;" horiz-adv-x="636" 
d="M71 327v70h192l166 205h-381v104h535v-104l-169 -205h150v-70h-207l-183 -223h434v-104h-576v110l175 217h-136z" />
    <glyph glyph-name="uni01B6" unicode="&#x1b6;" horiz-adv-x="469" 
d="M52 214v66h139l101 114h-245v88h386v-83l-105 -119h84v-66h-142l-109 -125h278v-89h-413v92l107 122h-81z" />
    <glyph glyph-name="uni01CD" unicode="&#x1cd;" horiz-adv-x="705" 
d="M-1 0l279 706h150l277 -706h-132l-75 201h-292l-75 -201h-132zM242 299h220l-110 297zM304 763l-132 178h97l83 -117l82 117h98l-132 -178h-96z" />
    <glyph glyph-name="uni01CE" unicode="&#x1ce;" horiz-adv-x="514" 
d="M466 0h-112c-1 5 -7 44 -7 63c-25 -47 -76 -75 -148 -75c-105 0 -168 69 -168 143c0 116 90 141 197 159c8 1 58 8 68 10c51 8 56 25 56 48c0 31 -27 63 -91 63c-60 0 -101 -29 -104 -95l-110 24c9 53 38 92 77 117s87 37 137 37c108 0 198 -43 198 -166v-203
c0 -81 6 -120 7 -125zM144 138c0 -36 36 -67 78 -67c41 0 125 19 125 114v50c-8 -3 -43 -9 -59 -12l-36 -7c-56 -10 -108 -22 -108 -78zM215 540l-132 178h97l83 -117l82 117h98l-132 -178h-96z" />
    <glyph glyph-name="uni01CF" unicode="&#x1cf;" horiz-adv-x="272" 
d="M73 0v706h126v-706h-126zM88 763l-132 178h97l83 -117l82 117h98l-132 -178h-96z" />
    <glyph glyph-name="uni01D0" unicode="&#x1d0;" horiz-adv-x="228" 
d="M58 0v482h112v-482h-112zM66 540l-132 178h97l83 -117l82 117h98l-132 -178h-96z" />
    <glyph glyph-name="uni01D1" unicode="&#x1d1;" horiz-adv-x="774" 
d="M389 84c154 0 222 133 222 267s-68 271 -222 271c-158 0 -226 -137 -226 -271s68 -267 226 -267zM389 -17c-246 0 -353 183 -353 368c0 184 107 372 353 372c242 0 349 -188 349 -372c0 -185 -107 -368 -349 -368zM342 763l-132 178h97l83 -117l82 117h98l-132 -178h-96z
" />
    <glyph glyph-name="uni01D2" unicode="&#x1d2;" horiz-adv-x="545" 
d="M273 75c87 0 128 87 128 165s-41 168 -128 168s-129 -90 -129 -168s42 -165 129 -165zM273 -12c-156 0 -242 129 -242 252c0 124 86 254 242 254s241 -130 241 -254c0 -123 -85 -252 -241 -252zM224 540l-132 178h97l83 -117l82 117h98l-132 -178h-96z" />
    <glyph glyph-name="uni01D3" unicode="&#x1d3;" horiz-adv-x="722" 
d="M67 254v452h126v-452c0 -109 68 -170 169 -170c100 0 167 58 167 170v452h126v-452c0 -184 -128 -271 -293 -271c-179 0 -295 100 -295 271zM313 763l-132 178h97l83 -117l82 117h98l-132 -178h-96z" />
    <glyph glyph-name="uni01D4" unicode="&#x1d4;" horiz-adv-x="537" 
d="M54 196v286h112v-286c0 -42 4 -66 17 -86c10 -17 33 -35 73 -35c29 0 55 10 77 33c24 26 34 56 34 126v248h112v-482h-110v69c-9 -30 -56 -81 -146 -81c-59 0 -107 24 -137 67c-28 41 -32 83 -32 141zM220 540l-132 178h97l83 -117l82 117h98l-132 -178h-96z" />
    <glyph glyph-name="Gcaron" unicode="&#x1e6;" horiz-adv-x="751" 
d="M584 0v86c-43 -64 -112 -103 -209 -103c-193 0 -339 153 -339 370c0 207 139 370 350 370c134 0 248 -65 306 -200l-123 -29c-39 83 -103 128 -183 128c-136 0 -223 -121 -223 -269c0 -153 88 -269 221 -269c84 0 190 48 198 212h-222v101h341v-397h-117zM338 763
l-132 178h97l83 -117l82 117h98l-132 -178h-96z" />
    <glyph glyph-name="gcaron" unicode="&#x1e7;" horiz-adv-x="571" 
d="M53 -67l115 23c7 -55 43 -105 114 -105c92 0 119 78 119 139v75c-26 -39 -86 -69 -143 -69c-175 0 -226 146 -226 245c0 83 42 253 230 253c55 0 122 -33 144 -77v65h107v-495c0 -130 -78 -222 -231 -222c-132 0 -213 80 -229 168zM276 82c49 0 126 36 126 162
c0 127 -75 164 -122 164c-106 0 -135 -109 -135 -163c0 -74 34 -163 131 -163zM251 541l-132 178h97l83 -117l82 117h98l-132 -178h-96z" />
    <glyph glyph-name="uni01E8" unicode="&#x1e8;" horiz-adv-x="671" 
d="M73 0v706h126v-300l299 300h157l-338 -329l382 -377h-164l-336 337v-337h-126zM281 763l-132 178h97l83 -117l82 117h98l-132 -178h-96z" />
    <glyph glyph-name="uni01E9" unicode="&#x1e9;" horiz-adv-x="524" 
d="M58 0v706h112v-413l196 189h144l-237 -216l273 -266h-144l-232 223v-223h-112zM66 764l-132 178h97l83 -117l82 117h98l-132 -178h-96z" />
    <glyph glyph-name="uni01EA" unicode="&#x1ea;" horiz-adv-x="774" 
d="M481 -238h-39c-81 0 -147 66 -147 147c0 29 8 57 23 80c-196 31 -282 196 -282 362c0 184 107 372 353 372c242 0 349 -188 349 -372s-106 -365 -344 -368c-21 -16 -35 -43 -35 -74c0 -50 37 -91 83 -91h39v-56zM389 84c154 0 222 133 222 267s-68 271 -222 271
c-158 0 -226 -137 -226 -271s68 -267 226 -267z" />
    <glyph glyph-name="uni01EB" unicode="&#x1eb;" horiz-adv-x="545" 
d="M366 -238h-39c-81 0 -147 66 -147 147c0 33 10 63 28 88c-115 29 -177 138 -177 243c0 124 86 254 242 254s241 -130 241 -254c0 -120 -81 -245 -229 -252c-25 -16 -41 -45 -41 -79c0 -50 37 -91 83 -91h39v-56zM273 75c87 0 128 87 128 165s-41 168 -128 168
s-129 -90 -129 -168s42 -165 129 -165z" />
    <glyph glyph-name="uni01F8" unicode="&#x1f8;" horiz-adv-x="776" 
d="M73 0v706h169l348 -583v583h113v-706h-172l-345 582v-582h-113zM350 763l-98 178h111l75 -178h-88z" />
    <glyph glyph-name="uni01F9" unicode="&#x1f9;" horiz-adv-x="538" 
d="M58 0v482h109v-69c10 30 58 81 148 81c59 0 107 -24 137 -67c28 -41 32 -83 32 -141v-286h-112v286c0 42 -3 66 -16 86c-11 17 -34 36 -74 36c-29 0 -56 -11 -78 -34c-24 -26 -34 -60 -34 -126v-248h-112zM234 540l-98 178h111l75 -178h-88z" />
    <glyph glyph-name="Aringacute" unicode="&#x1fa;" horiz-adv-x="704" 
d="M-1 0l280 708c-17 16 -27 40 -27 66c0 55 45 101 101 101c55 0 101 -46 101 -101c0 -26 -12 -50 -28 -67l279 -707h-132l-75 201h-292l-75 -201h-132zM242 299h220l-110 297zM353 722c28 0 51 23 51 52c0 28 -23 52 -51 52c-29 0 -52 -24 -52 -52c0 -29 23 -52 52 -52z
M312 905l107 140h111l-132 -140h-86z" />
    <glyph glyph-name="aringacute" unicode="&#x1fb;" horiz-adv-x="514" 
d="M257 581c28 0 51 23 51 52c0 28 -23 51 -51 51c-29 0 -52 -23 -52 -51c0 -29 23 -52 52 -52zM257 531c-56 0 -101 46 -101 102c0 55 45 101 101 101c55 0 101 -46 101 -101c0 -56 -46 -102 -101 -102zM208 762l107 140h112l-133 -140h-86zM466 0h-112c-1 5 -7 44 -7 63
c-25 -47 -76 -75 -148 -75c-105 0 -168 69 -168 143c0 116 90 141 197 159c8 1 58 8 68 10c51 8 56 25 56 48c0 31 -27 63 -91 63c-60 0 -101 -29 -104 -95l-110 24c7 47 30 79 63 106c39 31 94 48 151 48c108 0 198 -43 198 -166v-203c0 -81 6 -120 7 -125zM144 138
c0 -36 36 -67 78 -67c41 0 125 19 125 114v50c-8 -3 -43 -9 -59 -12l-36 -7c-56 -10 -108 -22 -108 -78z" />
    <glyph glyph-name="AEacute" unicode="&#x1fc;" horiz-adv-x="972" 
d="M-17 0l447 706h491v-101h-314v-191h300v-101h-300v-212h321v-101h-446v229h-215l-140 -229h-144zM330 334h152v249zM580 763l75 178h111l-98 -178h-88z" />
    <glyph glyph-name="aeacute" unicode="&#x1fd;" horiz-adv-x="834" 
d="M157 316l-110 24c7 47 30 79 63 106c39 31 94 48 150 48c69 0 126 -23 160 -62c37 38 89 62 154 62c137 0 228 -109 228 -251c0 -13 -1 -26 -1 -33h-343c0 -80 34 -139 120 -139c68 0 100 47 111 94l103 -25c-16 -81 -106 -151 -212 -151c-77 0 -144 34 -181 97
c-35 -65 -93 -98 -199 -98s-169 73 -169 147c0 125 126 159 272 159h47v32c0 45 -33 85 -90 85c-60 0 -100 -29 -103 -95zM345 185v25h-56c-100 0 -145 -17 -145 -68c0 -45 36 -70 79 -70c52 0 122 30 122 113zM458 294h231c0 55 -39 117 -115 117c-73 0 -116 -54 -116 -117
zM372 540l75 178h111l-98 -178h-88z" />
    <glyph glyph-name="Oslashacute" unicode="&#x1fe;" horiz-adv-x="778" 
d="M38 0l84 97c-57 69 -84 161 -84 254c0 184 107 372 353 372c89 0 160 -26 214 -67l43 50h92l-85 -99c58 -70 85 -164 85 -256c0 -185 -107 -368 -349 -368c-92 0 -164 25 -219 66l-42 -49h-92zM391 84c154 0 222 133 222 267c0 57 -13 115 -39 163l-327 -379
c35 -32 83 -51 144 -51zM165 351c0 -57 12 -114 38 -160l327 379c-34 32 -81 52 -139 52c-158 0 -226 -137 -226 -271zM343 769l75 178h111l-98 -178h-88z" />
    <glyph glyph-name="oslashacute" unicode="&#x1ff;" horiz-adv-x="551" 
d="M21 0l68 77c-36 46 -55 105 -55 163c0 124 86 254 242 254c56 0 104 -17 141 -46l30 34h83l-68 -77c36 -48 55 -107 55 -165c0 -123 -85 -252 -241 -252c-58 0 -105 17 -143 45l-29 -33h-83zM163 160l190 216c-20 20 -46 32 -77 32c-87 0 -129 -90 -129 -168
c0 -27 6 -56 16 -80zM388 321l-191 -215c20 -20 46 -31 79 -31c87 0 128 87 128 165c0 28 -5 56 -16 81zM228 540l75 178h111l-98 -178h-88z" />
    <glyph glyph-name="uni0218" unicode="&#x218;" horiz-adv-x="650" 
d="M24 219l127 25c3 -108 80 -160 177 -160c101 0 165 52 165 112c0 68 -53 86 -124 102l-87 19c-118 25 -236 53 -236 201c0 127 123 205 278 205c186 0 258 -102 279 -207l-124 -25c-14 90 -76 131 -155 131c-85 0 -153 -33 -153 -104c0 -61 68 -78 127 -91l106 -23
c92 -21 217 -58 217 -198c0 -128 -112 -223 -297 -223c-151 0 -271 74 -300 236zM234 -231l35 178h106l-76 -178h-65z" />
    <glyph glyph-name="uni0219" unicode="&#x219;" horiz-adv-x="489" 
d="M25 149l111 24c7 -63 40 -102 106 -102c56 0 102 23 102 68s-38 53 -92 63l-42 8c-82 16 -170 38 -170 144c0 60 58 140 207 140c90 0 176 -51 197 -147l-102 -23c-10 54 -34 87 -101 87c-59 0 -92 -27 -92 -56c0 -42 52 -53 85 -59l41 -7c83 -14 184 -39 184 -143
c0 -102 -96 -158 -217 -158c-128 0 -204 79 -217 161zM151 -231l35 178h106l-76 -178h-65z" />
    <glyph glyph-name="uni021A" unicode="&#x21a;" horiz-adv-x="588" 
d="M231 0v605h-221v101h568v-101h-222v-605h-125zM211 -231l35 178h106l-76 -178h-65z" />
    <glyph glyph-name="uni021B" unicode="&#x21b;" horiz-adv-x="335" 
d="M102 106v290h-93v86h93v159h112v-159h98v-86h-98v-251c0 -42 16 -60 51 -60c15 0 33 1 47 4v-89c-16 -4 -44 -7 -72 -7c-76 0 -138 30 -138 113zM121 -231l35 178h106l-76 -178h-65z" />
    <glyph glyph-name="uni021E" unicode="&#x21e;" horiz-adv-x="742" 
d="M73 0v706h126v-292h344v292h126v-706h-126v313h-344v-313h-126zM323 763l-132 178h97l83 -117l82 117h98l-132 -178h-96z" />
    <glyph glyph-name="uni021F" unicode="&#x21f;" horiz-adv-x="541" 
d="M58 0v706h109v-294c11 31 59 82 150 82c60 0 107 -25 137 -68c29 -41 33 -82 33 -140v-286h-112v286c0 42 -3 66 -17 86c-10 17 -34 36 -74 36c-29 0 -57 -11 -79 -34c-24 -26 -36 -56 -36 -126v-248h-111zM66 764l-132 178h97l83 -117l82 117h98l-132 -178h-96z" />
    <glyph glyph-name="uni022E" unicode="&#x22e;" horiz-adv-x="774" 
d="M389 84c154 0 222 133 222 267s-68 271 -222 271c-158 0 -226 -137 -226 -271s68 -267 226 -267zM389 -17c-246 0 -353 183 -353 368c0 184 107 372 353 372c242 0 349 -188 349 -372c0 -185 -107 -368 -349 -368zM331 791v123h118v-123h-118z" />
    <glyph glyph-name="uni022F" unicode="&#x22f;" horiz-adv-x="545" 
d="M273 75c87 0 128 87 128 165s-41 168 -128 168s-129 -90 -129 -168s42 -165 129 -165zM273 -12c-156 0 -242 129 -242 252c0 124 86 254 242 254s241 -130 241 -254c0 -123 -85 -252 -241 -252zM213 568v123h118v-123h-118z" />
    <glyph glyph-name="uni0232" unicode="&#x232;" horiz-adv-x="679" 
d="M278 0v324l-277 382h146l194 -287l196 287h141l-277 -382v-324h-123zM182 821v86h318v-86h-318z" />
    <glyph glyph-name="uni0233" unicode="&#x233;" horiz-adv-x="488" 
d="M34 -227v93c16 -3 30 -6 40 -6c40 0 70 9 83 45l34 93l-184 484h118l125 -351l121 351h113l-231 -621c-23 -63 -74 -93 -149 -93c-17 0 -55 3 -70 5zM90 598v86h318v-86h-318z" />
    <glyph glyph-name="uni0237" unicode="&#x237;" horiz-adv-x="234" 
d="M-44 -227v91c13 -2 26 -4 37 -4c65 0 71 34 71 66v556h112v-567c0 -87 -24 -147 -147 -147c-34 0 -52 1 -73 5z" />
    <glyph glyph-name="uni0244" unicode="&#x244;" horiz-adv-x="738" 
d="M17 329v72h58v305h126v-305h336v305h126v-305h59v-72h-59v-75c0 -184 -127 -271 -293 -271c-179 0 -295 100 -295 271v75h-58zM370 84c100 0 167 58 167 170v75h-336v-75c0 -109 68 -170 169 -170z" />
    <glyph glyph-name="uni0259" unicode="&#x259;" horiz-adv-x="524" 
d="M145 317l-103 25c15 67 94 152 208 152c168 0 242 -124 242 -252c0 -132 -80 -254 -231 -254c-137 0 -229 106 -229 252c0 13 1 25 1 32h346c-2 75 -43 139 -122 139c-69 0 -101 -47 -112 -94zM378 188h-233c0 -58 39 -117 116 -117c74 0 117 52 117 117z" />
    <glyph glyph-name="uni025B" unicode="&#x25b;" horiz-adv-x="478" 
d="M454 151c-16 -109 -111 -163 -214 -163c-129 0 -207 66 -207 148c0 51 34 100 98 110c-57 12 -86 63 -86 103c0 93 94 145 197 145c110 0 187 -53 207 -147l-102 -23c-8 50 -35 86 -103 86c-54 0 -89 -25 -89 -65c0 -38 32 -62 87 -62h65v-74h-68c-73 0 -95 -30 -95 -65
c0 -41 32 -72 97 -72c64 0 106 39 114 102z" />
    <glyph glyph-name="uni0263" unicode="&#x263;" horiz-adv-x="475" 
d="M482 482l-179 -393c49 -109 64 -148 64 -192c0 -69 -51 -120 -130 -120c-80 0 -130 52 -130 119c0 45 15 82 64 190l-177 396h115l129 -296l132 296h112zM237 4c-19 -45 -32 -82 -32 -108c0 -25 13 -41 32 -41s32 16 32 41c0 26 -13 63 -32 108z" />
    <glyph glyph-name="uni0268" unicode="&#x268;" horiz-adv-x="248" 
d="M19 239v69h49v174h112v-174h49v-69h-49v-239h-112v239h-49zM68 586v120h112v-120h-112z" />
    <glyph glyph-name="uni0272" unicode="&#x272;" horiz-adv-x="539" 
d="M23 -233c-22 0 -45 1 -73 7v90c13 -2 26 -4 41 -4c49 0 67 30 67 73v549h110v-69c9 30 57 81 147 81c59 0 108 -24 137 -67c28 -41 33 -83 33 -141v-286h-113v286c0 42 -3 66 -16 86c-11 17 -34 35 -74 35c-29 0 -56 -10 -78 -33c-24 -26 -34 -60 -34 -126v-329
c0 -95 -34 -152 -147 -152z" />
    <glyph glyph-name="uni0289" unicode="&#x289;" horiz-adv-x="561" 
d="M19 239v69h49v174h112v-174h201v174h112v-174h49v-69h-49v-239h-110v69c-9 -30 -56 -81 -146 -81c-59 0 -107 24 -137 67c-28 41 -32 83 -32 141v43h-49zM347 108c24 26 34 56 34 126v5h-201v-43c0 -42 4 -66 17 -86c11 -17 34 -35 73 -35c29 0 54 10 77 33z" />
    <glyph glyph-name="circumflex" unicode="&#x2c6;" horiz-adv-x="460" 
d="M50 540l132 178h96l132 -178h-98l-82 116l-83 -116h-97z" />
    <glyph glyph-name="caron" unicode="&#x2c7;" horiz-adv-x="460" 
d="M182 540l-132 178h97l83 -117l82 117h98l-132 -178h-96z" />
    <glyph glyph-name="uni02C9" unicode="&#x2c9;" horiz-adv-x="230" 
d="M-44 598v86h318v-86h-318z" />
    <glyph glyph-name="breve" unicode="&#x2d8;" horiz-adv-x="413" 
d="M50 693v21h83v-21c0 -50 22 -89 73 -89c50 0 73 39 73 89v21h84v-21c0 -100 -67 -162 -157 -162c-91 0 -156 62 -156 162z" />
    <glyph glyph-name="dotaccent" unicode="&#x2d9;" horiz-adv-x="218" 
d="M50 568v123h118v-123h-118z" />
    <glyph glyph-name="ring" unicode="&#x2da;" horiz-adv-x="302" 
d="M151 582c28 0 51 23 51 52c0 28 -23 51 -51 51c-29 0 -52 -23 -52 -51c0 -29 23 -52 52 -52zM151 532c-56 0 -101 46 -101 102c0 55 45 101 101 101c55 0 101 -46 101 -101c0 -56 -46 -102 -101 -102z" />
    <glyph glyph-name="ogonek" unicode="&#x2db;" horiz-adv-x="285" 
d="M236 -238h-39c-81 0 -147 66 -147 147c0 38 14 73 38 99h109v-8c-46 0 -83 -41 -83 -91s37 -91 83 -91h39v-56z" />
    <glyph glyph-name="tilde" unicode="&#x2dc;" horiz-adv-x="418" 
d="M50 568v95c20 20 59 37 90 37c27 0 48 -7 69 -14s49 -20 73 -20c35 0 65 21 86 48v-95c-21 -21 -61 -39 -91 -39s-52 9 -76 17c-22 7 -42 18 -66 18c-35 0 -65 -21 -85 -47z" />
    <glyph glyph-name="hungarumlaut" unicode="&#x2dd;" horiz-adv-x="428" 
d="M50 540l75 178h112l-98 -178h-89zM191 540l75 178h112l-98 -178h-89z" />
    <glyph glyph-name="gravecomb" unicode="&#x300;" horiz-adv-x="0" 
d="M-245 540l-98 178h111l75 -178h-88z" />
    <glyph glyph-name="acutecomb" unicode="&#x301;" horiz-adv-x="0" 
d="M-343 540l75 178h111l-98 -178h-88z" />
    <glyph glyph-name="uni0302" unicode="&#x302;" horiz-adv-x="0" 
d="M-430 540l132 178h96l132 -178h-98l-82 116l-83 -116h-97z" />
    <glyph glyph-name="tildecomb" unicode="&#x303;" horiz-adv-x="0" 
d="M-409 568v95c20 20 59 37 90 37c27 0 48 -7 69 -14s49 -20 73 -20c35 0 65 21 86 48v-95c-21 -21 -61 -39 -91 -39s-52 9 -76 17c-22 7 -42 18 -66 18c-35 0 -65 -21 -85 -47z" />
    <glyph glyph-name="uni0304" unicode="&#x304;" horiz-adv-x="0" 
d="M-409 598v86h318v-86h-318z" />
    <glyph glyph-name="uni0306" unicode="&#x306;" horiz-adv-x="0" 
d="M-406 693v21h83v-21c0 -50 22 -89 73 -89c50 0 73 39 73 89v21h84v-21c0 -100 -67 -162 -157 -162c-91 0 -156 62 -156 162z" />
    <glyph glyph-name="uni0307" unicode="&#x307;" horiz-adv-x="0" 
d="M-309 568v123h118v-123h-118z" />
    <glyph glyph-name="uni0308" unicode="&#x308;" horiz-adv-x="0" 
d="M-408 568v123h121v-123h-121zM-213 568v123h121v-123h-121z" />
    <glyph glyph-name="uni030A" unicode="&#x30a;" horiz-adv-x="0" 
d="M-250 582c28 0 51 23 51 52c0 28 -23 51 -51 51c-29 0 -52 -23 -52 -51c0 -29 23 -52 52 -52zM-250 532c-56 0 -101 46 -101 102c0 55 45 101 101 101c55 0 101 -46 101 -101c0 -56 -46 -102 -101 -102z" />
    <glyph glyph-name="uni030B" unicode="&#x30b;" horiz-adv-x="0" 
d="M-414 540l75 178h112l-98 -178h-89zM-273 540l75 178h112l-98 -178h-89z" />
    <glyph glyph-name="uni030C" unicode="&#x30c;" horiz-adv-x="0" 
d="M-298 540l-132 178h97l83 -117l82 117h98l-132 -178h-96z" />
    <glyph glyph-name="uni0312" unicode="&#x312;" horiz-adv-x="0" 
d="M-321 540l76 178h66l-36 -178h-106z" />
    <glyph glyph-name="uni0313" unicode="&#x313;" horiz-adv-x="0" 
d="M-321 540l36 178h106l-77 -178h-65z" />
    <glyph glyph-name="uni0323" unicode="&#x323;" horiz-adv-x="0" 
d="M-309 -175v123h118v-123h-118z" />
    <glyph glyph-name="uni0326" unicode="&#x326;" horiz-adv-x="0" 
d="M-320 -231l35 178h106l-76 -178h-65z" />
    <glyph glyph-name="uni0327" unicode="&#x327;" horiz-adv-x="0" 
d="M-265 -238v56h39c27 0 47 17 47 45c0 22 -20 39 -47 39h-39v106h59v-51c51 -3 91 -38 91 -94c0 -65 -48 -101 -105 -101h-45z" />
    <glyph glyph-name="uni0328" unicode="&#x328;" horiz-adv-x="0" 
d="M-156 -238h-39c-81 0 -147 66 -147 147c0 38 14 73 38 99h109v-8c-46 0 -83 -41 -83 -91s37 -91 83 -91h39v-56z" />
    <glyph glyph-name="uni032E" unicode="&#x32e;" horiz-adv-x="0" 
d="M-406 -70v21h83v-21c0 -50 22 -89 73 -89c50 0 73 39 73 89v21h84v-21c0 -100 -67 -162 -157 -162c-91 0 -156 62 -156 162z" />
    <glyph glyph-name="uni0331" unicode="&#x331;" horiz-adv-x="0" 
d="M-409 -135v86h318v-86h-318z" />
    <glyph glyph-name="anoteleia" unicode="&#x387;" horiz-adv-x="238" 
d="M45 341c0 41 33 74 74 74c40 0 74 -33 74 -74c0 -40 -34 -73 -74 -73c-41 0 -74 33 -74 73z" />
    <glyph glyph-name="uni0394" unicode="&#x394;" horiz-adv-x="616" 
d="M15 0v63l237 643h116l232 -643v-63h-585zM143 106h331l-164 454z" />
    <glyph glyph-name="uni03A9" unicode="&#x3a9;" horiz-adv-x="708" 
d="M41 0v99h121c-60 67 -109 156 -109 278c0 211 134 345 301 345s301 -134 301 -345c0 -122 -49 -211 -109 -278h121v-99h-267v77c73 48 142 142 142 293s-70 254 -188 254c-119 0 -188 -103 -188 -254s69 -245 142 -293v-77h-267z" />
    <glyph glyph-name="uni03BC" unicode="&#x3bc;" horiz-adv-x="541" 
d="M58 -223v705h112v-293c0 -60 20 -114 91 -114c80 0 110 69 110 144v263h112v-482h-109v68c-10 -30 -60 -80 -132 -80c-24 0 -50 6 -72 20v-231h-112z" />
    <glyph glyph-name="pi" unicode="&#x3c0;" horiz-adv-x="554" 
d="M211 395v-395h-111v395h-84v87h522v-87h-84v-395h-111v395h-132z" />
    <glyph glyph-name="uni1E02" unicode="&#x1e02;" horiz-adv-x="689" 
d="M73 0v706h328c143 0 226 -78 226 -190c0 -85 -70 -141 -125 -148c97 -10 153 -77 153 -163c0 -149 -121 -205 -281 -205h-301zM199 101h187c82 0 143 28 143 105c0 75 -54 107 -145 107h-185v-212zM199 414h170c70 0 131 28 131 97c0 64 -49 94 -113 94h-188v-191z
M270 791v123h118v-123h-118z" />
    <glyph glyph-name="uni1E03" unicode="&#x1e03;" horiz-adv-x="569" 
d="M58 0v706h112v-282c26 39 79 70 143 70c179 0 224 -161 224 -254c0 -79 -38 -252 -228 -252c-55 0 -121 33 -144 77v-65h-107zM293 75c91 0 131 81 131 165c0 97 -49 168 -131 168c-46 0 -125 -35 -125 -168c0 -132 81 -165 125 -165zM260 568v123h118v-123h-118z" />
    <glyph glyph-name="uni1E0A" unicode="&#x1e0a;" horiz-adv-x="735" 
d="M199 101h117c179 0 255 108 255 252s-76 252 -255 252h-117v-504zM73 0v706h256c195 0 369 -108 369 -353s-174 -353 -369 -353h-256zM295 791v123h118v-123h-118z" />
    <glyph glyph-name="uni1E0B" unicode="&#x1e0b;" horiz-adv-x="573" 
d="M409 0v64c-23 -43 -91 -76 -148 -76c-185 0 -229 169 -229 252c0 88 47 254 231 254c61 0 114 -32 140 -70v282h112v-706h-106zM279 75c47 0 125 33 125 165c0 133 -78 168 -122 168c-104 0 -137 -102 -137 -167c0 -58 30 -166 134 -166zM190 568v123h118v-123h-118z" />
    <glyph glyph-name="uni1E0C" unicode="&#x1e0c;" horiz-adv-x="735" 
d="M199 101h117c179 0 255 108 255 252s-76 252 -255 252h-117v-504zM73 0v706h256c195 0 369 -108 369 -353s-174 -353 -369 -353h-256zM265 -175v123h118v-123h-118z" />
    <glyph glyph-name="uni1E0D" unicode="&#x1e0d;" horiz-adv-x="573" 
d="M409 0v64c-23 -43 -91 -76 -148 -76c-185 0 -229 169 -229 252c0 88 47 254 231 254c61 0 114 -32 140 -70v282h112v-706h-106zM279 75c47 0 125 33 125 165c0 133 -78 168 -122 168c-104 0 -137 -102 -137 -167c0 -58 30 -166 134 -166zM220 -175v123h118v-123h-118z
" />
    <glyph glyph-name="uni1E0E" unicode="&#x1e0e;" horiz-adv-x="735" 
d="M199 101h117c179 0 255 108 255 252s-76 252 -255 252h-117v-504zM73 0v706h256c195 0 369 -108 369 -353s-174 -353 -369 -353h-256zM168 -135v86h318v-86h-318z" />
    <glyph glyph-name="uni1E0F" unicode="&#x1e0f;" horiz-adv-x="573" 
d="M409 0v64c-23 -43 -91 -76 -148 -76c-185 0 -229 169 -229 252c0 88 47 254 231 254c61 0 114 -32 140 -70v282h112v-706h-106zM279 75c47 0 125 33 125 165c0 133 -78 168 -122 168c-104 0 -137 -102 -137 -167c0 -58 30 -166 134 -166zM123 -135v86h318v-86h-318z" />
    <glyph glyph-name="uni1E10" unicode="&#x1e10;" horiz-adv-x="735" 
d="M199 101h117c179 0 255 108 255 252s-76 252 -255 252h-117v-504zM73 0v706h256c195 0 369 -108 369 -353s-174 -353 -369 -353h-256zM242 -231l35 178h106l-76 -178h-65z" />
    <glyph glyph-name="uni1E11" unicode="&#x1e11;" horiz-adv-x="573" 
d="M409 0v64c-23 -43 -91 -76 -148 -76c-185 0 -229 169 -229 252c0 88 47 254 231 254c61 0 114 -32 140 -70v282h112v-706h-106zM279 75c47 0 125 33 125 165c0 133 -78 168 -122 168c-104 0 -137 -102 -137 -167c0 -58 30 -166 134 -166zM197 -231l35 178h106l-76 -178
h-65z" />
    <glyph glyph-name="uni1E1E" unicode="&#x1e1e;" horiz-adv-x="593" 
d="M73 0v706h496v-101h-370v-190h348v-101h-348v-314h-126zM262 791v123h118v-123h-118z" />
    <glyph glyph-name="uni1E1F" unicode="&#x1e1f;" horiz-adv-x="331" 
d="M108 0v396h-98v86h98v89c0 83 44 145 138 145c27 0 55 -1 75 -5v-87c-12 1 -30 3 -43 3c-34 0 -58 -18 -58 -78v-67h100v-86h-100v-396h-112zM156 792v123h118v-123h-118z" />
    <glyph glyph-name="uni1E20" unicode="&#x1e20;" horiz-adv-x="751" 
d="M584 0v86c-43 -64 -112 -103 -209 -103c-193 0 -339 153 -339 370c0 207 139 370 350 370c134 0 248 -65 306 -200l-123 -29c-39 83 -103 128 -183 128c-136 0 -223 -121 -223 -269c0 -153 88 -269 221 -269c84 0 190 48 198 212h-222v101h341v-397h-117zM227 821v86h318
v-86h-318z" />
    <glyph glyph-name="uni1E21" unicode="&#x1e21;" horiz-adv-x="571" 
d="M53 -67l115 23c7 -55 43 -105 114 -105c92 0 119 78 119 139v75c-26 -39 -86 -69 -143 -69c-175 0 -226 146 -226 245c0 83 42 253 230 253c55 0 122 -33 144 -77v65h107v-495c0 -130 -78 -222 -231 -222c-132 0 -213 80 -229 168zM276 82c49 0 126 36 126 162
c0 127 -75 164 -122 164c-106 0 -135 -109 -135 -163c0 -74 34 -163 131 -163zM140 599v86h318v-86h-318z" />
    <glyph glyph-name="uni1E22" unicode="&#x1e22;" horiz-adv-x="742" 
d="M73 0v706h126v-292h344v292h126v-706h-126v313h-344v-313h-126zM312 791v123h118v-123h-118z" />
    <glyph glyph-name="uni1E23" unicode="&#x1e23;" horiz-adv-x="541" 
d="M58 0v706h109v-294c11 31 59 82 150 82c60 0 107 -25 137 -68c29 -41 33 -82 33 -140v-286h-112v286c0 42 -3 66 -17 86c-10 17 -34 36 -74 36c-29 0 -57 -11 -79 -34c-24 -26 -36 -56 -36 -126v-248h-111zM235 568v123h118v-123h-118z" />
    <glyph glyph-name="uni1E24" unicode="&#x1e24;" horiz-adv-x="742" 
d="M73 0v706h126v-292h344v292h126v-706h-126v313h-344v-313h-126zM312 -175v123h118v-123h-118z" />
    <glyph glyph-name="uni1E25" unicode="&#x1e25;" horiz-adv-x="541" 
d="M58 0v706h109v-294c11 31 59 82 150 82c60 0 107 -25 137 -68c29 -41 33 -82 33 -140v-286h-112v286c0 42 -3 66 -17 86c-10 17 -34 36 -74 36c-29 0 -57 -11 -79 -34c-24 -26 -36 -56 -36 -126v-248h-111zM213 -175v123h118v-123h-118z" />
    <glyph glyph-name="uni1E2A" unicode="&#x1e2a;" horiz-adv-x="742" 
d="M73 0v706h126v-292h344v292h126v-706h-126v313h-344v-313h-126zM215 -70v21h83v-21c0 -50 22 -89 73 -89c50 0 73 39 73 89v21h84v-21c0 -100 -67 -162 -157 -162c-91 0 -156 62 -156 162z" />
    <glyph glyph-name="uni1E2B" unicode="&#x1e2b;" horiz-adv-x="541" 
d="M58 0v706h109v-294c11 31 59 82 150 82c60 0 107 -25 137 -68c29 -41 33 -82 33 -140v-286h-112v286c0 42 -3 66 -17 86c-10 17 -34 36 -74 36c-29 0 -57 -11 -79 -34c-24 -26 -36 -56 -36 -126v-248h-111zM116 -70v21h83v-21c0 -50 22 -89 73 -89c50 0 73 39 73 89v21
h84v-21c0 -100 -67 -162 -157 -162c-91 0 -156 62 -156 162z" />
    <glyph glyph-name="uni1E36" unicode="&#x1e36;" horiz-adv-x="566" 
d="M73 0v706h126v-605h356v-101h-482zM257 -175v123h118v-123h-118z" />
    <glyph glyph-name="uni1E37" unicode="&#x1e37;" horiz-adv-x="228" 
d="M58 0v706h112v-706h-112zM55 -175v123h118v-123h-118z" />
    <glyph glyph-name="uni1E38" unicode="&#x1e38;" horiz-adv-x="566" 
d="M73 0v706h126v-605h356v-101h-482zM257 -175v123h118v-123h-118zM157 821v86h318v-86h-318z" />
    <glyph glyph-name="uni1E39" unicode="&#x1e39;" horiz-adv-x="228" 
d="M58 0v706h112v-706h-112zM55 -175v123h118v-123h-118zM-45 822v86h318v-86h-318z" />
    <glyph glyph-name="uni1E3A" unicode="&#x1e3a;" horiz-adv-x="566" 
d="M73 0v706h126v-605h356v-101h-482zM160 -135v86h318v-86h-318z" />
    <glyph glyph-name="uni1E3B" unicode="&#x1e3b;" horiz-adv-x="228" 
d="M58 0v706h112v-706h-112zM-42 -135v86h318v-86h-318z" />
    <glyph glyph-name="uni1E3E" unicode="&#x1e3e;" horiz-adv-x="912" 
d="M73 0v706h187l197 -580l196 580h186v-706h-116v578l-194 -578h-144l-195 577v-577h-117zM410 763l75 178h111l-98 -178h-88z" />
    <glyph glyph-name="uni1E3F" unicode="&#x1e3f;" horiz-adv-x="800" 
d="M58 0v482h109v-69c9 30 50 81 134 81c38 0 77 -8 112 -47c10 -11 18 -24 26 -38c18 46 66 85 138 85c56 0 102 -20 133 -61c28 -38 36 -80 36 -147v-286h-112v297c0 41 -8 111 -79 111c-32 0 -59 -18 -75 -44c-17 -26 -22 -54 -22 -96v-268h-112v297c0 41 -7 111 -78 111
c-33 0 -60 -18 -77 -44c-18 -27 -21 -57 -21 -109v-255h-112zM354 540l75 178h111l-98 -178h-88z" />
    <glyph glyph-name="uni1E40" unicode="&#x1e40;" horiz-adv-x="912" 
d="M73 0v706h187l197 -580l196 580h186v-706h-116v578l-194 -578h-144l-195 577v-577h-117zM398 791v123h118v-123h-118z" />
    <glyph glyph-name="uni1E41" unicode="&#x1e41;" horiz-adv-x="800" 
d="M58 0v482h109v-69c9 30 50 81 134 81c38 0 77 -8 112 -47c10 -11 18 -24 26 -38c18 46 66 85 138 85c56 0 102 -20 133 -61c28 -38 36 -80 36 -147v-286h-112v297c0 41 -8 111 -79 111c-32 0 -59 -18 -75 -44c-17 -26 -22 -54 -22 -96v-268h-112v297c0 41 -7 111 -78 111
c-33 0 -60 -18 -77 -44c-18 -27 -21 -57 -21 -109v-255h-112zM342 568v123h118v-123h-118z" />
    <glyph glyph-name="uni1E42" unicode="&#x1e42;" horiz-adv-x="912" 
d="M73 0v706h187l197 -580l196 580h186v-706h-116v578l-194 -578h-144l-195 577v-577h-117zM398 -175v123h118v-123h-118z" />
    <glyph glyph-name="uni1E43" unicode="&#x1e43;" horiz-adv-x="800" 
d="M58 0v482h109v-69c9 30 50 81 134 81c38 0 77 -8 112 -47c10 -11 18 -24 26 -38c18 46 66 85 138 85c56 0 102 -20 133 -61c28 -38 36 -80 36 -147v-286h-112v297c0 41 -8 111 -79 111c-32 0 -59 -18 -75 -44c-17 -26 -22 -54 -22 -96v-268h-112v297c0 41 -7 111 -78 111
c-33 0 -60 -18 -77 -44c-18 -27 -21 -57 -21 -109v-255h-112zM343 -175v123h118v-123h-118z" />
    <glyph glyph-name="uni1E44" unicode="&#x1e44;" horiz-adv-x="776" 
d="M73 0v706h169l348 -583v583h113v-706h-172l-345 582v-582h-113zM329 791v123h118v-123h-118z" />
    <glyph glyph-name="uni1E45" unicode="&#x1e45;" horiz-adv-x="538" 
d="M58 0v482h109v-69c10 30 58 81 148 81c59 0 107 -24 137 -67c28 -41 32 -83 32 -141v-286h-112v286c0 42 -3 66 -16 86c-11 17 -34 36 -74 36c-29 0 -56 -11 -78 -34c-24 -26 -34 -60 -34 -126v-248h-112zM213 568v123h118v-123h-118z" />
    <glyph glyph-name="uni1E46" unicode="&#x1e46;" horiz-adv-x="776" 
d="M73 0v706h169l348 -583v583h113v-706h-172l-345 582v-582h-113zM329 -175v123h118v-123h-118z" />
    <glyph glyph-name="uni1E47" unicode="&#x1e47;" horiz-adv-x="538" 
d="M58 0v482h109v-69c10 30 58 81 148 81c59 0 107 -24 137 -67c28 -41 32 -83 32 -141v-286h-112v286c0 42 -3 66 -16 86c-11 17 -34 36 -74 36c-29 0 -56 -11 -78 -34c-24 -26 -34 -60 -34 -126v-248h-112zM210 -175v123h118v-123h-118z" />
    <glyph glyph-name="uni1E48" unicode="&#x1e48;" horiz-adv-x="776" 
d="M73 0v706h169l348 -583v583h113v-706h-172l-345 582v-582h-113zM232 -135v86h318v-86h-318z" />
    <glyph glyph-name="uni1E49" unicode="&#x1e49;" horiz-adv-x="538" 
d="M58 0v482h109v-69c10 30 58 81 148 81c59 0 107 -24 137 -67c28 -41 32 -83 32 -141v-286h-112v286c0 42 -3 66 -16 86c-11 17 -34 36 -74 36c-29 0 -56 -11 -78 -34c-24 -26 -34 -60 -34 -126v-248h-112zM113 -135v86h318v-86h-318z" />
    <glyph glyph-name="uni1E56" unicode="&#x1e56;" horiz-adv-x="648" 
d="M73 0v706h326c115 0 229 -50 229 -203c0 -152 -113 -205 -229 -205h-200v-298h-126zM199 399h183c72 0 121 24 121 104c0 70 -41 102 -121 102h-183v-206zM275 791v123h118v-123h-118z" />
    <glyph glyph-name="uni1E57" unicode="&#x1e57;" horiz-adv-x="573" 
d="M58 -223v705h107v-64c23 43 90 76 148 76c179 0 228 -160 228 -252c0 -80 -42 -254 -232 -254c-61 0 -113 31 -139 70v-281h-112zM293 75c109 0 135 111 135 166c0 68 -34 167 -133 167c-48 0 -127 -34 -127 -166c0 -133 80 -167 125 -167zM254 568v123h118v-123h-118z
" />
    <glyph glyph-name="uni1E5A" unicode="&#x1e5a;" horiz-adv-x="689" 
d="M73 0v706h314c139 0 237 -63 237 -185c0 -117 -75 -159 -113 -166c64 -14 111 -48 111 -135v-109c0 -37 5 -74 41 -111h-136c-27 29 -29 67 -29 95v103c0 69 -36 100 -103 100h-199v-298h-123zM196 399h185c92 0 120 58 120 109c0 61 -43 97 -123 97h-182v-206zM285 -175
v123h118v-123h-118z" />
    <glyph glyph-name="uni1E5B" unicode="&#x1e5b;" horiz-adv-x="348" 
d="M58 0v482h109v-71c20 44 70 83 137 83c13 0 27 -1 34 -2v-105c-7 2 -18 4 -43 4c-52 0 -82 -23 -102 -50c-21 -30 -23 -70 -23 -108v-233h-112zM52 -175v123h118v-123h-118z" />
    <glyph glyph-name="uni1E5C" unicode="&#x1e5c;" horiz-adv-x="689" 
d="M73 0v706h314c139 0 237 -63 237 -185c0 -117 -75 -159 -113 -166c64 -14 111 -48 111 -135v-109c0 -37 5 -74 41 -111h-136c-27 29 -29 67 -29 95v103c0 69 -36 100 -103 100h-199v-298h-123zM196 399h185c92 0 120 58 120 109c0 61 -43 97 -123 97h-182v-206zM285 -175
v123h118v-123h-118zM175 821v86h318v-86h-318z" />
    <glyph glyph-name="uni1E5D" unicode="&#x1e5d;" horiz-adv-x="348" 
d="M58 0v482h109v-71c20 44 70 83 137 83c13 0 27 -1 34 -2v-105c-7 2 -18 4 -43 4c-52 0 -82 -23 -102 -50c-21 -30 -23 -70 -23 -108v-233h-112zM52 -175v123h118v-123h-118zM44 598v86h318v-86h-318z" />
    <glyph glyph-name="uni1E5E" unicode="&#x1e5e;" horiz-adv-x="689" 
d="M73 0v706h314c139 0 237 -63 237 -185c0 -117 -75 -159 -113 -166c64 -14 111 -48 111 -135v-109c0 -37 5 -74 41 -111h-136c-27 29 -29 67 -29 95v103c0 69 -36 100 -103 100h-199v-298h-123zM196 399h185c92 0 120 58 120 109c0 61 -43 97 -123 97h-182v-206zM188 -135
v86h318v-86h-318z" />
    <glyph glyph-name="uni1E5F" unicode="&#x1e5f;" horiz-adv-x="348" 
d="M58 0v482h109v-71c20 44 70 83 137 83c13 0 27 -1 34 -2v-105c-7 2 -18 4 -43 4c-52 0 -82 -23 -102 -50c-21 -30 -23 -70 -23 -108v-233h-112zM-45 -135v86h318v-86h-318z" />
    <glyph glyph-name="uni1E60" unicode="&#x1e60;" horiz-adv-x="650" 
d="M24 219l127 25c3 -108 80 -160 177 -160c101 0 165 52 165 112c0 68 -53 86 -124 102l-87 19c-118 25 -236 53 -236 201c0 127 123 205 278 205c186 0 258 -102 279 -207l-124 -25c-14 90 -76 131 -155 131c-85 0 -153 -33 -153 -104c0 -61 68 -78 127 -91l106 -23
c92 -21 217 -58 217 -198c0 -128 -112 -223 -297 -223c-151 0 -271 74 -300 236zM267 791v123h118v-123h-118z" />
    <glyph glyph-name="uni1E61" unicode="&#x1e61;" horiz-adv-x="489" 
d="M25 149l111 24c7 -63 40 -102 106 -102c56 0 102 23 102 68s-38 53 -92 63l-42 8c-82 16 -170 38 -170 144c0 60 58 140 207 140c90 0 176 -51 197 -147l-102 -23c-10 54 -34 87 -101 87c-59 0 -92 -27 -92 -56c0 -42 52 -53 85 -59l41 -7c83 -14 184 -39 184 -143
c0 -102 -96 -158 -217 -158c-128 0 -204 79 -217 161zM182 568v123h118v-123h-118z" />
    <glyph glyph-name="uni1E62" unicode="&#x1e62;" horiz-adv-x="650" 
d="M24 219l127 25c3 -108 80 -160 177 -160c101 0 165 52 165 112c0 68 -53 86 -124 102l-87 19c-118 25 -236 53 -236 201c0 127 123 205 278 205c186 0 258 -102 279 -207l-124 -25c-14 90 -76 131 -155 131c-85 0 -153 -33 -153 -104c0 -61 68 -78 127 -91l106 -23
c92 -21 217 -58 217 -198c0 -128 -112 -223 -297 -223c-151 0 -271 74 -300 236zM257 -175v123h118v-123h-118z" />
    <glyph glyph-name="uni1E63" unicode="&#x1e63;" horiz-adv-x="489" 
d="M25 149l111 24c7 -63 40 -102 106 -102c56 0 102 23 102 68s-38 53 -92 63l-42 8c-82 16 -170 38 -170 144c0 60 58 140 207 140c90 0 176 -51 197 -147l-102 -23c-10 54 -34 87 -101 87c-59 0 -92 -27 -92 -56c0 -42 52 -53 85 -59l41 -7c83 -14 184 -39 184 -143
c0 -102 -96 -158 -217 -158c-128 0 -204 79 -217 161zM174 -175v123h118v-123h-118z" />
    <glyph glyph-name="uni1E6A" unicode="&#x1e6a;" horiz-adv-x="588" 
d="M231 0v605h-221v101h568v-101h-222v-605h-125zM235 791v123h118v-123h-118z" />
    <glyph glyph-name="uni1E6B" unicode="&#x1e6b;" horiz-adv-x="338" 
d="M103 106v290h-93v86h93v159h112v-159h98v-86h-98v-251c0 -42 16 -60 51 -60c15 0 33 1 47 4v-89c-16 -4 -44 -7 -72 -7c-76 0 -138 30 -138 113zM100 792v123h118v-123h-118z" />
    <glyph glyph-name="uni1E6C" unicode="&#x1e6c;" horiz-adv-x="588" 
d="M231 0v605h-221v101h568v-101h-222v-605h-125zM234 -175v123h118v-123h-118z" />
    <glyph glyph-name="uni1E6D" unicode="&#x1e6d;" horiz-adv-x="338" 
d="M103 106v290h-93v86h93v159h112v-159h98v-86h-98v-251c0 -42 16 -60 51 -60c15 0 33 1 47 4v-89c-16 -4 -44 -7 -72 -7c-76 0 -138 30 -138 113zM134 -175v123h118v-123h-118z" />
    <glyph glyph-name="uni1E6E" unicode="&#x1e6e;" horiz-adv-x="588" 
d="M231 0v605h-221v101h568v-101h-222v-605h-125zM137 -135v86h318v-86h-318z" />
    <glyph glyph-name="uni1E6F" unicode="&#x1e6f;" horiz-adv-x="338" 
d="M103 106v290h-93v86h93v159h112v-159h98v-86h-98v-251c0 -42 16 -60 51 -60c15 0 33 1 47 4v-89c-16 -4 -44 -7 -72 -7c-76 0 -138 30 -138 113zM37 -135v86h318v-86h-318z" />
    <glyph glyph-name="uni1E7C" unicode="&#x1e7c;" horiz-adv-x="684" 
d="M272 0l-272 706h126l216 -572l219 572h125l-276 -706h-138zM184 791v95c20 20 59 37 90 37c27 0 48 -7 69 -14s49 -20 73 -20c35 0 65 21 86 48v-95c-21 -21 -61 -39 -91 -39s-52 9 -76 17c-22 7 -42 18 -66 18c-35 0 -65 -21 -85 -47z" />
    <glyph glyph-name="uni1E7D" unicode="&#x1e7d;" horiz-adv-x="500" 
d="M184 0l-177 482h115l129 -359l132 359h111l-179 -482h-131zM92 568v95c20 20 59 37 90 37c27 0 48 -7 69 -14s49 -20 73 -20c35 0 65 21 86 48v-95c-21 -21 -61 -39 -91 -39s-52 9 -76 17c-22 7 -42 18 -66 18c-35 0 -65 -21 -85 -47z" />
    <glyph glyph-name="Wgrave" unicode="&#x1e80;" horiz-adv-x="1006" 
d="M203 0l-197 706h123l153 -581l142 581h158l142 -581l153 581h123l-197 -706h-161l-139 594l-139 -594h-161zM465 763l-98 178h111l75 -178h-88z" />
    <glyph glyph-name="wgrave" unicode="&#x1e81;" horiz-adv-x="766" 
d="M158 0l-152 482h111l104 -350l98 350h128l99 -351l104 351h110l-151 -482h-127l-99 350l-98 -350h-127zM346 540l-98 178h111l75 -178h-88z" />
    <glyph glyph-name="Wacute" unicode="&#x1e82;" horiz-adv-x="1006" 
d="M203 0l-197 706h123l153 -581l142 581h158l142 -581l153 581h123l-197 -706h-161l-139 594l-139 -594h-161zM456 763l75 178h111l-98 -178h-88z" />
    <glyph glyph-name="wacute" unicode="&#x1e83;" horiz-adv-x="766" 
d="M158 0l-152 482h111l104 -350l98 350h128l99 -351l104 351h110l-151 -482h-127l-99 350l-98 -350h-127zM337 540l75 178h111l-98 -178h-88z" />
    <glyph glyph-name="Wdieresis" unicode="&#x1e84;" horiz-adv-x="1006" 
d="M203 0l-197 706h123l153 -581l142 581h158l142 -581l153 581h123l-197 -706h-161l-139 594l-139 -594h-161zM345 791v123h121v-123h-121zM540 791v123h121v-123h-121z" />
    <glyph glyph-name="wdieresis" unicode="&#x1e85;" horiz-adv-x="766" 
d="M158 0l-152 482h111l104 -350l98 350h128l99 -351l104 351h110l-151 -482h-127l-99 350l-98 -350h-127zM226 568v123h121v-123h-121zM421 568v123h121v-123h-121z" />
    <glyph glyph-name="uni1E8A" unicode="&#x1e8a;" horiz-adv-x="668" 
d="M-18 0l280 376l-242 330h145l174 -247l171 247h142l-245 -329l278 -377h-146l-207 292l-205 -292h-145zM281 791v123h118v-123h-118z" />
    <glyph glyph-name="uni1E8B" unicode="&#x1e8b;" horiz-adv-x="472" 
d="M0 0l171 251l-156 231h126l98 -152l99 152h125l-162 -232l166 -250h-126l-104 168l-110 -168h-127zM180 568v123h118v-123h-118z" />
    <glyph glyph-name="uni1E92" unicode="&#x1e92;" horiz-adv-x="627" 
d="M28 0v110l397 492h-381v104h535v-104l-409 -498h434v-104h-576zM257 -175v123h118v-123h-118z" />
    <glyph glyph-name="uni1E93" unicode="&#x1e93;" horiz-adv-x="464" 
d="M23 0v92l266 302h-245v88h386v-83l-272 -310h278v-89h-413zM170 -175v123h118v-123h-118z" />
    <glyph glyph-name="uni1E97" unicode="&#x1e97;" horiz-adv-x="338" 
d="M103 106v290h-93v86h93v159h112v-159h98v-86h-98v-251c0 -42 16 -60 51 -60c15 0 33 1 47 4v-89c-16 -4 -44 -7 -72 -7c-76 0 -138 30 -138 113zM1 792v123h121v-123h-121zM196 792v123h121v-123h-121z" />
    <glyph glyph-name="uni1E9E" unicode="&#x1e9e;" horiz-adv-x="707" 
d="M392 -17c-53 0 -100 6 -144 17v106c45 -15 97 -21 139 -21c109 0 165 54 165 123c0 61 -49 114 -148 114h-97v86l169 196h-91c-113 0 -191 -58 -191 -173v-431h-127v435c0 169 122 271 323 271h220v-101l-167 -192h22c131 0 214 -91 214 -205c0 -132 -102 -225 -287 -225
z" />
    <glyph glyph-name="uni1EA0" unicode="&#x1ea0;" horiz-adv-x="705" 
d="M-1 0l279 706h150l277 -706h-132l-75 201h-292l-75 -201h-132zM242 299h220l-110 297zM293 -175v123h118v-123h-118z" />
    <glyph glyph-name="uni1EA1" unicode="&#x1ea1;" horiz-adv-x="514" 
d="M466 0h-112c-1 5 -7 44 -7 63c-25 -47 -76 -75 -148 -75c-105 0 -168 69 -168 143c0 116 90 141 197 159c8 1 58 8 68 10c51 8 56 25 56 48c0 31 -27 63 -91 63c-60 0 -101 -29 -104 -95l-110 24c9 53 38 92 77 117s87 37 137 37c108 0 198 -43 198 -166v-203
c0 -81 6 -120 7 -125zM144 138c0 -36 36 -67 78 -67c41 0 125 19 125 114v50c-8 -3 -43 -9 -59 -12l-36 -7c-56 -10 -108 -22 -108 -78zM194 -175v123h118v-123h-118z" />
    <glyph glyph-name="uni1EB8" unicode="&#x1eb8;" horiz-adv-x="619" 
d="M73 0v706h495v-101h-369v-191h355v-101h-355v-212h377v-101h-503zM265 -175v123h118v-123h-118z" />
    <glyph glyph-name="uni1EB9" unicode="&#x1eb9;" horiz-adv-x="524" 
d="M379 165l104 -25c-15 -67 -94 -152 -209 -152c-168 0 -242 124 -242 252c0 132 81 254 231 254c137 0 229 -106 229 -252c0 -13 0 -25 -1 -32h-346c2 -75 43 -139 122 -139c69 0 102 47 112 94zM146 294h233c0 58 -38 117 -116 117c-74 0 -117 -52 -117 -117zM203 -175
v123h118v-123h-118z" />
    <glyph glyph-name="uni1EBC" unicode="&#x1ebc;" horiz-adv-x="619" 
d="M73 0v706h495v-101h-369v-191h355v-101h-355v-212h377v-101h-503zM164 791v95c20 20 59 37 90 37c27 0 48 -7 69 -14s49 -20 73 -20c35 0 65 21 86 48v-95c-21 -21 -61 -39 -91 -39s-52 9 -76 17c-22 7 -42 18 -66 18c-35 0 -65 -21 -85 -47z" />
    <glyph glyph-name="uni1EBD" unicode="&#x1ebd;" horiz-adv-x="524" 
d="M379 165l104 -25c-15 -67 -94 -152 -209 -152c-168 0 -242 124 -242 252c0 132 81 254 231 254c137 0 229 -106 229 -252c0 -13 0 -25 -1 -32h-346c2 -75 43 -139 122 -139c69 0 102 47 112 94zM146 294h233c0 58 -38 117 -116 117c-74 0 -117 -52 -117 -117zM101 568v95
c20 20 59 37 90 37c27 0 48 -7 69 -14s49 -20 73 -20c35 0 65 21 86 48v-95c-21 -21 -61 -39 -91 -39s-52 9 -76 17c-22 7 -42 18 -66 18c-35 0 -65 -21 -85 -47z" />
    <glyph glyph-name="uni1ECA" unicode="&#x1eca;" horiz-adv-x="272" 
d="M73 0v706h126v-706h-126zM77 -175v123h118v-123h-118z" />
    <glyph glyph-name="uni1ECB" unicode="&#x1ecb;" horiz-adv-x="228" 
d="M58 0v482h112v-482h-112zM58 586v120h112v-120h-112zM55 -175v123h118v-123h-118z" />
    <glyph glyph-name="uni1ECC" unicode="&#x1ecc;" horiz-adv-x="774" 
d="M389 84c154 0 222 133 222 267s-68 271 -222 271c-158 0 -226 -137 -226 -271s68 -267 226 -267zM389 -17c-246 0 -353 183 -353 368c0 184 107 372 353 372c242 0 349 -188 349 -372c0 -185 -107 -368 -349 -368zM330 -175v123h118v-123h-118z" />
    <glyph glyph-name="uni1ECD" unicode="&#x1ecd;" horiz-adv-x="545" 
d="M273 75c87 0 128 87 128 165s-41 168 -128 168s-129 -90 -129 -168s42 -165 129 -165zM273 -12c-156 0 -242 129 -242 252c0 124 86 254 242 254s241 -130 241 -254c0 -123 -85 -252 -241 -252zM214 -175v123h118v-123h-118z" />
    <glyph glyph-name="uni1EE4" unicode="&#x1ee4;" horiz-adv-x="722" 
d="M67 254v452h126v-452c0 -109 68 -170 169 -170c100 0 167 58 167 170v452h126v-452c0 -184 -128 -271 -293 -271c-179 0 -295 100 -295 271zM304 -175v123h118v-123h-118z" />
    <glyph glyph-name="uni1EE5" unicode="&#x1ee5;" horiz-adv-x="537" 
d="M54 196v286h112v-286c0 -42 4 -66 17 -86c10 -17 33 -35 73 -35c29 0 55 10 77 33c24 26 34 56 34 126v248h112v-482h-110v69c-9 -30 -56 -81 -146 -81c-59 0 -107 24 -137 67c-28 41 -32 83 -32 141zM197 -175v123h118v-123h-118z" />
    <glyph glyph-name="Ygrave" unicode="&#x1ef2;" horiz-adv-x="679" 
d="M278 0v324l-277 382h146l194 -287l196 287h141l-277 -382v-324h-123zM303 763l-98 178h111l75 -178h-88z" />
    <glyph glyph-name="ygrave" unicode="&#x1ef3;" horiz-adv-x="488" 
d="M34 -227v93c16 -3 30 -6 40 -6c40 0 70 9 83 45l34 93l-184 484h118l125 -351l121 351h113l-231 -621c-23 -63 -74 -93 -149 -93c-17 0 -55 3 -70 5zM208 540l-98 178h111l75 -178h-88z" />
    <glyph glyph-name="uni1EF8" unicode="&#x1ef8;" horiz-adv-x="679" 
d="M278 0v324l-277 382h146l194 -287l196 287h141l-277 -382v-324h-123zM182 791v95c20 20 59 37 90 37c27 0 48 -7 69 -14s49 -20 73 -20c35 0 65 21 86 48v-95c-21 -21 -61 -39 -91 -39s-52 9 -76 17c-22 7 -42 18 -66 18c-35 0 -65 -21 -85 -47z" />
    <glyph glyph-name="uni1EF9" unicode="&#x1ef9;" horiz-adv-x="488" 
d="M34 -227v93c16 -3 30 -6 40 -6c40 0 70 9 83 45l34 93l-184 484h118l125 -351l121 351h113l-231 -621c-23 -63 -74 -93 -149 -93c-17 0 -55 3 -70 5zM90 568v95c20 20 59 37 90 37c27 0 48 -7 69 -14s49 -20 73 -20c35 0 65 21 86 48v-95c-21 -21 -61 -39 -91 -39
s-52 9 -76 17c-22 7 -42 18 -66 18c-35 0 -65 -21 -85 -47z" />
    <glyph glyph-name="uni2000" unicode="&#x2000;" horiz-adv-x="392" 
 />
    <glyph glyph-name="uni2001" unicode="&#x2001;" horiz-adv-x="784" 
 />
    <glyph glyph-name="uni2002" unicode="&#x2002;" horiz-adv-x="392" 
 />
    <glyph glyph-name="uni2003" unicode="&#x2003;" horiz-adv-x="784" 
 />
    <glyph glyph-name="uni2004" unicode="&#x2004;" horiz-adv-x="261" 
 />
    <glyph glyph-name="uni2005" unicode="&#x2005;" horiz-adv-x="196" 
 />
    <glyph glyph-name="uni2006" unicode="&#x2006;" horiz-adv-x="131" 
 />
    <glyph glyph-name="uni2007" unicode="&#x2007;" 
 />
    <glyph glyph-name="uni2008" unicode="&#x2008;" horiz-adv-x="243" 
 />
    <glyph glyph-name="uni2009" unicode="&#x2009;" horiz-adv-x="98" 
 />
    <glyph glyph-name="uni200A" unicode="&#x200a;" horiz-adv-x="33" 
 />
    <glyph glyph-name="uni200B" unicode="&#x200b;" horiz-adv-x="0" 
 />
    <glyph glyph-name="figuredash" unicode="&#x2012;" 
d="M109 265v103h426v-103h-426z" />
    <glyph glyph-name="endash" unicode="&#x2013;" horiz-adv-x="536" 
d="M55 276v103h426v-103h-426z" />
    <glyph glyph-name="emdash" unicode="&#x2014;" horiz-adv-x="798" 
d="M55 276v103h688v-103h-688z" />
    <glyph glyph-name="uni2015" unicode="&#x2015;" horiz-adv-x="798" 
d="M55 276v103h688v-103h-688z" />
    <glyph glyph-name="quoteleft" unicode="&#x2018;" horiz-adv-x="247" 
d="M27 402l109 304h91l-81 -304h-119z" />
    <glyph glyph-name="quoteright" unicode="&#x2019;" horiz-adv-x="243" 
d="M32 402l81 304h119l-109 -304h-91z" />
    <glyph glyph-name="quotesinglbase" unicode="&#x201a;" horiz-adv-x="234" 
d="M-10 -171l81 304h119l-109 -304h-91z" />
    <glyph glyph-name="quotereversed" unicode="&#x201b;" horiz-adv-x="245" 
d="M130 708l81 -304h-92l-108 304h119z" />
    <glyph glyph-name="quotedblleft" unicode="&#x201c;" horiz-adv-x="416" 
d="M27 402l109 304h91l-81 -304h-119zM196 402l109 304h91l-81 -304h-119z" />
    <glyph glyph-name="quotedblright" unicode="&#x201d;" horiz-adv-x="412" 
d="M32 402l81 304h119l-109 -304h-91zM201 402l81 304h119l-109 -304h-91z" />
    <glyph glyph-name="quotedblbase" unicode="&#x201e;" horiz-adv-x="403" 
d="M-10 -171l81 304h119l-109 -304h-91zM159 -171l81 304h119l-109 -304h-91z" />
    <glyph glyph-name="uni201F" unicode="&#x201f;" horiz-adv-x="414" 
d="M300 706l81 -304h-91l-109 304h119zM131 706l81 -304h-92l-108 304h119z" />
    <glyph glyph-name="dagger" unicode="&#x2020;" horiz-adv-x="502" 
d="M196 -77v457h-175v102h175v224h111v-224h173v-102h-173v-457h-111z" />
    <glyph glyph-name="daggerdbl" unicode="&#x2021;" horiz-adv-x="502" 
d="M198 -76v194h-160v98h160v213h-159v98h159v179h107v-179h159v-98h-159v-213h158v-99h-158v-193h-107z" />
    <glyph glyph-name="bullet" unicode="&#x2022;" horiz-adv-x="404" 
d="M202 212c-80 0 -145 65 -145 145s65 145 145 145s145 -65 145 -145s-65 -145 -145 -145z" />
    <glyph glyph-name="ellipsis" unicode="&#x2026;" horiz-adv-x="767" 
d="M55 0v133h133v-133h-133zM317 0v133h133v-133h-133zM579 0v133h133v-133h-133z" />
    <glyph glyph-name="perthousand" unicode="&#x2030;" horiz-adv-x="1190" 
d="M208 387c52 0 79 69 79 132s-27 132 -79 132c-53 0 -79 -69 -79 -132s26 -132 79 -132zM208 323c-107 0 -161 102 -161 196c0 95 54 196 161 196s161 -101 161 -196c0 -94 -54 -196 -161 -196zM124 0l489 706h91l-489 -706h-91zM610 55c52 0 79 69 79 132
s-27 132 -79 132c-53 0 -79 -69 -79 -132s26 -132 79 -132zM610 -9c-107 0 -161 102 -161 196c0 95 54 196 161 196s161 -101 161 -196c0 -94 -54 -196 -161 -196zM982 55c52 0 79 69 79 132s-27 132 -79 132c-53 0 -79 -69 -79 -132s26 -132 79 -132zM982 -9
c-107 0 -161 102 -161 196c0 95 54 196 161 196s161 -101 161 -196c0 -94 -54 -196 -161 -196z" />
    <glyph glyph-name="uni2032" unicode="&#x2032;" horiz-adv-x="198" 
d="M58 402v304h82v-304h-82z" />
    <glyph glyph-name="uni2033" unicode="&#x2033;" horiz-adv-x="360" 
d="M58 402v304h83v-304h-83zM219 402v304h83v-304h-83z" />
    <glyph glyph-name="guilsinglleft" unicode="&#x2039;" horiz-adv-x="268" 
d="M39 279v92l171 119v-97l-107 -68l107 -68v-97z" />
    <glyph glyph-name="guilsinglright" unicode="&#x203a;" horiz-adv-x="268" 
d="M58 160v97l107 68l-107 68v97l171 -119v-92z" />
    <glyph glyph-name="fraction" unicode="&#x2044;" horiz-adv-x="130" 
d="M-224 0l489 706h91l-489 -706h-91z" />
    <glyph glyph-name="uni2070" unicode="&#x2070;" horiz-adv-x="360" 
d="M180 557c52 0 79 69 79 132s-27 132 -79 132c-53 0 -79 -69 -79 -132s26 -132 79 -132zM180 493c-107 0 -161 102 -161 196c0 95 54 196 161 196s161 -101 161 -196c0 -94 -54 -196 -161 -196z" />
    <glyph glyph-name="uni2074" unicode="&#x2074;" horiz-adv-x="360" 
d="M21 591v61l150 224h96v-221h71v-64h-71v-89h-77v89h-169zM108 655h82v135z" />
    <glyph glyph-name="uni2075" unicode="&#x2075;" horiz-adv-x="360" 
d="M42 599l75 18c5 -34 26 -60 65 -60c34 0 60 30 60 69c0 34 -19 73 -65 73c-31 0 -51 -24 -55 -47l-77 17l26 207h235v-64h-172l-10 -79c11 14 37 30 72 30c83 0 123 -72 123 -137c0 -73 -58 -133 -137 -133c-86 0 -127 48 -140 106z" />
    <glyph glyph-name="uni2076" unicode="&#x2076;" horiz-adv-x="360" 
d="M318 790l-79 -16c-10 36 -27 47 -50 47c-49 0 -67 -51 -72 -100c7 17 40 37 75 37c85 0 130 -66 130 -137c0 -81 -73 -128 -134 -128c-112 0 -151 98 -151 188c0 102 41 204 157 204c49 0 104 -28 124 -95zM184 557c30 0 61 24 61 69s-30 67 -62 67s-60 -23 -60 -67
c0 -45 30 -69 61 -69z" />
    <glyph glyph-name="uni2077" unicode="&#x2077;" horiz-adv-x="360" 
d="M157 502h-89c38 95 159 297 169 310h-197v64h284v-62c-25 -31 -130 -223 -167 -312z" />
    <glyph glyph-name="uni2078" unicode="&#x2078;" horiz-adv-x="360" 
d="M110 702c-41 15 -62 43 -62 83c0 39 40 100 132 100c91 0 131 -61 131 -100c0 -40 -20 -68 -61 -83c51 -17 74 -45 74 -94c0 -60 -55 -115 -144 -115s-145 55 -145 115c0 49 24 77 75 94zM112 612c0 -33 26 -55 68 -55c41 0 67 23 67 55c0 22 -9 55 -67 55
c-51 0 -68 -28 -68 -55zM125 777c0 -24 17 -44 55 -44c37 0 54 20 54 44c0 22 -17 44 -54 44c-38 0 -55 -22 -55 -44z" />
    <glyph glyph-name="uni2079" unicode="&#x2079;" horiz-adv-x="360" 
d="M38 593l81 18c7 -39 29 -54 52 -54c25 0 42 14 53 34c12 20 18 49 19 75c-6 -17 -38 -36 -74 -36c-84 0 -129 63 -129 131c0 77 68 124 133 124c112 0 150 -102 150 -187c0 -51 -10 -102 -35 -141c-24 -38 -63 -64 -122 -64c-49 0 -111 33 -128 100zM176 694
c30 0 59 26 59 63c0 39 -30 64 -59 64s-58 -25 -58 -64c0 -38 30 -63 58 -63z" />
    <glyph glyph-name="uni2080" unicode="&#x2080;" horiz-adv-x="360" 
d="M180 -195c52 0 79 69 79 132s-27 132 -79 132c-53 0 -79 -69 -79 -132s26 -132 79 -132zM180 -259c-107 0 -161 102 -161 196c0 95 54 196 161 196s161 -101 161 -196c0 -94 -54 -196 -161 -196z" />
    <glyph glyph-name="uni2081" unicode="&#x2081;" horiz-adv-x="360" 
d="M159 -250v259h-72v65h33c33 0 45 11 45 50h76v-374h-82z" />
    <glyph glyph-name="uni2082" unicode="&#x2082;" horiz-adv-x="360" 
d="M36 -250v69c24 11 95 52 144 99c31 31 54 63 54 100c0 31 -22 51 -49 51c-34 0 -59 -18 -59 -83l-83 19c0 95 77 128 142 128c73 0 131 -44 131 -115c0 -65 -44 -110 -78 -145c-17 -17 -68 -49 -90 -58h175v-65h-287z" />
    <glyph glyph-name="uni2083" unicode="&#x2083;" horiz-adv-x="360" 
d="M34 -131l82 18c0 -48 22 -82 62 -82c44 0 62 28 62 55c0 24 -13 56 -72 56h-42v59h39c43 0 66 23 66 47c0 27 -20 47 -52 47c-43 0 -57 -30 -58 -69l-82 18c2 54 49 115 140 115c71 0 134 -36 134 -113c0 -15 -13 -66 -69 -74c66 -9 78 -60 78 -94
c0 -57 -53 -111 -144 -111c-66 0 -136 33 -144 128z" />
    <glyph glyph-name="uni2084" unicode="&#x2084;" horiz-adv-x="360" 
d="M21 -161v61l150 224h96v-221h71v-64h-71v-89h-77v89h-169zM108 -97h82v135z" />
    <glyph glyph-name="uni2085" unicode="&#x2085;" horiz-adv-x="360" 
d="M42 -153l75 18c5 -34 26 -60 65 -60c34 0 60 30 60 69c0 34 -19 73 -65 73c-31 0 -51 -24 -55 -47l-77 17l26 207h235v-64h-172l-10 -79c11 14 37 30 72 30c83 0 123 -72 123 -137c0 -73 -58 -133 -137 -133c-86 0 -127 48 -140 106z" />
    <glyph glyph-name="uni2086" unicode="&#x2086;" horiz-adv-x="360" 
d="M318 38l-79 -16c-10 36 -27 47 -50 47c-49 0 -67 -51 -72 -100c7 17 40 37 75 37c85 0 130 -66 130 -137c0 -81 -73 -128 -134 -128c-112 0 -151 98 -151 188c0 102 41 204 157 204c49 0 104 -28 124 -95zM184 -195c30 0 61 24 61 69s-30 67 -62 67s-60 -23 -60 -67
c0 -45 30 -69 61 -69z" />
    <glyph glyph-name="uni2087" unicode="&#x2087;" horiz-adv-x="360" 
d="M157 -250h-89c38 95 159 297 169 310h-197v64h284v-62c-25 -31 -130 -223 -167 -312z" />
    <glyph glyph-name="uni2088" unicode="&#x2088;" horiz-adv-x="360" 
d="M110 -50c-41 15 -62 43 -62 83c0 39 40 100 132 100c91 0 131 -61 131 -100c0 -40 -20 -68 -61 -83c51 -17 74 -45 74 -94c0 -60 -55 -115 -144 -115s-145 55 -145 115c0 49 24 77 75 94zM112 -140c0 -33 26 -55 68 -55c41 0 67 23 67 55c0 22 -9 55 -67 55
c-51 0 -68 -28 -68 -55zM125 25c0 -24 17 -44 55 -44c37 0 54 20 54 44c0 22 -17 44 -54 44c-38 0 -55 -22 -55 -44z" />
    <glyph glyph-name="uni2089" unicode="&#x2089;" horiz-adv-x="360" 
d="M38 -159l81 18c7 -39 29 -54 52 -54c25 0 42 14 53 34c12 20 18 49 19 75c-6 -17 -38 -36 -74 -36c-84 0 -129 63 -129 131c0 77 68 124 133 124c112 0 150 -102 150 -187c0 -51 -10 -102 -35 -141c-24 -38 -63 -64 -122 -64c-49 0 -111 33 -128 100zM176 -58
c30 0 59 26 59 63c0 39 -30 64 -59 64s-58 -25 -58 -64c0 -38 30 -63 58 -63z" />
    <glyph glyph-name="colonmonetary" unicode="&#x20a1;" 
d="M124 -97l35 129c-96 63 -146 179 -146 319c0 215 126 372 330 372h1l22 80h62l-23 -86c17 -3 34 -7 50 -13l27 99h62l-34 -126c60 -38 105 -100 125 -186l-109 -28c-7 29 -21 67 -47 98l-128 -477c95 5 158 79 177 183l114 -25c-33 -161 -146 -259 -304 -259
c-5 0 -9 1 -14 1l-21 -81h-62l23 87c-18 4 -34 9 -50 14l-27 -101h-63zM141 353c0 -78 17 -146 52 -194l124 461c-116 -17 -176 -130 -176 -267zM242 111c15 -9 31 -16 49 -21l137 513c-14 7 -31 13 -50 16z" />
    <glyph glyph-name="uni20A6" unicode="&#x20a6;" 
d="M7 378v59h65v269h168l107 -269h112v269h113v-269h65v-59h-65v-50h65v-59h-65v-269h-172l-106 269h-109v-269h-113v269h-65v59h65v50h-65zM371 378l20 -50h68v50h-88zM185 378v-50h85l-19 50h-66zM414 269l45 -111v111h-45zM185 546v-109h43z" />
    <glyph glyph-name="Euro" unicode="&#x20ac;" 
d="M-7 391l24 61h53c33 161 147 272 304 272c128 0 223 -61 267 -189l-106 -38c-29 87 -83 129 -161 129c-90 0 -152 -70 -175 -174h277l-24 -61h-262c-1 -12 -1 -25 -1 -37v-22h243l-24 -61h-213c19 -120 82 -190 177 -190c84 0 143 59 166 152l110 -31
c-37 -132 -143 -219 -276 -219c-165 0 -280 107 -306 288h-73l24 61h44v22c0 12 0 25 1 37h-69z" />
    <glyph glyph-name="uni20B2" unicode="&#x20b2;" 
d="M298 -96v80c-187 12 -295 163 -295 368c0 201 111 352 295 369v81h59v-80c110 -8 216 -67 259 -201l-110 -27c-20 55 -61 118 -149 127v-535c73 9 157 62 164 210h-123v101h234v-397h-110v86c-37 -58 -91 -93 -165 -101v-81h-59zM131 353c0 -140 57 -249 167 -267v532
c-110 -20 -167 -131 -167 -265z" />
    <glyph glyph-name="uni20B5" unicode="&#x20b5;" 
d="M310 -96v80c-193 14 -297 165 -297 367c0 203 112 354 297 370v81h59v-80c125 -9 232 -84 266 -231l-109 -28c-14 58 -54 147 -157 158v-535c85 12 142 83 159 181l114 -25c-31 -151 -131 -246 -273 -258v-80h-59zM141 353c0 -141 58 -250 169 -267v532
c-111 -20 -169 -131 -169 -265z" />
    <glyph glyph-name="uni20BA" unicode="&#x20ba;" 
d="M55 410v58l119 43v195h126v-149l197 73v-58l-197 -73v-62l197 72v-59l-197 -72v-287c118 23 170 135 170 253l123 -13c-8 -178 -115 -348 -348 -348c-26 0 -50 2 -71 6v343l-119 -43v59l119 43v62z" />
    <glyph glyph-name="uni20BF" unicode="&#x20bf;" 
d="M50 0v706h145v96h59v-96h67v96h59v-96c142 -1 225 -79 225 -190c0 -85 -71 -141 -125 -148c97 -10 153 -77 153 -163c0 -140 -108 -198 -253 -205v-96h-59v96h-67v-96h-59v96h-145zM176 101h187c82 0 143 28 143 105c0 75 -54 107 -145 107h-185v-212zM176 414h171
c69 0 130 28 130 97c0 63 -49 94 -113 94h-188v-191z" />
    <glyph glyph-name="uni2113" unicode="&#x2113;" horiz-adv-x="511" 
d="M450 160l44 -42c-51 -91 -127 -130 -209 -130c-113 0 -170 76 -177 168l-56 -40l-29 53l83 62v239c0 174 82 236 171 236c97 0 140 -75 140 -159c0 -117 -84 -222 -216 -336v-13c0 -95 53 -132 107 -132c62 0 114 49 142 94zM201 485v-187c83 83 146 167 146 247
c0 54 -18 93 -67 93c-35 0 -79 -36 -79 -153z" />
    <glyph glyph-name="uni2117" unicode="&#x2117;" horiz-adv-x="812" 
d="M68 353c0 -186 152 -338 338 -338s338 152 338 338s-152 338 -338 338s-338 -152 -338 -338zM36 353c0 204 166 370 370 370s370 -166 370 -370s-166 -370 -370 -370s-370 166 -370 370zM236 122v461h231c79 0 159 -36 159 -143s-80 -144 -159 -144h-135v-174h-96z
M332 373h121c45 0 76 19 76 67c0 40 -27 66 -76 66h-121v-133z" />
    <glyph glyph-name="trademark" unicode="&#x2122;" horiz-adv-x="755" 
d="M327 374v332h94l86 -264l86 264h94v-332h-60v261l-85 -261h-69l-86 261v-261h-60zM131 374v279h-105v53h274v-53h-104v-279h-65z" />
    <glyph glyph-name="Omega" unicode="&#x2126;" horiz-adv-x="708" 
d="M41 0v99h121c-60 67 -109 156 -109 278c0 211 134 345 301 345s301 -134 301 -345c0 -122 -49 -211 -109 -278h121v-99h-267v77c73 48 142 142 142 293s-70 254 -188 254c-119 0 -188 -103 -188 -254s69 -245 142 -293v-77h-267z" />
    <glyph glyph-name="estimated" unicode="&#x212e;" horiz-adv-x="890" 
d="M863 343h-666c-3 0 -5 -1 -5 -5v-201c0 -9 3 -17 8 -23c65 -67 154 -110 252 -110c106 0 200 49 265 123h59c-73 -86 -193 -143 -325 -143c-227 0 -410 165 -410 369s183 370 410 370c228 0 412 -166 412 -370v-10zM712 369v202c0 9 -4 18 -10 25
c-65 63 -152 105 -250 105c-97 0 -186 -43 -251 -109c-6 -6 -9 -15 -9 -25v-198c0 -2 2 -7 5 -7h510c3 0 5 5 5 7z" />
    <glyph glyph-name="uni2150" unicode="&#x2150;" horiz-adv-x="765" 
d="M102 332v259h-72v65h33c33 0 45 11 45 50h76v-374h-82zM71 0l489 706h91l-489 -706h-91zM572 0h-89c38 95 159 297 169 310h-197v64h284v-62c-25 -31 -130 -223 -167 -312z" />
    <glyph glyph-name="uni2151" unicode="&#x2151;" horiz-adv-x="766" 
d="M99 332v259h-72v65h33c33 0 45 11 45 50h76v-374h-82zM68 0l489 706h91l-489 -706h-91zM451 91l81 18c7 -39 29 -54 52 -54c25 0 42 14 53 34c12 20 18 49 19 75c-6 -17 -38 -36 -74 -36c-84 0 -129 63 -129 131c0 77 68 124 133 124c112 0 150 -102 150 -187
c0 -51 -10 -102 -35 -141c-24 -38 -63 -64 -122 -64c-49 0 -111 33 -128 100zM589 192c30 0 59 26 59 63c0 39 -30 64 -59 64s-58 -25 -58 -64c0 -38 30 -63 58 -63z" />
    <glyph glyph-name="uni2152" unicode="&#x2152;" horiz-adv-x="1076" 
d="M101 332v259h-72v65h33c33 0 45 11 45 50h76v-374h-82zM70 0l489 706h91l-489 -706h-91zM573 0v259h-72v65h33c33 0 45 11 45 50h76v-374h-82zM888 55c52 0 79 69 79 132s-27 132 -79 132c-53 0 -79 -69 -79 -132s26 -132 79 -132zM888 -9c-107 0 -161 102 -161 196
c0 95 54 196 161 196s161 -101 161 -196c0 -94 -54 -196 -161 -196z" />
    <glyph glyph-name="onethird" unicode="&#x2153;" horiz-adv-x="769" 
d="M99 332v259h-72v65h33c33 0 45 11 45 50h76v-374h-82zM68 0l489 706h91l-489 -706h-91zM450 119l82 18c0 -48 22 -82 62 -82c44 0 62 28 62 55c0 24 -13 56 -72 56h-42v59h39c43 0 66 23 66 47c0 27 -20 47 -52 47c-43 0 -57 -30 -58 -69l-82 18c2 54 49 115 140 115
c71 0 134 -36 134 -113c0 -15 -13 -66 -69 -74c66 -9 78 -60 78 -94c0 -57 -53 -111 -144 -111c-66 0 -136 33 -144 128z" />
    <glyph glyph-name="twothirds" unicode="&#x2154;" horiz-adv-x="825" 
d="M33 332v69c24 11 95 52 144 99c31 31 54 63 54 100c0 31 -22 51 -49 51c-34 0 -59 -18 -59 -83l-83 19c0 95 77 128 142 128c73 0 131 -44 131 -115c0 -65 -44 -110 -78 -145c-17 -17 -68 -49 -90 -58h175v-65h-287zM126 0l489 706h91l-489 -706h-91zM508 119l82 18
c0 -48 22 -82 62 -82c44 0 62 28 62 55c0 24 -13 56 -72 56h-42v59h39c43 0 66 23 66 47c0 27 -20 47 -52 47c-43 0 -57 -30 -58 -69l-82 18c2 54 49 115 140 115c71 0 134 -36 134 -113c0 -15 -13 -66 -69 -74c66 -9 78 -60 78 -94c0 -57 -53 -111 -144 -111
c-66 0 -136 33 -144 128z" />
    <glyph glyph-name="uni2155" unicode="&#x2155;" horiz-adv-x="766" 
d="M99 332v259h-72v65h33c33 0 45 11 45 50h76v-374h-82zM68 0l489 706h91l-489 -706h-91zM455 97l75 18c5 -34 26 -60 65 -60c34 0 60 30 60 69c0 34 -19 73 -65 73c-31 0 -51 -24 -55 -47l-77 17l26 207h235v-64h-172l-10 -79c11 14 37 30 72 30c83 0 123 -72 123 -137
c0 -73 -58 -133 -137 -133c-86 0 -127 48 -140 106z" />
    <glyph glyph-name="uni2156" unicode="&#x2156;" horiz-adv-x="818" 
d="M31 332v69c24 11 95 52 144 99c31 31 54 63 54 100c0 31 -22 51 -49 51c-34 0 -59 -18 -59 -83l-83 19c0 95 77 128 142 128c73 0 131 -44 131 -115c0 -65 -44 -110 -78 -145c-17 -17 -68 -49 -90 -58h175v-65h-287zM124 0l489 706h91l-489 -706h-91zM511 97l75 18
c5 -34 26 -60 65 -60c34 0 60 30 60 69c0 34 -19 73 -65 73c-31 0 -51 -24 -55 -47l-77 17l26 207h235v-64h-172l-10 -79c11 14 37 30 72 30c83 0 123 -72 123 -137c0 -73 -58 -133 -137 -133c-86 0 -127 48 -140 106z" />
    <glyph glyph-name="uni2157" unicode="&#x2157;" horiz-adv-x="814" 
d="M28 451l82 18c0 -48 22 -82 62 -82c44 0 62 28 62 55c0 24 -13 56 -72 56h-42v59h39c43 0 66 23 66 47c0 27 -20 47 -52 47c-43 0 -57 -30 -58 -69l-82 18c2 54 49 115 140 115c71 0 134 -36 134 -113c0 -15 -13 -66 -69 -74c66 -9 78 -60 78 -94
c0 -57 -53 -111 -144 -111c-66 0 -136 33 -144 128zM118 0l489 706h91l-489 -706h-91zM505 97l75 18c5 -34 26 -60 65 -60c34 0 60 30 60 69c0 34 -19 73 -65 73c-31 0 -51 -24 -55 -47l-77 17l26 207h235v-64h-172l-10 -79c11 14 37 30 72 30c83 0 123 -72 123 -137
c0 -73 -58 -133 -137 -133c-86 0 -127 48 -140 106z" />
    <glyph glyph-name="uni2158" unicode="&#x2158;" horiz-adv-x="832" 
d="M26 421v61l150 224h96v-221h71v-64h-71v-89h-77v89h-169zM113 485h82v135zM131 0l489 706h91l-489 -706h-91zM518 97l75 18c5 -34 26 -60 65 -60c34 0 60 30 60 69c0 34 -19 73 -65 73c-31 0 -51 -24 -55 -47l-77 17l26 207h235v-64h-172l-10 -79c11 14 37 30 72 30
c83 0 123 -72 123 -137c0 -73 -58 -133 -137 -133c-86 0 -127 48 -140 106z" />
    <glyph glyph-name="uni2159" unicode="&#x2159;" horiz-adv-x="768" 
d="M99 332v259h-72v65h33c33 0 45 11 45 50h76v-374h-82zM68 0l489 706h91l-489 -706h-91zM732 288l-79 -16c-10 36 -27 47 -50 47c-49 0 -67 -51 -72 -100c7 17 40 37 75 37c85 0 130 -66 130 -137c0 -81 -73 -128 -134 -128c-112 0 -151 98 -151 188c0 102 41 204 157 204
c49 0 104 -28 124 -95zM598 55c30 0 61 24 61 69s-30 67 -62 67s-60 -23 -60 -67c0 -45 30 -69 61 -69z" />
    <glyph glyph-name="uni215A" unicode="&#x215a;" horiz-adv-x="811" 
d="M29 429l75 18c5 -34 26 -60 65 -60c34 0 60 30 60 69c0 34 -19 73 -65 73c-31 0 -51 -24 -55 -47l-77 17l26 207h235v-64h-172l-10 -79c11 14 37 30 72 30c83 0 123 -72 123 -137c0 -73 -58 -133 -137 -133c-86 0 -127 48 -140 106zM114 0l489 706h91l-489 -706h-91z
M778 288l-79 -16c-10 36 -27 47 -50 47c-49 0 -67 -51 -72 -100c7 17 40 37 75 37c85 0 130 -66 130 -137c0 -81 -73 -128 -134 -128c-112 0 -151 98 -151 188c0 102 41 204 157 204c49 0 104 -28 124 -95zM644 55c30 0 61 24 61 69s-30 67 -62 67s-60 -23 -60 -67
c0 -45 30 -69 61 -69z" />
    <glyph glyph-name="oneeighth" unicode="&#x215b;" horiz-adv-x="768" 
d="M99 332v259h-72v65h33c33 0 45 11 45 50h76v-374h-82zM68 0l489 706h91l-489 -706h-91zM524 200c-41 15 -62 43 -62 83c0 39 40 100 132 100c91 0 131 -61 131 -100c0 -40 -20 -68 -61 -83c51 -17 74 -45 74 -94c0 -60 -55 -115 -144 -115s-145 55 -145 115
c0 49 24 77 75 94zM526 110c0 -33 26 -55 68 -55c41 0 67 23 67 55c0 22 -9 55 -67 55c-51 0 -68 -28 -68 -55zM539 275c0 -24 17 -44 55 -44c37 0 54 20 54 44c0 22 -17 44 -54 44c-38 0 -55 -22 -55 -44z" />
    <glyph glyph-name="threeeighths" unicode="&#x215c;" horiz-adv-x="817" 
d="M28 451l82 18c0 -48 22 -82 62 -82c44 0 62 28 62 55c0 24 -13 56 -72 56h-42v59h39c43 0 66 23 66 47c0 27 -20 47 -52 47c-43 0 -57 -30 -58 -69l-82 18c2 54 49 115 140 115c71 0 134 -36 134 -113c0 -15 -13 -66 -69 -74c66 -9 78 -60 78 -94
c0 -57 -53 -111 -144 -111c-66 0 -136 33 -144 128zM118 0l489 706h91l-489 -706h-91zM574 200c-41 15 -62 43 -62 83c0 39 40 100 132 100c91 0 131 -61 131 -100c0 -40 -20 -68 -61 -83c51 -17 74 -45 74 -94c0 -60 -55 -115 -144 -115s-145 55 -145 115c0 49 24 77 75 94
zM576 110c0 -33 26 -55 68 -55c41 0 67 23 67 55c0 22 -9 55 -67 55c-51 0 -68 -28 -68 -55zM589 275c0 -24 17 -44 55 -44c37 0 54 20 54 44c0 22 -17 44 -54 44c-38 0 -55 -22 -55 -44z" />
    <glyph glyph-name="fiveeighths" unicode="&#x215d;" horiz-adv-x="813" 
d="M30 429l75 18c5 -34 26 -60 65 -60c34 0 60 30 60 69c0 34 -19 73 -65 73c-31 0 -51 -24 -55 -47l-77 17l26 207h235v-64h-172l-10 -79c11 14 37 30 72 30c83 0 123 -72 123 -137c0 -73 -58 -133 -137 -133c-86 0 -127 48 -140 106zM115 0l489 706h91l-489 -706h-91z
M571 200c-41 15 -62 43 -62 83c0 39 40 100 132 100c91 0 131 -61 131 -100c0 -40 -20 -68 -61 -83c51 -17 74 -45 74 -94c0 -60 -55 -115 -144 -115s-145 55 -145 115c0 49 24 77 75 94zM573 110c0 -33 26 -55 68 -55c41 0 67 23 67 55c0 22 -9 55 -67 55
c-51 0 -68 -28 -68 -55zM586 275c0 -24 17 -44 55 -44c37 0 54 20 54 44c0 22 -17 44 -54 44c-38 0 -55 -22 -55 -44z" />
    <glyph glyph-name="seveneighths" unicode="&#x215e;" horiz-adv-x="816" 
d="M144 332h-89c38 95 159 297 169 310h-197v64h284v-62c-25 -31 -130 -223 -167 -312zM115 0l489 706h91l-489 -706h-91zM571 200c-41 15 -62 43 -62 83c0 39 40 100 132 100c91 0 131 -61 131 -100c0 -40 -20 -68 -61 -83c51 -17 74 -45 74 -94c0 -60 -55 -115 -144 -115
s-145 55 -145 115c0 49 24 77 75 94zM573 110c0 -33 26 -55 68 -55c41 0 67 23 67 55c0 22 -9 55 -67 55c-51 0 -68 -28 -68 -55zM586 275c0 -24 17 -44 55 -44c37 0 54 20 54 44c0 22 -17 44 -54 44c-38 0 -55 -22 -55 -44z" />
    <glyph glyph-name="uni215F" unicode="&#x215f;" horiz-adv-x="551" 
d="M202 332v259h-72v65h33c33 0 45 11 45 50h76v-374h-82zM171 0l489 706h91l-489 -706h-91z" />
    <glyph glyph-name="uni2160" unicode="&#x2160;" horiz-adv-x="272" 
d="M73 0v706h126v-706h-126z" />
    <glyph glyph-name="uni2161" unicode="&#x2161;" horiz-adv-x="537" 
d="M73 0v706h126v-706h-126zM338 0v706h126v-706h-126z" />
    <glyph glyph-name="uni2162" unicode="&#x2162;" horiz-adv-x="802" 
d="M73 0v706h126v-706h-126zM338 0v706h126v-706h-126zM603 0v706h126v-706h-126z" />
    <glyph glyph-name="uni2163" unicode="&#x2163;" horiz-adv-x="952" 
d="M73 0v706h126v-706h-126zM542 0l-272 706h126l216 -572l219 572h125l-276 -706h-138z" />
    <glyph glyph-name="uni2164" unicode="&#x2164;" horiz-adv-x="684" 
d="M272 0l-272 706h126l216 -572l219 572h125l-276 -706h-138z" />
    <glyph glyph-name="uni2165" unicode="&#x2165;" horiz-adv-x="954" 
d="M270 0l-272 706h126l216 -572l219 572h125l-276 -706h-138zM755 0v706h126v-706h-126z" />
    <glyph glyph-name="uni2166" unicode="&#x2166;" horiz-adv-x="1218" 
d="M269 0l-272 706h126l216 -572l219 572h125l-276 -706h-138zM754 0v706h126v-706h-126zM1019 0v706h126v-706h-126z" />
    <glyph glyph-name="uni2167" unicode="&#x2167;" horiz-adv-x="1481" 
d="M267 0l-272 706h126l216 -572l219 572h125l-276 -706h-138zM752 0v706h126v-706h-126zM1017 0v706h126v-706h-126zM1282 0v706h126v-706h-126z" />
    <glyph glyph-name="uni2168" unicode="&#x2168;" horiz-adv-x="950" 
d="M73 0v706h126v-706h-126zM264 0l280 376l-242 330h145l174 -247l171 247h142l-245 -329l278 -377h-146l-207 292l-205 -292h-145z" />
    <glyph glyph-name="uni2169" unicode="&#x2169;" horiz-adv-x="668" 
d="M-18 0l280 376l-242 330h145l174 -247l171 247h142l-245 -329l278 -377h-146l-207 292l-205 -292h-145z" />
    <glyph glyph-name="uni216A" unicode="&#x216a;" horiz-adv-x="948" 
d="M-18 0l280 376l-242 330h145l174 -247l171 247h142l-245 -329l278 -377h-146l-207 292l-205 -292h-145zM749 0v706h126v-706h-126z" />
    <glyph glyph-name="uni216B" unicode="&#x216b;" horiz-adv-x="1213" 
d="M-18 0l280 376l-242 330h145l174 -247l171 247h142l-245 -329l278 -377h-146l-207 292l-205 -292h-145zM749 0v706h126v-706h-126zM1014 0v706h126v-706h-126z" />
    <glyph glyph-name="uni216C" unicode="&#x216c;" horiz-adv-x="566" 
d="M73 0v706h126v-605h356v-101h-482z" />
    <glyph glyph-name="uni216D" unicode="&#x216d;" horiz-adv-x="730" 
d="M588 267l124 -25c-40 -161 -170 -259 -328 -259c-206 0 -348 157 -348 370c0 207 140 370 351 370c145 0 265 -79 317 -232l-122 -28c-36 102 -105 159 -195 159c-136 0 -224 -121 -224 -269c0 -153 87 -269 221 -269c101 0 178 72 204 183z" />
    <glyph glyph-name="uni216E" unicode="&#x216e;" horiz-adv-x="735" 
d="M199 101h117c179 0 255 108 255 252s-76 252 -255 252h-117v-504zM73 0v706h256c195 0 369 -108 369 -353s-174 -353 -369 -353h-256z" />
    <glyph glyph-name="uni216F" unicode="&#x216f;" horiz-adv-x="912" 
d="M73 0v706h187l197 -580l196 580h186v-706h-116v578l-194 -578h-144l-195 577v-577h-117z" />
    <glyph glyph-name="uni2170" unicode="&#x2170;" horiz-adv-x="228" 
d="M58 0v482h112v-482h-112zM58 586v120h112v-120h-112z" />
    <glyph glyph-name="uni2171" unicode="&#x2171;" horiz-adv-x="458" 
d="M58 0v482h112v-482h-112zM58 586v120h112v-120h-112zM288 0v482h112v-482h-112zM288 586v120h112v-120h-112z" />
    <glyph glyph-name="uni2172" unicode="&#x2172;" horiz-adv-x="688" 
d="M58 0v482h112v-482h-112zM58 586v120h112v-120h-112zM288 0v482h112v-482h-112zM288 586v120h112v-120h-112zM518 0v482h112v-482h-112zM518 586v120h112v-120h-112z" />
    <glyph glyph-name="uni2173" unicode="&#x2173;" horiz-adv-x="723" 
d="M58 0v482h112v-482h-112zM58 586v120h112v-120h-112zM410 0l-177 482h115l129 -359l132 359h111l-179 -482h-131z" />
    <glyph glyph-name="uni2174" unicode="&#x2174;" horiz-adv-x="500" 
d="M184 0l-177 482h115l129 -359l132 359h111l-179 -482h-131z" />
    <glyph glyph-name="uni2175" unicode="&#x2175;" horiz-adv-x="726" 
d="M181 0l-177 482h115l129 -359l132 359h111l-179 -482h-131zM556 0v482h112v-482h-112zM556 586v120h112v-120h-112z" />
    <glyph glyph-name="uni2176" unicode="&#x2176;" horiz-adv-x="955" 
d="M180 0l-177 482h115l129 -359l132 359h111l-179 -482h-131zM555 0v482h112v-482h-112zM555 586v120h112v-120h-112zM785 0v482h112v-482h-112zM785 586v120h112v-120h-112z" />
    <glyph glyph-name="uni2177" unicode="&#x2177;" horiz-adv-x="1183" 
d="M178 0l-177 482h115l129 -359l132 359h111l-179 -482h-131zM553 0v482h112v-482h-112zM553 586v120h112v-120h-112zM783 0v482h112v-482h-112zM783 586v120h112v-120h-112zM1013 0v482h112v-482h-112zM1013 586v120h112v-120h-112z" />
    <glyph glyph-name="uni2178" unicode="&#x2178;" horiz-adv-x="700" 
d="M58 0v482h112v-482h-112zM58 586v120h112v-120h-112zM228 0l171 251l-156 231h126l98 -152l99 152h125l-162 -232l166 -250h-126l-104 168l-110 -168h-127z" />
    <glyph glyph-name="uni2179" unicode="&#x2179;" horiz-adv-x="472" 
d="M0 0l171 251l-156 231h126l98 -152l99 152h125l-162 -232l166 -250h-126l-104 168l-110 -168h-127z" />
    <glyph glyph-name="uni217A" unicode="&#x217a;" horiz-adv-x="700" 
d="M0 0l171 251l-156 231h126l98 -152l99 152h125l-162 -232l166 -250h-126l-104 168l-110 -168h-127zM530 0v482h112v-482h-112zM530 586v120h112v-120h-112z" />
    <glyph glyph-name="uni217B" unicode="&#x217b;" horiz-adv-x="930" 
d="M0 0l171 251l-156 231h126l98 -152l99 152h125l-162 -232l166 -250h-126l-104 168l-110 -168h-127zM530 0v482h112v-482h-112zM530 586v120h112v-120h-112zM760 0v482h112v-482h-112zM760 586v120h112v-120h-112z" />
    <glyph glyph-name="uni217C" unicode="&#x217c;" horiz-adv-x="228" 
d="M58 0v706h112v-706h-112z" />
    <glyph glyph-name="uni217D" unicode="&#x217d;" horiz-adv-x="521" 
d="M385 190l113 -22c-10 -69 -80 -180 -227 -180c-160 0 -239 126 -239 253s84 253 239 253c143 0 210 -100 225 -171l-113 -22c-6 37 -31 107 -112 107c-88 0 -126 -87 -126 -167s35 -166 126 -166c81 0 108 70 114 115z" />
    <glyph glyph-name="uni217E" unicode="&#x217e;" horiz-adv-x="573" 
d="M409 0v64c-23 -43 -91 -76 -148 -76c-185 0 -229 169 -229 252c0 88 47 254 231 254c61 0 114 -32 140 -70v282h112v-706h-106zM279 75c47 0 125 33 125 165c0 133 -78 168 -122 168c-104 0 -137 -102 -137 -167c0 -58 30 -166 134 -166z" />
    <glyph glyph-name="uni217F" unicode="&#x217f;" horiz-adv-x="800" 
d="M58 0v482h109v-69c9 30 50 81 134 81c38 0 77 -8 112 -47c10 -11 18 -24 26 -38c18 46 66 85 138 85c56 0 102 -20 133 -61c28 -38 36 -80 36 -147v-286h-112v297c0 41 -8 111 -79 111c-32 0 -59 -18 -75 -44c-17 -26 -22 -54 -22 -96v-268h-112v297c0 41 -7 111 -78 111
c-33 0 -60 -18 -77 -44c-18 -27 -21 -57 -21 -109v-255h-112z" />
    <glyph glyph-name="uni2189" unicode="&#x2189;" horiz-adv-x="837" 
d="M189 387c52 0 79 69 79 132s-27 132 -79 132c-53 0 -79 -69 -79 -132s26 -132 79 -132zM189 323c-107 0 -161 102 -161 196c0 95 54 196 161 196s161 -101 161 -196c0 -94 -54 -196 -161 -196zM135 0l489 706h91l-489 -706h-91zM517 119l82 18c0 -48 22 -82 62 -82
c44 0 62 28 62 55c0 24 -13 56 -72 56h-42v59h39c43 0 66 23 66 47c0 27 -20 47 -52 47c-43 0 -57 -30 -58 -69l-82 18c2 54 49 115 140 115c71 0 134 -36 134 -113c0 -15 -13 -66 -69 -74c66 -9 78 -60 78 -94c0 -57 -53 -111 -144 -111c-66 0 -136 33 -144 128z" />
    <glyph glyph-name="arrowleft" unicode="&#x2190;" 
d="M364 89l-63 -63l-284 284l284 284l63 -62l-184 -177h439v-90h-438z" />
    <glyph glyph-name="arrowup" unicode="&#x2191;" 
d="M101 264l-63 63l284 284l284 -284l-63 -63l-177 184v-439h-89v439z" />
    <glyph glyph-name="arrowright" unicode="&#x2192;" 
d="M343 26l-63 63l183 176h-438v90h439l-184 177l63 62l284 -284z" />
    <glyph glyph-name="arrowdown" unicode="&#x2193;" 
d="M543 357l63 -64l-284 -284l-284 284l63 64l177 -185v439h89v-438z" />
    <glyph glyph-name="uni2196" unicode="&#x2196;" 
d="M194 156h-90v401h401v-90l-252 4l308 -314l-64 -62l-307 313z" />
    <glyph glyph-name="uni2197" unicode="&#x2197;" 
d="M540 156h-89l3 252l-307 -313l-64 62l308 314l-252 -4v90h401v-401z" />
    <glyph glyph-name="uni2198" unicode="&#x2198;" 
d="M450 496h89v-401h-401v89l252 -3l-308 314l64 62l307 -313z" />
    <glyph glyph-name="uni2199" unicode="&#x2199;" 
d="M105 496h90l-4 -252l307 313l64 -62l-308 -314l252 3v-89h-401v401z" />
    <glyph glyph-name="partialdiff" unicode="&#x2202;" horiz-adv-x="530" 
d="M97 574l-35 90c34 26 90 59 175 59c159 0 258 -155 258 -341c0 -222 -96 -394 -264 -394c-136 0 -198 126 -198 239c0 161 95 267 213 267c71 0 112 -33 138 -70c-9 120 -69 213 -158 213c-58 0 -103 -38 -129 -63zM377 309c-11 36 -54 99 -116 99
c-68 0 -118 -88 -118 -183c0 -83 37 -150 96 -150c75 0 127 118 138 234z" />
    <glyph glyph-name="Delta" unicode="&#x2206;" horiz-adv-x="633" 
d="M24 0v63l237 643h116l232 -643v-63h-585zM152 106h331l-164 454z" />
    <glyph glyph-name="product" unicode="&#x220f;" horiz-adv-x="650" 
d="M131 -83v688h-104v101h596v-101h-104v-688h-112v688h-163v-688h-113z" />
    <glyph glyph-name="summation" unicode="&#x2211;" 
d="M81 -83v68l246 327l-246 326v68h478v-100h-327l224 -294l-224 -295h327v-100h-478z" />
    <glyph glyph-name="minus" unicode="&#x2212;" 
d="M21 265v90h602v-90h-602z" />
    <glyph glyph-name="uni2215" unicode="&#x2215;" horiz-adv-x="130" 
d="M-224 0l489 706h91l-489 -706h-91z" />
    <glyph glyph-name="uni2219" unicode="&#x2219;" horiz-adv-x="328" 
d="M90 341c0 41 33 74 74 74c40 0 74 -33 74 -74c0 -40 -34 -73 -74 -73c-41 0 -74 33 -74 73z" />
    <glyph glyph-name="radical" unicode="&#x221a;" 
d="M288 -83l-153 452l-76 -25l-27 82l177 61l126 -380l154 680h100l-197 -870h-104z" />
    <glyph glyph-name="infinity" unicode="&#x221e;" horiz-adv-x="880" 
d="M440 290c-57 -69 -121 -127 -217 -127s-184 75 -184 182c0 110 85 186 191 186c89 0 154 -54 210 -124c56 70 121 124 210 124c106 0 191 -76 191 -186c0 -107 -88 -182 -184 -182s-159 58 -217 127zM392 343c-43 56 -92 112 -163 112c-65 0 -107 -49 -107 -110
c0 -58 47 -106 110 -106c66 0 118 55 160 104zM490 343c42 -49 94 -104 160 -104c64 0 110 48 110 106c0 61 -42 110 -107 110c-71 0 -120 -56 -163 -112z" />
    <glyph glyph-name="integral" unicode="&#x222b;" 
d="M139 -213l18 89c15 -9 35 -16 46 -16c64 0 67 105 67 160c0 141 -11 281 -11 436c0 117 29 260 174 260c23 0 54 -9 71 -19l-17 -90c-15 9 -35 16 -46 16c-65 0 -67 -104 -67 -159c0 -146 10 -286 10 -436c0 -117 -28 -260 -173 -260c-24 0 -54 9 -72 19z" />
    <glyph glyph-name="approxequal" unicode="&#x2248;" 
d="M67 105l-45 10c28 119 105 163 175 163c124 0 191 -96 275 -96c60 0 93 27 109 92l46 -10c-28 -119 -106 -163 -176 -163c-124 0 -191 96 -275 96c-59 0 -92 -27 -109 -92zM67 274l-45 10c28 119 105 163 175 163c124 0 191 -96 275 -96c60 0 93 27 109 91l46 -9
c-28 -119 -106 -163 -176 -163c-124 0 -191 96 -275 96c-59 0 -92 -27 -109 -92z" />
    <glyph glyph-name="notequal" unicode="&#x2260;" 
d="M21 361v87h382l87 91h73l-87 -91h147v-87h-230l-79 -83h309v-87h-392l-103 -109h-72l103 109h-138v87h221l79 83h-300z" />
    <glyph glyph-name="equivalence" unicode="&#x2261;" 
d="M21 191v87h602v-87h-602zM21 361v87h602v-87h-602zM21 531v87h602v-87h-602z" />
    <glyph glyph-name="lessequal" unicode="&#x2264;" 
d="M31 368v79l566 194v-89l-448 -144l448 -144v-89zM32 0v90h565v-90h-565z" />
    <glyph glyph-name="greaterequal" unicode="&#x2265;" 
d="M613 447v-79l-566 -193v89l449 144l-449 144v89zM612 90v-90h-564v90h564z" />
    <glyph glyph-name="uni25AF" unicode="&#x25af;" horiz-adv-x="570" 
d="M74 0v706h422v-706h-422zM127 53h316v600h-316v-600z" />
    <glyph glyph-name="triagup" unicode="&#x25b2;" 
d="M323 482l240 -482h-482z" />
    <glyph glyph-name="triagrt" unicode="&#x25ba;" 
d="M563 240l-482 -240v482z" />
    <glyph glyph-name="triagdn" unicode="&#x25bc;" 
d="M323 0l-242 482h482z" />
    <glyph glyph-name="triaglf" unicode="&#x25c4;" 
d="M81 240l482 242v-482z" />
    <glyph glyph-name="lozenge" unicode="&#x25ca;" 
d="M284 -47l-204 396l204 397h79l200 -397l-201 -396h-78zM192 349l130 -265l128 265l-127 265z" />
    <glyph glyph-name="uniFB00" unicode="&#xfb00;" horiz-adv-x="638" 
d="M417 0v396h-198v-396h-112v396h-98v86h98v89c0 83 44 145 138 145c27 0 55 -1 75 -5v-87c-12 1 -30 3 -43 3c-34 0 -58 -18 -58 -78v-67h198v89c0 83 44 145 138 145c27 0 56 -1 75 -5v-87c-11 1 -30 3 -43 3c-34 0 -58 -18 -58 -78v-67h100v-86h-100v-396h-112z" />
    <glyph glyph-name="fi" unicode="&#xfb01;" horiz-adv-x="556" 
d="M107 0v396h-98v86h98v89c0 83 44 145 138 145c27 0 55 -1 75 -5v-87c-12 1 -30 3 -43 3c-34 0 -58 -18 -58 -78v-67h100v-86h-100v-396h-112zM386 0v482h112v-482h-112zM386 586v120h112v-120h-112z" />
    <glyph glyph-name="fl" unicode="&#xfb02;" horiz-adv-x="556" 
d="M107 0v396h-98v86h98v89c0 83 44 145 138 145c27 0 55 -1 75 -5v-87c-12 1 -30 3 -43 3c-34 0 -58 -18 -58 -78v-67h100v-86h-100v-396h-112zM386 0v706h112v-706h-112z" />
    <glyph glyph-name="uniFB03" unicode="&#xfb03;" horiz-adv-x="866" 
d="M417 0v396h-198v-396h-112v396h-98v86h98v89c0 83 44 145 138 145c27 0 55 -1 75 -5v-87c-12 1 -30 3 -43 3c-34 0 -58 -18 -58 -78v-67h198v89c0 83 44 145 138 145c27 0 56 -1 75 -5v-87c-11 1 -30 3 -43 3c-34 0 -58 -18 -58 -78v-67h100v-86h-100v-396h-112zM696 0
v482h112v-482h-112zM696 586v120h112v-120h-112z" />
    <glyph glyph-name="uniFB04" unicode="&#xfb04;" horiz-adv-x="866" 
d="M417 0v396h-198v-396h-112v396h-98v86h98v89c0 83 44 145 138 145c27 0 55 -1 75 -5v-87c-12 1 -30 3 -43 3c-34 0 -58 -18 -58 -78v-67h198v89c0 83 44 145 138 145c27 0 56 -1 75 -5v-87c-11 1 -30 3 -43 3c-34 0 -58 -18 -58 -78v-67h100v-86h-100v-396h-112zM696 0
v706h112v-706h-112z" />
    <glyph glyph-name="uniFEFF" unicode="&#xfeff;" horiz-adv-x="0" 
 />
    <glyph glyph-name="i.latn_TRK" horiz-adv-x="228" 
d="M58 0v482h112v-482h-112zM58 586v120h112v-120h-112z" />
    <glyph glyph-name="Ldot.latn_CAT" horiz-adv-x="570" 
d="M73 0v706h126v-605h356v-101h-482zM308 320v123h118v-123h-118z" />
    <glyph glyph-name="ldot.latn_CAT" horiz-adv-x="349" 
d="M58 0v706h112v-706h-112zM229 289v123h118v-123h-118z" />
    <glyph glyph-name="zero.numr" horiz-adv-x="360" 
d="M180 387c52 0 79 69 79 132s-27 132 -79 132c-53 0 -79 -69 -79 -132s26 -132 79 -132zM180 323c-107 0 -161 102 -161 196c0 95 54 196 161 196s161 -101 161 -196c0 -94 -54 -196 -161 -196z" />
    <glyph glyph-name="one.numr" horiz-adv-x="360" 
d="M158 332v259h-72v65h33c33 0 45 11 45 50h76v-374h-82z" />
    <glyph glyph-name="two.numr" horiz-adv-x="360" 
d="M36 332v69c24 11 95 52 144 99c31 31 54 63 54 100c0 31 -22 51 -49 51c-34 0 -59 -18 -59 -83l-83 19c0 95 77 128 142 128c73 0 131 -44 131 -115c0 -65 -44 -110 -78 -145c-17 -17 -68 -49 -90 -58h175v-65h-287z" />
    <glyph glyph-name="three.numr" horiz-adv-x="360" 
d="M34 451l82 18c0 -48 22 -82 62 -82c44 0 62 28 62 55c0 24 -13 56 -72 56h-42v59h39c43 0 66 23 66 47c0 27 -20 47 -52 47c-43 0 -57 -30 -58 -69l-82 18c2 54 49 115 140 115c71 0 134 -36 134 -113c0 -15 -13 -66 -69 -74c66 -9 78 -60 78 -94
c0 -57 -53 -111 -144 -111c-66 0 -136 33 -144 128z" />
    <glyph glyph-name="four.numr" horiz-adv-x="360" 
d="M21 421v61l150 224h96v-221h71v-64h-71v-89h-77v89h-169zM108 485h82v135z" />
    <glyph glyph-name="five.numr" horiz-adv-x="360" 
d="M42 429l75 18c5 -34 26 -60 65 -60c34 0 60 30 60 69c0 34 -19 73 -65 73c-31 0 -51 -24 -55 -47l-77 17l26 207h235v-64h-172l-10 -79c11 14 37 30 72 30c83 0 123 -72 123 -137c0 -73 -58 -133 -137 -133c-86 0 -127 48 -140 106z" />
    <glyph glyph-name="six.numr" horiz-adv-x="360" 
d="M318 620l-79 -16c-10 36 -27 47 -50 47c-49 0 -67 -51 -72 -100c7 17 40 37 75 37c85 0 130 -66 130 -137c0 -81 -73 -128 -134 -128c-112 0 -151 98 -151 188c0 102 41 204 157 204c49 0 104 -28 124 -95zM184 387c30 0 61 24 61 69s-30 67 -62 67s-60 -23 -60 -67
c0 -45 30 -69 61 -69z" />
    <glyph glyph-name="seven.numr" horiz-adv-x="360" 
d="M157 332h-89c38 95 159 297 169 310h-197v64h284v-62c-25 -31 -130 -223 -167 -312z" />
    <glyph glyph-name="eight.numr" horiz-adv-x="360" 
d="M110 532c-41 15 -62 43 -62 83c0 39 40 100 132 100c91 0 131 -61 131 -100c0 -40 -20 -68 -61 -83c51 -17 74 -45 74 -94c0 -60 -55 -115 -144 -115s-145 55 -145 115c0 49 24 77 75 94zM112 442c0 -33 26 -55 68 -55c41 0 67 23 67 55c0 22 -9 55 -67 55
c-51 0 -68 -28 -68 -55zM125 607c0 -24 17 -44 55 -44c37 0 54 20 54 44c0 22 -17 44 -54 44c-38 0 -55 -22 -55 -44z" />
    <glyph glyph-name="nine.numr" horiz-adv-x="360" 
d="M38 423l81 18c7 -39 29 -54 52 -54c25 0 42 14 53 34c12 20 18 49 19 75c-6 -17 -38 -36 -74 -36c-84 0 -129 63 -129 131c0 77 68 124 133 124c112 0 150 -102 150 -187c0 -51 -10 -102 -35 -141c-24 -38 -63 -64 -122 -64c-49 0 -111 33 -128 100zM176 524
c30 0 59 26 59 63c0 39 -30 64 -59 64s-58 -25 -58 -64c0 -38 30 -63 58 -63z" />
    <glyph glyph-name="zero.dnom" horiz-adv-x="360" 
d="M180 55c52 0 79 69 79 132s-27 132 -79 132c-53 0 -79 -69 -79 -132s26 -132 79 -132zM180 -9c-107 0 -161 102 -161 196c0 95 54 196 161 196s161 -101 161 -196c0 -94 -54 -196 -161 -196z" />
    <glyph glyph-name="one.dnom" horiz-adv-x="360" 
d="M159 0v259h-72v65h33c33 0 45 11 45 50h76v-374h-82z" />
    <glyph glyph-name="two.dnom" horiz-adv-x="360" 
d="M35 0v69c24 11 95 52 144 99c31 31 54 63 54 100c0 31 -22 51 -49 51c-34 0 -59 -18 -59 -83l-83 19c0 95 77 128 142 128c73 0 131 -44 131 -115c0 -65 -44 -110 -78 -145c-17 -17 -68 -49 -90 -58h175v-65h-287z" />
    <glyph glyph-name="three.dnom" horiz-adv-x="360" 
d="M34 119l82 18c0 -48 22 -82 62 -82c44 0 62 28 62 55c0 24 -13 56 -72 56h-42v59h39c43 0 66 23 66 47c0 27 -20 47 -52 47c-43 0 -57 -30 -58 -69l-82 18c2 54 49 115 140 115c71 0 134 -36 134 -113c0 -15 -13 -66 -69 -74c66 -9 78 -60 78 -94
c0 -57 -53 -111 -144 -111c-66 0 -136 33 -144 128z" />
    <glyph glyph-name="four.dnom" horiz-adv-x="360" 
d="M21 89v61l150 224h96v-221h71v-64h-71v-89h-77v89h-169zM108 153h82v135z" />
    <glyph glyph-name="five.dnom" horiz-adv-x="360" 
d="M42 97l75 18c5 -34 26 -60 65 -60c34 0 60 30 60 69c0 34 -19 73 -65 73c-31 0 -51 -24 -55 -47l-77 17l26 207h235v-64h-172l-10 -79c11 14 37 30 72 30c83 0 123 -72 123 -137c0 -73 -58 -133 -137 -133c-86 0 -127 48 -140 106z" />
    <glyph glyph-name="six.dnom" horiz-adv-x="360" 
d="M318 288l-79 -16c-10 36 -27 47 -50 47c-49 0 -67 -51 -72 -100c7 17 40 37 75 37c85 0 130 -66 130 -137c0 -81 -73 -128 -134 -128c-112 0 -151 98 -151 188c0 102 41 204 157 204c49 0 104 -28 124 -95zM184 55c30 0 61 24 61 69s-30 67 -62 67s-60 -23 -60 -67
c0 -45 30 -69 61 -69z" />
    <glyph glyph-name="seven.dnom" horiz-adv-x="360" 
d="M157 0h-89c38 95 159 297 169 310h-197v64h284v-62c-25 -31 -130 -223 -167 -312z" />
    <glyph glyph-name="eight.dnom" horiz-adv-x="360" 
d="M110 200c-41 15 -62 43 -62 83c0 39 40 100 132 100c91 0 131 -61 131 -100c0 -40 -20 -68 -61 -83c51 -17 74 -45 74 -94c0 -60 -55 -115 -144 -115s-145 55 -145 115c0 49 24 77 75 94zM112 110c0 -33 26 -55 68 -55c41 0 67 23 67 55c0 22 -9 55 -67 55
c-51 0 -68 -28 -68 -55zM125 275c0 -24 17 -44 55 -44c37 0 54 20 54 44c0 22 -17 44 -54 44c-38 0 -55 -22 -55 -44z" />
    <glyph glyph-name="nine.dnom" horiz-adv-x="360" 
d="M38 91l81 18c7 -39 29 -54 52 -54c25 0 42 14 53 34c12 20 18 49 19 75c-6 -17 -38 -36 -74 -36c-84 0 -129 63 -129 131c0 77 68 124 133 124c112 0 150 -102 150 -187c0 -51 -10 -102 -35 -141c-24 -38 -63 -64 -122 -64c-49 0 -111 33 -128 100zM176 192
c30 0 59 26 59 63c0 39 -30 64 -59 64s-58 -25 -58 -64c0 -38 30 -63 58 -63z" />
    <glyph glyph-name="space.frac" horiz-adv-x="43" 
 />
    <glyph glyph-name="zero.tf" 
d="M322 84c108 0 152 138 152 268c0 131 -44 270 -152 270c-107 0 -152 -139 -152 -270c0 -130 45 -268 152 -268zM322 -17c-190 0 -277 191 -277 369c0 179 87 371 277 371c192 0 278 -192 278 -371c0 -178 -86 -369 -278 -369z" />
    <glyph glyph-name="one.tf" 
d="M99 0v99h169v412h-131v100h46c68 0 97 18 97 95h112v-607h171v-99h-464z" />
    <glyph glyph-name="two.tf" 
d="M63 0v114c102 53 376 226 376 393c0 69 -45 115 -111 115c-70 0 -123 -38 -125 -164l-127 30c3 167 129 235 252 235c138 0 237 -87 237 -216c0 -173 -192 -329 -338 -408h351v-99h-515z" />
    <glyph glyph-name="three.tf" 
d="M59 224l127 27c3 -106 53 -167 132 -167c88 0 134 58 134 120c0 58 -39 115 -147 115h-86v101h86c84 0 129 53 129 105c0 61 -46 97 -114 97c-93 0 -121 -72 -122 -142l-127 28c1 88 77 215 249 215c133 0 241 -64 241 -198c0 -60 -44 -135 -139 -154
c112 -15 155 -94 155 -171c0 -108 -91 -217 -259 -217c-125 0 -247 70 -259 241z" />
    <glyph glyph-name="four.tf" 
d="M41 176v100l281 430h155v-431h126v-99h-126v-176h-119v176h-317zM170 275h188v305z" />
    <glyph glyph-name="five.tf" 
d="M73 177l118 27c13 -71 56 -120 130 -120c80 0 132 64 132 151c0 73 -38 148 -126 148c-72 0 -116 -54 -126 -94l-122 25l49 392h419v-101h-320l-24 -186c18 28 74 65 148 65c148 0 222 -115 222 -249c0 -151 -103 -252 -252 -252c-146 0 -223 85 -248 194z" />
    <glyph glyph-name="six.tf" 
d="M568 552l-123 -26c-20 72 -54 96 -103 96c-113 0 -146 -139 -152 -235c15 43 78 87 155 87c144 0 233 -106 233 -240c0 -165 -126 -251 -241 -251c-212 0 -270 183 -270 354c0 185 70 386 281 386c89 0 184 -51 220 -171zM331 84c66 0 128 51 128 148
c0 91 -62 141 -128 141c-83 0 -129 -73 -129 -142c0 -94 59 -147 129 -147z" />
    <glyph glyph-name="seven.tf" 
d="M265 0h-134c71 182 272 533 317 605h-382v101h513v-99c-70 -104 -246 -439 -314 -607z" />
    <glyph glyph-name="eight.tf" 
d="M207 377c-77 26 -120 85 -120 159c0 76 72 187 235 187s235 -111 235 -187c0 -74 -41 -133 -120 -159c92 -25 145 -84 145 -184c0 -106 -98 -210 -260 -210c-168 0 -260 111 -260 211s54 156 145 183zM181 199c0 -58 50 -115 141 -115s141 57 141 115
c0 48 -19 124 -141 124s-141 -80 -141 -124zM206 526c0 -47 33 -100 116 -100s116 53 116 100c0 46 -37 97 -116 97s-116 -51 -116 -97z" />
    <glyph glyph-name="nine.tf" 
d="M69 160l126 28c15 -76 57 -104 106 -104c122 0 146 157 152 251c-14 -42 -77 -85 -154 -85c-147 0 -232 110 -232 238c0 144 119 235 240 235c208 0 269 -181 269 -353c0 -184 -68 -387 -282 -387c-86 0 -194 57 -225 177zM311 349c74 0 126 68 126 134
c0 78 -55 139 -127 139c-66 0 -124 -59 -124 -139c0 -79 61 -134 125 -134z" />
    <glyph glyph-name="uni2007.tf" 
 />
    <glyph glyph-name="parenleft.case" horiz-adv-x="305" 
d="M284 -81h-90c-76 120 -158 276 -158 434c0 157 82 314 158 434h90c-65 -124 -136 -266 -136 -434s71 -310 136 -434z" />
    <glyph glyph-name="parenright.case" horiz-adv-x="305" 
d="M111 -81h-90c66 124 136 266 136 434s-70 310 -136 434h90c76 -120 158 -277 158 -434c0 -158 -82 -314 -158 -434z" />
    <glyph glyph-name="hyphen.case" horiz-adv-x="431" 
d="M57 304v103h317v-103h-317z" />
    <glyph glyph-name="bracketleft.case" horiz-adv-x="328" 
d="M75 -81v868h230v-81h-125v-706h126v-81h-231z" />
    <glyph glyph-name="bracketright.case" horiz-adv-x="327" 
d="M22 -81v81h126v706h-125v81h229v-868h-230z" />
    <glyph glyph-name="braceleft.case" horiz-adv-x="321" 
d="M306 -35v-46c-82 2 -136 4 -174 47c-33 38 -34 85 -34 149v44c0 64 0 81 -7 102c-11 37 -36 60 -68 70v44c32 10 57 33 68 70c7 21 7 38 7 102v44c0 64 1 111 34 149c38 43 92 45 174 47v-46c-49 -14 -78 -27 -94 -71c-8 -24 -9 -50 -9 -94v-24c-1 -85 -2 -109 -18 -140
c-21 -41 -57 -53 -79 -59c22 -6 58 -18 79 -59c16 -31 17 -55 18 -140v-24c0 -44 1 -70 9 -94c16 -44 45 -57 94 -71z" />
    <glyph glyph-name="braceright.case" horiz-adv-x="321" 
d="M15 -81v46c49 14 78 27 94 71c8 24 9 50 9 94v24c1 85 2 109 18 140c21 41 57 53 79 59c-22 6 -58 18 -79 59c-16 31 -17 55 -18 140v24c0 44 -1 70 -9 94c-16 44 -45 57 -94 71v46c82 -2 136 -4 174 -47c33 -38 34 -85 34 -149v-44c0 -64 0 -81 7 -102
c11 -37 36 -60 68 -70v-44c-32 -10 -57 -33 -68 -70c-7 -21 -7 -38 -7 -102v-44c0 -64 -1 -111 -34 -149c-38 -43 -92 -45 -174 -47z" />
    <glyph glyph-name="guillemotleft.case" horiz-adv-x="452" 
d="M42 307v92l171 119v-97l-108 -68l108 -68v-97zM220 307v92l171 119v-97l-107 -68l107 -68v-97z" />
    <glyph glyph-name="uni00AD.case" horiz-adv-x="431" 
d="M57 301v103h317v-103h-317z" />
    <glyph glyph-name="guillemotright.case" horiz-adv-x="452" 
d="M61 188v97l107 68l-107 68v97l171 -119v-92zM239 188v97l108 68l-108 68v97l171 -119v-92z" />
    <glyph glyph-name="gravecomb.case" horiz-adv-x="0" 
d="M-245 764l-98 178h111l75 -178h-88z" />
    <glyph glyph-name="acutecomb.case" horiz-adv-x="0" 
d="M-343 764l75 178h111l-98 -178h-88z" />
    <glyph glyph-name="uni0302.case" horiz-adv-x="0" 
d="M-430 764l132 178h96l132 -178h-98l-82 116l-83 -116h-97z" />
    <glyph glyph-name="tildecomb.case" horiz-adv-x="0" 
d="M-409 792v95c20 20 59 37 90 37c27 0 48 -7 69 -14s49 -20 73 -20c35 0 65 21 86 48v-95c-21 -21 -61 -39 -91 -39s-52 9 -76 17c-22 7 -42 18 -66 18c-35 0 -65 -21 -85 -47z" />
    <glyph glyph-name="uni0304.case" horiz-adv-x="0" 
d="M-409 822v86h318v-86h-318z" />
    <glyph glyph-name="uni0306.case" horiz-adv-x="0" 
d="M-406 917v21h83v-21c0 -50 22 -89 73 -89c50 0 73 39 73 89v21h84v-21c0 -100 -67 -162 -157 -162c-91 0 -156 62 -156 162z" />
    <glyph glyph-name="uni0307.case" horiz-adv-x="0" 
d="M-309 792v123h118v-123h-118z" />
    <glyph glyph-name="uni0308.case" horiz-adv-x="0" 
d="M-408 792v123h121v-123h-121zM-213 792v123h121v-123h-121z" />
    <glyph glyph-name="uni030A.case" horiz-adv-x="0" 
d="M-250 806c28 0 51 23 51 52c0 28 -23 51 -51 51c-29 0 -52 -23 -52 -51c0 -29 23 -52 52 -52zM-250 756c-56 0 -101 46 -101 102c0 55 45 101 101 101c55 0 101 -46 101 -101c0 -56 -46 -102 -101 -102z" />
    <glyph glyph-name="uni030B.case" horiz-adv-x="0" 
d="M-414 764l75 178h112l-98 -178h-89zM-273 764l75 178h112l-98 -178h-89z" />
    <glyph glyph-name="uni030C.case" horiz-adv-x="0" 
d="M-298 764l-132 178h97l83 -117l82 117h98l-132 -178h-96z" />
    <glyph glyph-name="uni0323.case" horiz-adv-x="0" 
d="M-309 -175v123h118v-123h-118z" />
    <glyph glyph-name="uni0326.case" horiz-adv-x="0" 
d="M-320 -231l35 178h106l-76 -178h-65z" />
    <glyph glyph-name="uni0327.case" horiz-adv-x="0" 
d="M-265 -238v56h39c27 0 47 17 47 45c0 22 -20 39 -47 39h-39v106h59v-51c51 -3 91 -38 91 -94c0 -65 -48 -101 -105 -101h-45z" />
    <glyph glyph-name="uni0328.case" horiz-adv-x="0" 
d="M-156 -238h-39c-81 0 -147 66 -147 147c0 38 14 73 38 99h109v-8c-46 0 -83 -41 -83 -91s37 -91 83 -91h39v-56z" />
    <glyph glyph-name="uni032E.case" horiz-adv-x="0" 
d="M-406 -70v21h83v-21c0 -50 22 -89 73 -89c50 0 73 39 73 89v21h84v-21c0 -100 -67 -162 -157 -162c-91 0 -156 62 -156 162z" />
    <glyph glyph-name="uni0331.case" horiz-adv-x="0" 
d="M-409 -135v86h318v-86h-318z" />
    <glyph glyph-name="endash.case" horiz-adv-x="540" 
d="M57 304v103h426v-103h-426z" />
    <glyph glyph-name="emdash.case" horiz-adv-x="802" 
d="M57 304v103h688v-103h-688z" />
    <glyph glyph-name="guilsinglleft.case" horiz-adv-x="274" 
d="M42 307v92l171 119v-97l-107 -68l107 -68v-97z" />
    <glyph glyph-name="guilsinglright.case" horiz-adv-x="274" 
d="M61 188v97l107 68l-107 68v97l171 -119v-92z" />
    <glyph glyph-name="zero.zero" horiz-adv-x="641" 
d="M320 -17c-190 0 -277 191 -277 369c0 179 87 371 277 371c192 0 278 -192 278 -371c0 -178 -86 -369 -278 -369zM168 352c0 -50 7 -100 22 -143l227 360c-24 32 -56 53 -97 53c-107 0 -152 -139 -152 -270zM320 84c108 0 152 138 152 268c0 49 -7 99 -21 142l-227 -359
c24 -31 55 -51 96 -51z" />
    <glyph glyph-name="cedilla.ss01" horiz-adv-x="331" 
d="M50 -214l19 39c18 -10 48 -19 75 -19c34 0 57 17 57 47c0 28 -23 41 -47 41c-15 0 -31 -3 -42 -8l-19 16l68 106h49l-51 -77l2 -1c11 4 20 5 36 5c36 0 84 -20 84 -78c0 -46 -31 -95 -123 -95c-38 0 -79 11 -108 24z" />
    <glyph glyph-name="Ccedilla.ss01" horiz-adv-x="730" 
d="M258 -214l19 39c18 -10 48 -19 75 -19c34 0 57 17 57 47c0 28 -23 41 -47 41c-15 0 -31 -3 -42 -8l-19 16l52 82c-189 15 -317 166 -317 369c0 207 140 370 351 370c145 0 265 -79 317 -232l-122 -28c-36 102 -105 159 -195 159c-136 0 -224 -121 -224 -269
c0 -153 87 -269 221 -269c101 0 178 72 204 183l124 -25c-39 -155 -161 -252 -311 -259l-34 -52l2 -1c11 4 20 5 36 5c36 0 84 -20 84 -78c0 -46 -31 -95 -123 -95c-38 0 -79 11 -108 24z" />
    <glyph glyph-name="ccedilla.ss01" horiz-adv-x="521" 
d="M149 -214l19 39c18 -10 48 -19 75 -19c34 0 57 17 57 47c0 28 -23 41 -47 41c-15 0 -31 -3 -42 -8l-19 16l56 87c-145 11 -216 131 -216 252c0 127 84 253 239 253c143 0 210 -100 225 -171l-113 -22c-6 37 -31 107 -112 107c-88 0 -126 -87 -126 -167s35 -166 126 -166
c81 0 108 70 114 115l113 -22c-10 -65 -72 -167 -202 -178l-38 -59l2 -1c11 4 20 5 36 5c36 0 84 -20 84 -78c0 -46 -31 -95 -123 -95c-38 0 -79 11 -108 24z" />
    <glyph glyph-name="Scedilla.ss01" horiz-adv-x="650" 
d="M206 -214l19 39c18 -10 48 -19 75 -19c34 0 57 17 57 47c0 28 -23 41 -47 41c-15 0 -31 -3 -42 -8l-19 16l52 82c-140 7 -250 81 -277 235l127 25c3 -108 80 -160 177 -160c101 0 165 52 165 112c0 68 -53 86 -124 102l-87 19c-118 25 -236 53 -236 201
c0 127 123 205 278 205c186 0 258 -102 279 -207l-124 -25c-14 90 -76 131 -155 131c-85 0 -153 -33 -153 -104c0 -61 68 -78 127 -91l106 -23c92 -21 217 -58 217 -198c0 -122 -102 -214 -272 -222l-34 -53l2 -1c11 4 20 5 36 5c36 0 84 -20 84 -78c0 -46 -31 -95 -123 -95
c-38 0 -79 11 -108 24z" />
    <glyph glyph-name="scedilla.ss01" horiz-adv-x="489" 
d="M126 -214l19 39c18 -10 48 -19 75 -19c34 0 57 17 57 47c0 28 -23 41 -47 41c-15 0 -31 -3 -42 -8l-19 16l55 87c-117 7 -187 82 -199 160l111 24c7 -63 40 -102 106 -102c56 0 102 23 102 68s-38 53 -92 63l-42 8c-82 16 -170 38 -170 144c0 60 58 140 207 140
c90 0 176 -51 197 -147l-102 -23c-10 54 -34 87 -101 87c-59 0 -92 -27 -92 -56c0 -42 52 -53 85 -59l41 -7c83 -14 184 -39 184 -143c0 -93 -80 -147 -186 -156l-38 -59l2 -1c11 4 20 5 36 5c36 0 84 -20 84 -78c0 -46 -31 -95 -123 -95c-38 0 -79 11 -108 24z" />
    <glyph glyph-name="uni0162.ss01" horiz-adv-x="588" 
d="M231 0v605h-221v101h568v-101h-222v-605h-24l-45 -69l2 -1c11 4 20 5 36 5c36 0 84 -20 84 -78c0 -46 -31 -95 -123 -95c-38 0 -79 11 -108 24l19 39c18 -10 48 -19 75 -19c34 0 57 17 57 47c0 28 -23 41 -47 41c-15 0 -31 -3 -42 -8l-19 16l63 98h-53z" />
    <glyph glyph-name="uni0163.ss01" horiz-adv-x="335" 
d="M81 -214l19 39c18 -10 48 -19 75 -19c34 0 57 17 57 47c0 28 -23 41 -47 41c-15 0 -31 -3 -42 -8l-19 16l62 97c-49 12 -84 44 -84 107v290h-93v86h93v159h112v-159h98v-86h-98v-251c0 -42 16 -60 51 -60c15 0 33 1 47 4v-89c-16 -4 -44 -7 -72 -7h-9l-41 -62l2 -1
c11 4 20 5 36 5c36 0 84 -20 84 -78c0 -46 -31 -95 -123 -95c-38 0 -79 11 -108 24z" />
    <glyph glyph-name="uni0327.ss01" horiz-adv-x="0" 
d="M-365 -214l19 39c18 -10 48 -19 75 -19c34 0 57 17 57 47c0 28 -23 41 -47 41c-15 0 -31 -3 -42 -8l-19 16l68 106h49l-51 -77l2 -1c11 4 20 5 36 5c36 0 84 -20 84 -78c0 -46 -31 -95 -123 -95c-38 0 -79 11 -108 24z" />
    <glyph glyph-name="uni0327.case.ss01" horiz-adv-x="0" 
d="M-365 -214l19 39c18 -10 48 -19 75 -19c34 0 57 17 57 47c0 28 -23 41 -47 41c-15 0 -31 -3 -42 -8l-19 16l68 106h49l-51 -77l2 -1c11 4 20 5 36 5c36 0 84 -20 84 -78c0 -46 -31 -95 -123 -95c-38 0 -79 11 -108 24z" />
    <glyph glyph-name="Aogonek.ss02" horiz-adv-x="705" 
d="M696 -173l19 -30c-18 -16 -39 -35 -79 -35c-62 0 -106 40 -106 95c0 63 41 115 81 143h-38l-75 201h-292l-75 -201h-132l279 706h150l277 -706h-42c-25 -29 -54 -88 -54 -123c0 -45 29 -62 53 -62c12 0 23 4 34 12zM242 299h220l-110 297z" />
    <glyph glyph-name="aogonek.ss02" horiz-adv-x="514" 
d="M467 -173l19 -30c-18 -16 -39 -35 -79 -35c-62 0 -106 40 -106 95c0 63 41 115 81 143h-28c-1 5 -7 44 -7 63c-25 -47 -76 -75 -148 -75c-105 0 -168 69 -168 143c0 116 90 141 197 159c8 1 58 8 68 10c51 8 56 25 56 48c0 31 -27 63 -91 63c-60 0 -101 -29 -104 -95
l-110 24c9 53 38 92 77 117s87 37 137 37c108 0 198 -43 198 -166v-203c0 -81 6 -120 7 -125h-32c-25 -29 -54 -88 -54 -123c0 -45 29 -62 53 -62c12 0 23 4 34 12zM144 138c0 -36 36 -67 78 -67c41 0 125 19 125 114v50c-8 -3 -43 -9 -59 -12l-36 -7
c-56 -10 -108 -22 -108 -78z" />
    <glyph glyph-name="Eogonek.ss02" horiz-adv-x="619" 
d="M73 0v706h495v-101h-369v-191h355v-101h-355v-212h377v-101h-52c-25 -29 -54 -88 -54 -123c0 -45 29 -62 53 -62c12 0 23 4 34 12l19 -30c-18 -16 -39 -35 -79 -35c-62 0 -106 40 -106 95c0 63 41 115 81 143h-399z" />
    <glyph glyph-name="eogonek.ss02" horiz-adv-x="524" 
d="M336 -173l19 -30c-18 -16 -39 -35 -79 -35c-62 0 -106 40 -106 95c0 56 32 103 68 133c-143 16 -206 131 -206 250c0 132 81 254 231 254c137 0 229 -106 229 -252c0 -13 0 -25 -1 -32h-346c2 -75 43 -139 122 -139c69 0 102 47 112 94l104 -25
c-14 -63 -85 -141 -188 -151c-23 -31 -46 -81 -46 -112c0 -45 29 -62 53 -62c12 0 23 4 34 12zM146 294h233c0 58 -38 117 -116 117c-74 0 -117 -52 -117 -117z" />
    <glyph glyph-name="Iogonek.ss02" horiz-adv-x="272" 
d="M73 0v706h126v-706h-33c-25 -29 -54 -88 -54 -123c0 -45 29 -62 53 -62c12 0 23 4 34 12l19 -30c-18 -16 -39 -35 -79 -35c-62 0 -106 40 -106 95c0 63 41 115 81 143h-41z" />
    <glyph glyph-name="iogonek.ss02" horiz-adv-x="228" 
d="M58 0v482h112v-482h-26c-25 -29 -54 -88 -54 -123c0 -45 29 -62 53 -62c12 0 23 4 34 12l19 -30c-18 -16 -39 -35 -79 -35c-62 0 -106 40 -106 95c0 63 41 115 81 143h-34zM58 586v120h112v-120h-112z" />
    <glyph glyph-name="Uogonek.ss02" horiz-adv-x="722" 
d="M434 -173l19 -30c-18 -16 -39 -35 -79 -35c-62 0 -106 40 -106 95c0 53 28 97 61 127c-160 12 -262 109 -262 270v452h126v-452c0 -109 68 -170 169 -170c100 0 167 58 167 170v452h126v-452c0 -174 -114 -261 -266 -270c-22 -32 -42 -78 -42 -107c0 -45 29 -62 53 -62
c12 0 23 4 34 12z" />
    <glyph glyph-name="uogonek.ss02" horiz-adv-x="537" 
d="M480 -173l19 -30c-18 -16 -39 -35 -79 -35c-62 0 -106 40 -106 95c0 63 41 115 81 143h-26v69c-9 -30 -56 -81 -146 -81c-59 0 -107 24 -137 67c-28 41 -32 83 -32 141v286h112v-286c0 -42 4 -66 17 -86c10 -17 33 -35 73 -35c29 0 55 10 77 33c24 26 34 56 34 126v248
h112v-482h-32c-25 -29 -54 -88 -54 -123c0 -45 29 -62 53 -62c12 0 23 4 34 12z" />
    <glyph glyph-name="uni01EA.ss02" horiz-adv-x="774" 
d="M461 -173l19 -30c-18 -16 -39 -35 -79 -35c-62 0 -106 40 -106 95c0 53 29 98 62 128c-224 15 -321 189 -321 366c0 184 107 372 353 372c242 0 349 -188 349 -372c0 -178 -99 -353 -322 -367c-21 -31 -42 -77 -42 -107c0 -45 29 -62 53 -62c12 0 23 4 34 12zM389 84
c154 0 222 133 222 267s-68 271 -222 271c-158 0 -226 -137 -226 -271s68 -267 226 -267z" />
    <glyph glyph-name="uni01EB.ss02" horiz-adv-x="545" 
d="M346 -173l19 -30c-18 -16 -39 -35 -79 -35c-62 0 -106 40 -106 95c0 56 31 103 67 133c-140 13 -216 134 -216 250c0 124 86 254 242 254s241 -130 241 -254c0 -114 -73 -234 -209 -250c-23 -31 -46 -82 -46 -113c0 -45 29 -62 53 -62c12 0 23 4 34 12zM273 75
c87 0 128 87 128 165s-41 168 -128 168s-129 -90 -129 -168s42 -165 129 -165z" />
    <glyph glyph-name="ogonek.ss02" horiz-adv-x="285" 
d="M216 -173l19 -30c-18 -16 -39 -35 -79 -35c-62 0 -106 40 -106 95c0 70 51 126 95 152h47c-26 -24 -63 -93 -63 -132c0 -45 29 -62 53 -62c12 0 23 4 34 12z" />
    <glyph glyph-name="uni0328.ss02" horiz-adv-x="0" 
d="M-176 -173l19 -30c-18 -16 -39 -35 -79 -35c-62 0 -106 40 -106 95c0 70 51 126 95 152h47c-26 -24 -63 -93 -63 -132c0 -45 29 -62 53 -62c12 0 23 4 34 12z" />
    <glyph glyph-name="uni0328.case.ss02" horiz-adv-x="0" 
d="M-176 -173l19 -30c-18 -16 -39 -35 -79 -35c-62 0 -106 40 -106 95c0 70 51 126 95 152h47c-26 -24 -63 -93 -63 -132c0 -45 29 -62 53 -62c12 0 23 4 34 12z" />
    <glyph glyph-name="Adieresis.ss03" horiz-adv-x="737" 
d="M73 583v123h121v-123h-121zM544 583v123h121v-123h-121zM15 0l279 706h150l277 -706h-132l-75 201h-292l-75 -201h-132zM258 299h220l-110 297z" />
    <glyph glyph-name="Odieresis.ss03" horiz-adv-x="864" 
d="M30 583v123h101v-123h-101zM733 583v123h101v-123h-101zM434 84c154 0 222 133 222 267s-68 271 -222 271c-158 0 -226 -137 -226 -271s68 -267 226 -267zM434 -17c-246 0 -353 183 -353 368c0 184 107 372 353 372c242 0 349 -188 349 -372c0 -185 -107 -368 -349 -368z
" />
    <glyph glyph-name="Udieresis.ss03" horiz-adv-x="722" 
d="M493 706v-123h-121v123h121zM348 706v-123h-121v123h121zM67 254v452h126v-452c0 -109 68 -170 169 -170c100 0 167 58 167 170v452h126v-452c0 -184 -128 -271 -293 -271c-179 0 -295 100 -295 271z" />
    <glyph glyph-name="one.ss04" horiz-adv-x="503" 
d="M28 0v99h169v412h-131v100h46c68 0 97 18 97 95h112v-607h171v-99h-464z" />
    <glyph glyph-name="orn001" 
d="M10 353c0 172 140 312 312 312s312 -140 312 -312s-140 -312 -312 -312s-312 140 -312 312z" />
    <glyph glyph-name="orn002" 
d="M10 353c0 172 140 312 312 312s312 -140 312 -312s-140 -312 -312 -312s-312 140 -312 312zM42 353c0 -154 126 -280 280 -280s280 126 280 280s-126 280 -280 280s-280 -126 -280 -280z" />
    <glyph glyph-name="orn003" 
d="M22 53v600h600v-600h-600z" />
    <glyph glyph-name="orn004" 
d="M22 53v600h600v-600h-600zM54 621v-536h536v536h-536z" />
    <glyph glyph-name="orn005" 
d="M171 -98v902l301 -451z" />
    <glyph glyph-name="orn006" horiz-adv-x="922" 
d="M912 0h-902l451 301z" />
    <glyph glyph-name="orn007" 
d="M171 -98v902h301v-902h-301z" />
    <glyph glyph-name="orn008" horiz-adv-x="922" 
d="M912 0h-902v301h902v-301z" />
    <glyph glyph-name="orn009" 
d="M284 -98v902h75v-902h-75z" />
    <glyph glyph-name="orn010" horiz-adv-x="922" 
d="M912 0h-902v75h902v-75z" />
    </font>
</defs>
</svg>
