<svg xmlns="http://www.w3.org/2000/svg">
<defs>
<font id="TT Hoves Pro Medium" horiz-adv-x="596">
      <font-face font-family="TT Hoves Pro Medium" font-weight="500" units-per-em="1000" font-style="normal" ascent="1000" descent="-260" font-stretch="Normal" panose-1="2 11 0 3 2 0 0 2 2 3" cap-height="700" x-height="503" bbox="-477 -351 1438 1037" underline-thickness="79" underline-position="-161" unicode-range="U+0000-0006,U+0008-0009,U+000B-000F" />
      <missing-glyph horiz-adv-x="900" d="M100 0L100 284L145 284L145 145L178 145L178 284L228 284L228 315L100 315L100 441L119 380L142 380L176 486L209 380L232 380L286 550L254 550L220 440L185 550L166 550L131 440L100 543L100 700L800 700L800 550L690 550L690 380L800 380L800 289C772 316 750 316 792 306C690 293 690 267 714 316C710 226 744 217 690 237C778 206 778 194 766 210C768 173 750 173 778 180C722 183 722 198 731 173L689 198C714 143 750 143 689 166C792 153 800 163 772 143L800 0zM311 380L344 380L344 442L368 442L403 380L440 380L400 447C436 475 436 497 424 458C412 550 379 550 436 526L311 550zM469 550L469 380L502 380L502 550zM580 519L580 380L612 380L612 519L662 519L662 550L530 550L530 519zM344 473L344 519L379 519C403 509 403 496 392 519C391 473 379 473 403 480zM800 483L722 483L722 519L800 519zM800 411L722 411L722 452L800 452zM328 143C410 179 410 229 377 143C376 316 328 316 410 278C246 278 246 229 280 316C278 143 328 143 246 179zM585 143C652 171 652 209 623 143L652 315L620 315L620 209C606 174 585 174 620 189C549 190 549 209 562 174L549 315L517 315L517 209C546 143 585 143 517 171zM800 224C774 240 754 246 790 233C724 256 724 267 732 252C735 287 750 287 724 279C776 276 776 262 763 287L800 262zM328 174C277 198 277 229 298 174C297 285 328 285 277 262C379 262 379 229 360 285C357 174 328 174 379 198z" />
      <glyph unicode="
" horiz-adv-x="243" />
      <glyph unicode=" " horiz-adv-x="243" />
      <glyph unicode="!" horiz-adv-x="268" d="M173 181L95 181L82 412L82 700L187 700L187 412zM190 0L78 0L78 113L190 113z" />
      <glyph unicode="&#34;" horiz-adv-x="374" d="M151 480L57 480L57 700L151 700zM317 480L223 480L223 700L317 700z" />
      <glyph unicode="#" horiz-adv-x="701" d="M205 0L111 0L149 177L13 177L33 266L168 266L204 434L68 434L88 523L224 523L261 700L355 700L317 523L458 523L496 700L590 700L552 523L688 523L668 434L533 434L497 266L633 266L613 177L477 177L440 0L346 0L384 177L243 177zM298 434L263 266L403 266L438 434z" />
      <glyph unicode="$" horiz-adv-x="623" d="M576 195C494 4 353 -8 576 84L353 -110L258 -110L258 -6C174 13 141 34 213 0C83 81 66 112 108 55C40 177 40 213 48 143L145 213C209 85 313 85 145 139C471 129 471 195 419 85C433 283 357 297 471 249L230 321C55 403 55 505 113 342C131 692 258 707 55 611L258 810L353 810L353 707C571 601 571 487 489 689L466 487C459 531 446 551 466 510C414 585 390 597 433 570C336 615 303 615 365 609C160 569 160 505 212 615C195 422 266 409 160 454L376 389C576 304 576 195 516 363z" />
      <glyph unicode="%" horiz-adv-x="788" d="M197 394C141 401 117 415 168 394C73 448 59 472 93 429C38 522 38 552 45 496C45 608 59 632 38 581C93 675 117 689 73 656C168 710 197 710 141 703C252 703 276 689 225 710C319 656 333 632 300 675C355 581 355 552 347 608C347 496 333 472 355 522C300 429 276 415 319 448C225 394 197 394 252 401zM227 0L127 0L562 700L662 700zM197 471C272 504 272 552 238 471C238 633 197 633 272 600C121 600 121 552 154 633C154 471 197 471 121 504zM592 -10C536 -3 512 11 563 -10C469 44 455 68 488 25C434 118 434 148 441 92C441 204 455 228 434 177C488 271 512 285 469 252C563 306 592 306 536 299C647 299 671 285 620 306C715 252 729 228 695 271C750 177 750 148 743 204C742 92 728 68 750 118C695 25 671 11 714 44C620 -10 592 -10 647 -3zM592 68C668 100 668 148 633 68C633 229 592 229 668 196C516 196 516 148 550 229C550 68 592 68 516 100z" />
      <glyph unicode="&#38;" horiz-adv-x="639" d="M263 -10C178 -2 145 14 217 -10C86 52 68 80 111 30C42 139 42 173 50 108C71 290 137 340 42 245L177 370L135 416C77 490 77 542 97 458C84 601 100 627 77 573C138 673 167 688 116 653C228 710 265 710 195 702C333 702 362 687 301 710C413 650 429 624 390 671C453 569 453 537 445 598C418 430 364 392 453 475L309 352L452 201C492 280 492 330 472 227L586 330C553 169 519 132 586 247L646 0L522 0L458 69C340 -10 263 -10 418 29zM297 450C354 500 354 535 333 474C318 619 265 619 354 584C176 584 176 539 211 619C186 490 213 462 176 509L251 419zM262 82C359 101 394 136 318 82L240 303L208 281C142 221 142 179 162 250C188 82 262 82 142 124z" />
      <glyph unicode="&#39;" horiz-adv-x="208" d="M151 480L57 480L57 700L151 700z" />
      <glyph unicode="(" horiz-adv-x="338" d="M210 -200C70 91 70 265 120 -69C120 599 210 730 70 438L314 730C169 441 169 265 223 603C223 -73 314 -200 169 89z" />
      <glyph unicode=")" horiz-adv-x="338" d="M23 -200C168 87 168 265 113 -73C113 603 23 730 168 442L128 730C268 438 268 265 217 599C217 -69 128 -200 268 91z" />
      <glyph unicode="*" horiz-adv-x="472" d="M236 443L153 320L88 373L178 485L38 523L63 601L201 551L194 700L278 700L272 551L409 601L434 523L295 485L384 373L320 320z" />
      <glyph unicode="+" horiz-adv-x="540" d="M318 56L223 56L223 245L49 245L49 335L223 335L223 524L318 524L318 335L492 335L492 245L318 245z" />
      <glyph unicode="," horiz-adv-x="231" d="M125 -84L42 -84L64 113L178 113z" />
      <glyph unicode="-" horiz-adv-x="418" d="M373 239L45 239L45 331L373 331z" />
      <glyph unicode="." horiz-adv-x="232" d="M173 0L59 0L59 113L173 113z" />
      <glyph unicode="/" horiz-adv-x="374" d="M99 -200L0 -200L275 730L374 730z" />
      <glyph unicode="0" horiz-adv-x="658" d="M329 -10C230 4 188 32 277 -10C112 101 87 155 146 60C50 274 50 350 62 209C62 490 87 544 50 425C146 640 188 668 112 598C277 710 329 710 230 696C427 696 469 668 380 710C545 598 570 544 511 640C608 425 608 350 595 490C595 209 570 155 608 274C511 60 469 32 545 101C380 -10 329 -10 427 4zM329 90C389 99 415 119 360 90C463 168 479 207 441 139C503 294 503 350 495 246C495 453 479 492 503 406C441 560 415 580 463 531C360 610 329 610 389 600C268 600 242 580 297 610C195 531 179 492 216 560C155 406 155 350 163 453C163 246 179 207 155 294C216 139 242 119 195 168C297 90 329 90 268 99z" />
      <glyph unicode="1" horiz-adv-x="355" d="M173 0L173 526L27 526L27 622L143 622C173 632 173 653 163 622L173 700L278 700L278 0z" />
      <glyph unicode="2" horiz-adv-x="549" d="M53 0L53 89L339 379C392 445 392 493 376 417C342 610 273 610 392 561C152 554 152 477 205 610L47 477C56 561 75 597 47 521C121 660 155 680 94 632C229 710 273 710 189 700C356 700 390 682 317 710C450 638 469 605 424 664C498 535 498 493 488 572C467 367 403 305 498 415L206 104L206 99L509 99L509 0z" />
      <glyph unicode="3" horiz-adv-x="562" d="M273 -10C182 0 146 17 225 -10C82 60 62 92 110 35C33 159 33 197 42 124L138 197C190 89 273 89 138 135C405 135 405 198 351 89C352 312 271 312 405 264L226 312L226 404L271 404C395 449 395 511 348 404C345 611 272 611 395 565C148 564 148 510 201 611L43 510C52 579 72 609 43 546C119 664 154 682 92 639C229 710 274 710 189 700C357 701 391 683 318 710C452 642 471 612 425 665C500 548 500 512 490 582C448 378 396 360 500 436L396 355C510 275 510 193 453 336C500 122 480 91 510 156C432 35 396 17 460 60C319 -10 273 -10 360 0z" />
      <glyph unicode="4" horiz-adv-x="554" d="M446 0L341 0L341 150L18 150L18 235L282 700L446 700L446 244L531 244L531 150L446 150zM141 249L141 244L341 244L341 568L321 568z" />
      <glyph unicode="5" horiz-adv-x="574" d="M284 -10C200 -1 166 15 240 -10C103 56 82 87 131 32C49 152 45 192 61 117L150 192C214 89 284 89 162 130C424 149 424 229 364 89C368 369 287 369 424 311C192 349 167 316 233 369L58 316L98 700L489 700L489 602L188 602L169 428L174 428C247 465 299 465 205 452C379 454 414 434 341 465C477 386 498 350 449 414C529 273 529 229 518 314C518 142 498 106 529 183C448 41 411 21 477 70C331 -10 284 -10 373 0z" />
      <glyph unicode="6" horiz-adv-x="569" d="M301 458C380 448 416 428 342 458C479 380 500 346 451 408C531 272 531 229 520 311C520 144 498 108 531 185C447 43 409 22 476 72C330 -10 285 -10 371 0C197 0 159 22 239 -10C92 72 70 108 121 43C38 185 38 229 48 144C58 337 81 371 38 283L293 700L412 700L254 453C289 458 301 458 274 456zM285 88C426 149 426 229 365 88C419 278 407 300 426 255C378 338 356 350 395 321C311 369 285 369 334 362C234 362 212 350 258 369C173 321 161 300 190 338C143 255 143 229 149 278C203 88 285 88 143 149z" />
      <glyph unicode="7" horiz-adv-x="509" d="M233 0L118 0L360 600L27 600L27 700L479 700L479 611z" />
      <glyph unicode="8" horiz-adv-x="571" d="M285 -10C196 0 160 18 237 -10C96 61 76 92 124 36C47 157 47 193 56 123C100 337 154 359 47 274L154 364C61 442 61 513 107 385C70 582 89 612 61 549C135 665 169 683 108 642C241 710 285 710 203 701C367 701 401 683 328 710C461 642 480 612 435 665C509 549 509 513 499 582C463 385 417 364 509 442L417 359C524 274 524 193 470 337C514 123 494 92 524 157C446 36 410 18 474 61C332 -10 285 -10 374 0zM285 405C404 451 404 510 357 405C357 615 285 615 404 568C166 568 166 510 213 615C213 405 285 405 166 451zM285 86C419 134 419 201 362 86C362 316 285 316 419 266C152 266 152 201 209 316C207 86 285 86 152 134z" />
      <glyph unicode="9" horiz-adv-x="569" d="M285 710C371 699 409 678 330 710C476 627 498 591 447 656C531 515 531 471 520 555C510 363 488 329 531 417L276 0L158 0L315 247C284 242 268 242 300 243C188 252 153 272 226 242C89 319 69 354 117 292C38 427 38 471 48 388C48 555 70 591 38 515C121 656 159 678 92 627C239 710 285 710 197 699zM285 331C334 337 356 349 311 331C395 378 407 400 378 361C426 445 426 471 419 421C365 612 285 612 426 551C143 551 143 471 203 612C149 421 161 400 143 445C190 361 212 349 173 378C258 331 285 331 234 337z" />
      <glyph unicode=":" horiz-adv-x="232" d="M173 392L59 392L59 505L173 505zM173 0L59 0L59 114L173 114z" />
      <glyph unicode=";" horiz-adv-x="232" d="M178 392L64 392L64 505L178 505zM125 -84L42 -84L64 114L178 114z" />
      <glyph unicode="&#60;" horiz-adv-x="540" d="M487 161L487 63L54 244L54 338L487 520L487 421L163 291z" />
      <glyph unicode="=" horiz-adv-x="534" d="M465 337L69 337L69 426L465 426zM465 154L69 154L69 243L465 243z" />
      <glyph unicode="&#62;" horiz-adv-x="540" d="M487 244L54 63L54 161L378 291L54 421L54 520L487 338z" />
      <glyph unicode="?" horiz-adv-x="515" d="M195 233C224 356 302 395 195 314C371 452 371 503 348 419C320 613 250 613 371 567C130 566 130 508 179 613L24 508C33 580 52 611 24 546C98 665 133 683 71 641C207 710 252 710 167 701C335 701 369 683 296 710C430 640 449 610 403 665C478 545 478 508 468 579C441 367 367 331 478 426C298 275 298 233 315 304L298 181L195 181zM303 0L190 0L190 113L303 113z" />
      <glyph unicode="@" horiz-adv-x="934" d="M465 -98C314 -81 252 -47 385 -98C142 32 108 92 190 -13C57 219 57 293 74 152C74 437 110 498 57 369C194 606 256 641 145 558C388 693 466 693 318 675C623 676 687 642 549 693C800 561 835 503 751 608C888 379 888 307 870 444C816 80 708 80 888 159C609 110 595 142 650 80L590 142C509 80 447 80 567 110C376 88 346 106 409 80C292 148 275 180 316 124C250 248 250 288 258 212C258 364 276 396 250 328C317 452 347 470 293 428C410 497 448 497 377 488C552 471 570 443 506 497L575 443L585 488L660 488L660 219C679 166 710 166 660 185C797 208 797 307 763 166C783 415 756 461 797 364C690 543 640 569 728 507C532 608 466 608 590 595C349 594 301 567 404 608C215 503 188 455 253 540C148 353 148 293 161 407C161 180 187 134 148 233C250 52 298 26 213 88C401 -12 465 -12 346 0L670 -12L670 -98zM456 164C572 213 572 288 524 164C524 413 456 413 572 362C340 362 340 288 388 413C388 164 456 164 340 213z" />
      <glyph unicode="A" horiz-adv-x="666" d="M667 0L554 0L494 168L172 168L112 0L-2 0L256 700L410 700zM323 588L206 263L460 263L343 588z" />
      <glyph unicode="B" horiz-adv-x="649" d="M77 0L77 700L389 700C458 691 488 674 425 700C541 634 558 604 518 657C584 541 584 505 575 574C547 379 509 355 584 435L509 350C594 269 594 195 553 328C585 125 568 95 594 158C528 42 498 25 551 65C435 0 399 0 468 8zM382 396C479 441 479 500 435 396C435 605 382 605 479 560L182 605L182 396zM392 95C489 140 489 200 445 95C445 304 392 304 489 258L182 304L182 95z" />
      <glyph unicode="C" horiz-adv-x="730" d="M383 -10C264 5 213 36 321 -10C122 109 92 164 162 66C47 280 47 350 62 218C62 481 92 536 47 419C162 633 213 664 122 590C321 710 383 710 264 694C484 699 528 677 436 710C607 626 636 589 571 655C685 510 697 464 665 551L588 464C481 610 383 610 558 550C302 599 267 577 341 610C203 525 183 485 231 555C152 400 152 350 162 445C162 254 183 214 152 299C231 144 267 122 203 174C341 90 383 90 302 100C560 150 588 241 484 90L697 241C665 151 637 113 685 193C572 45 529 23 608 75C437 -10 383 -10 485 1z" />
      <glyph unicode="D" horiz-adv-x="703" d="M77 0L77 700L320 700C440 685 492 655 383 700C583 583 612 530 543 625C656 416 656 350 641 476C641 223 612 170 656 283C543 75 492 45 583 116C383 0 320 0 440 15zM320 100C402 110 438 131 363 100C501 182 521 220 473 152C551 301 551 350 541 258C541 442 521 480 551 398C473 547 438 568 501 518C363 600 320 600 402 589L182 600L182 100z" />
      <glyph unicode="E" horiz-adv-x="590" d="M536 0L77 0L77 700L536 700L536 603L182 603L182 399L516 399L516 304L182 304L182 97L536 97z" />
      <glyph unicode="F" horiz-adv-x="571" d="M182 0L77 0L77 700L528 700L528 603L182 603L182 398L506 398L506 303L182 303z" />
      <glyph unicode="G" horiz-adv-x="767" d="M406 363L702 363L702 0L619 0L609 91L604 91C478 -10 384 -10 561 37C265 5 214 36 322 -10C122 109 92 164 162 66C47 280 47 350 62 218C62 482 92 537 47 420C162 634 214 664 122 591C322 710 384 710 265 694C480 699 523 679 434 710C601 631 631 597 565 659C682 523 696 481 661 562L587 481C472 610 384 610 552 558C302 599 267 577 341 610C203 525 183 485 231 555C152 400 152 350 162 445C162 254 183 214 152 299C231 144 267 122 203 174C341 90 384 90 302 100C457 98 489 116 422 90C546 157 565 185 521 134C594 243 596 273 584 213L597 281L406 281z" />
      <glyph unicode="H" horiz-adv-x="716" d="M182 0L77 0L77 700L182 700L182 404L534 404L534 700L639 700L639 0L534 0L534 301L182 301z" />
      <glyph unicode="I" horiz-adv-x="259" d="M182 0L77 0L77 700L182 700z" />
      <glyph unicode="J" horiz-adv-x="399" d="M10 0L10 100L174 100C222 118 222 149 204 100L222 700L327 700L327 127C281 0 197 0 327 47z" />
      <glyph unicode="K" horiz-adv-x="578" d="M182 0L77 0L77 700L182 700L182 379L449 700L578 700L290 355L598 0L468 0L182 332z" />
      <glyph unicode="L" horiz-adv-x="539" d="M521 0L77 0L77 700L182 700L182 100L521 100z" />
      <glyph unicode="M" horiz-adv-x="909" d="M182 0L77 0L77 700L253 700L445 145L465 145L656 700L833 700L833 0L728 0L728 543L708 543L519 0L390 0L202 543L182 543z" />
      <glyph unicode="N" horiz-adv-x="718" d="M182 0L77 0L77 700L231 700L516 153L536 153L536 700L641 700L641 0L487 0L202 547L182 547z" />
      <glyph unicode="O" horiz-adv-x="767" d="M383 -10C264 5 213 36 321 -10C122 109 92 164 162 66C47 280 47 350 62 218C62 481 92 536 47 419C162 633 213 664 122 590C321 710 383 710 264 694C501 694 553 664 445 710C645 590 675 536 604 633C720 419 720 350 705 481C705 218 675 164 720 280C604 66 553 36 645 109C445 -10 383 -10 501 5zM383 90C464 100 500 122 425 90C563 174 584 214 535 144C615 299 615 350 604 254C604 445 584 485 615 400C535 555 500 577 563 525C425 610 383 610 464 599C302 599 267 577 341 610C203 525 183 485 231 555C152 400 152 350 162 445C162 254 183 214 152 299C231 144 267 122 203 174C341 90 383 90 302 100z" />
      <glyph unicode="P" horiz-adv-x="643" d="M77 0L77 700L388 700C463 690 495 671 427 700C552 626 570 592 527 652C598 519 598 476 588 558C588 393 570 359 598 432C527 298 495 279 552 325C427 251 388 251 463 260L182 251L182 0zM385 351C493 401 493 476 445 351C446 600 385 600 493 550L182 600L182 351z" />
      <glyph unicode="Q" horiz-adv-x="767" d="M725 -28L599 -28L543 30C440 -10 383 -10 493 3C264 5 213 36 321 -10C122 109 92 164 162 66C47 280 47 350 62 218C62 481 92 536 47 419C162 633 213 664 122 590C321 710 383 710 264 694C501 694 553 664 445 710C645 590 675 536 604 633C720 419 720 350 705 481C681 149 616 84 720 242zM152 350C162 254 183 214 152 299C231 144 267 122 203 174C341 90 383 90 302 100C446 96 475 110 415 90L332 254L450 254L545 159C615 271 615 350 589 205C604 445 584 485 615 400C535 555 500 577 563 525C425 610 383 610 464 599C302 599 267 577 341 610C203 525 183 485 231 555C152 400 152 350 162 445z" />
      <glyph unicode="R" horiz-adv-x="653" d="M358 257L616 0L485 0L231 256L182 256L182 0L77 0L77 700L390 700C464 690 496 671 429 700C553 626 571 592 528 652C599 519 599 477 589 558C590 397 572 364 599 435C529 304 499 285 554 330C435 257 399 257 468 266zM182 353L387 353C494 403 494 477 447 353C447 602 387 602 494 550L182 602z" />
      <glyph unicode="S" horiz-adv-x="623" d="M313 -10C209 0 168 20 257 -10C95 67 73 101 126 40C40 172 40 213 51 135L145 213C207 85 313 85 145 141C471 129 471 195 419 85C433 283 357 297 471 249L230 321C55 403 55 505 113 342C65 579 85 610 55 544C133 665 171 683 105 641C252 710 303 710 208 701C405 700 445 681 357 710C516 635 538 601 485 661C571 529 571 487 560 567L466 487C459 531 446 551 466 510C414 585 390 597 433 570C336 615 303 615 365 609C160 569 160 505 212 615C195 422 266 409 160 454L376 389C576 304 576 195 516 363C565 120 545 89 576 155C495 34 455 16 525 58C368 -10 313 -10 415 -1z" />
      <glyph unicode="T" horiz-adv-x="590" d="M348 0L243 0L243 600L23 600L23 700L567 700L567 600L348 600z" />
      <glyph unicode="U" horiz-adv-x="699" d="M350 -10C247 2 205 26 296 -10C128 84 104 128 162 50C68 222 68 280 80 172L68 700L173 700L173 280C180 210 196 181 173 243C233 130 260 114 212 152C317 90 350 90 287 98C412 98 439 114 382 90C487 152 503 181 466 130C526 243 526 280 518 210L526 700L631 700L631 280C619 172 595 128 631 222C537 50 495 26 571 84C404 -10 350 -10 452 2z" />
      <glyph unicode="V" horiz-adv-x="663" d="M408 0L254 0L7 700L120 700L321 121L341 121L543 700L656 700z" />
      <glyph unicode="W" horiz-adv-x="983" d="M344 0L185 0L12 700L125 700L259 144L279 144L424 700L559 700L704 144L724 144L858 700L971 700L798 0L639 0L502 533L482 533z" />
      <glyph unicode="X" horiz-adv-x="629" d="M124 0L2 0L244 360L17 700L138 700L305 445L325 445L491 700L612 700L385 360L627 0L505 0L325 273L305 273z" />
      <glyph unicode="Y" horiz-adv-x="606" d="M355 0L250 0L250 253L-5 700L110 700L293 375L313 375L496 700L610 700L355 253z" />
      <glyph unicode="Z" horiz-adv-x="589" d="M553 0L37 0L37 90L412 600L42 600L42 700L548 700L548 610L173 100L553 100z" />
      <glyph unicode="[" horiz-adv-x="337" d="M303 -200L80 -200L80 730L303 730L303 638L179 638L179 -108L303 -108z" />
      <glyph unicode="\" horiz-adv-x="374" d="M374 -200L275 -200L0 730L99 730z" />
      <glyph unicode="]" horiz-adv-x="337" d="M257 -200L33 -200L33 -108L158 -108L158 638L33 638L33 730L257 730z" />
      <glyph unicode="^" horiz-adv-x="422" d="M139 424L50 424L158 700L265 700L373 424L283 424L214 609L209 609z" />
      <glyph unicode="_" horiz-adv-x="373" d="M393 -192L-20 -192L-20 -100L393 -100z" />
      <glyph unicode="`" horiz-adv-x="265" d="M235 579L147 579L30 722L139 722z" />
      <glyph unicode="a" horiz-adv-x="540" d="M224 -10C157 -3 130 10 188 -10C81 42 67 66 102 24C45 116 45 146 52 90C113 308 248 308 45 244L376 308L376 321C335 428 270 428 376 386C166 395 160 355 207 428L63 355C74 408 91 432 65 382C131 476 162 491 107 456C228 513 270 513 192 505C475 438 475 321 395 513L475 0L389 0L379 55L374 55C294 -10 224 -10 351 21zM234 75C376 127 376 211 322 75L376 229L255 229C144 196 144 150 180 229C176 75 234 75 144 104z" />
      <glyph unicode="b" horiz-adv-x="598" d="M328 -10C211 14 172 64 263 -10L167 64L157 0L72 0L72 700L171 700L171 441L176 441C264 513 328 513 214 489C410 502 446 480 371 513C509 427 529 387 481 458C560 302 560 252 549 347C549 156 529 116 560 201C481 45 446 23 509 76C371 -10 328 -10 410 1zM316 81C366 88 388 102 342 81C428 136 441 162 410 116C461 218 461 252 454 188C454 314 441 340 461 285C410 386 388 400 428 366C342 421 316 421 366 414C265 414 243 400 290 421C203 366 190 340 221 386C171 285 171 252 177 314C177 188 190 162 171 218C221 116 243 102 203 136C290 81 316 81 265 88z" />
      <glyph unicode="c" horiz-adv-x="551" d="M287 -10C198 1 160 23 240 -10C92 76 70 116 122 45C38 201 38 252 48 156C48 346 70 386 38 302C122 457 160 479 92 426C240 513 287 513 198 501C494 437 518 331 408 513L418 331C353 421 287 421 400 387C234 414 212 400 259 421C171 366 158 340 189 386C138 285 138 252 144 314C144 189 158 163 138 218C189 117 212 103 171 137C259 82 287 82 234 89C400 117 418 176 353 82L518 176C408 -10 287 -10 494 66z" />
      <glyph unicode="d" horiz-adv-x="599" d="M271 -10C188 1 153 23 227 -10C89 76 69 116 117 45C38 201 38 252 48 156C48 347 69 387 38 302C117 458 153 480 89 427C227 513 271 513 188 502C385 489 423 441 334 513L428 441L428 700L527 700L527 0L442 0L432 64L427 64C336 -10 271 -10 388 14zM283 82C333 89 355 103 309 82C395 137 408 163 377 117C428 218 428 252 421 189C421 314 408 340 428 285C377 386 355 400 395 366C309 421 283 421 333 414C232 414 210 400 256 421C170 366 157 340 188 386C138 285 138 252 144 314C144 188 157 162 138 218C188 117 210 103 170 136C256 82 283 82 232 89z" />
      <glyph unicode="e" horiz-adv-x="565" d="M287 -10C198 1 160 23 240 -10C92 76 70 116 122 45C38 201 38 252 48 156C48 346 70 386 38 302C122 457 160 479 92 426C240 513 287 513 198 501C372 502 408 481 331 513C473 430 494 393 444 459C526 313 526 267 515 355C524 226 521 214 526 243L137 214C208 76 287 76 146 132C387 104 409 144 343 76L512 144C401 -10 287 -10 481 54zM428 290C364 428 287 428 421 370C147 370 137 290 207 428z" />
      <glyph unicode="f" horiz-adv-x="337" d="M106 0L106 410L25 410L25 503L106 503L106 591C147 694 213 694 106 653L312 694L312 605L236 605C205 594 205 574 215 605L205 503L312 503L312 410L205 410L205 0z" />
      <glyph unicode="g" horiz-adv-x="589" d="M288 -210C197 -201 163 -183 239 -210C103 -142 85 -115 129 -165C57 -61 56 -33 67 -88L156 -33C208 -121 288 -121 161 -79C424 -70 424 7 370 -121L424 87L419 87C330 24 268 24 384 48C185 34 150 55 224 24C88 104 68 142 115 75C38 221 38 269 48 179C48 358 68 395 38 316C115 461 150 482 88 432C224 513 268 513 185 502C388 485 422 443 332 513L427 443L437 503L523 503L523 6C513 -74 495 -107 523 -36C449 -165 413 -183 476 -139C336 -210 288 -210 377 -201zM281 114C331 120 353 133 307 114C392 164 405 188 375 146C424 239 424 269 417 212C417 325 405 349 424 299C375 390 353 403 392 372C307 423 281 423 331 416C138 359 138 269 198 423C198 114 281 114 138 177z" />
      <glyph unicode="h" horiz-adv-x="585" d="M72 0L72 700L171 700L171 451L176 451C254 513 320 513 200 483C393 504 423 486 358 513C477 444 494 412 453 468C520 343 520 302 511 380L520 0L421 0L421 294C368 420 299 420 421 366C254 414 234 403 275 420C199 376 188 357 214 391C171 316 171 294 176 337L171 0z" />
      <glyph unicode="i" horiz-adv-x="233" d="M166 0L67 0L67 503L166 503zM171 598L63 598L63 698L171 698z" />
      <glyph unicode="j" horiz-adv-x="233" d="M-42 -200L-42 -108L35 -108C67 -97 67 -77 56 -108L67 503L166 503L166 -98C123 -200 57 -200 166 -159zM171 598L63 598L63 698L171 698z" />
      <glyph unicode="k" horiz-adv-x="502" d="M171 0L72 0L72 700L171 700L171 274L378 503L498 503L272 257L508 0L388 0L171 239z" />
      <glyph unicode="l" horiz-adv-x="243" d="M171 0L72 0L72 700L171 700z" />
      <glyph unicode="m" horiz-adv-x="852" d="M67 0L67 503L152 503L162 451L167 451C240 513 294 513 192 483C418 473 438 433 363 513L443 433C532 513 604 513 469 474C669 504 697 487 638 513C747 447 763 417 725 470C787 352 787 314 779 387L787 0L688 0L688 308C648 420 587 420 688 377C476 370 476 308 527 420L476 0L378 0L378 308C337 420 276 420 378 376C166 370 166 308 216 420L166 0z" />
      <glyph unicode="n" horiz-adv-x="580" d="M67 0L67 503L152 503L162 451L167 451C247 513 315 513 192 483C388 504 418 486 353 513C472 444 489 412 448 468C515 343 515 302 506 380L515 0L416 0L416 294C363 420 294 420 416 366C249 414 229 403 270 420C194 376 183 357 209 391C166 316 166 294 171 337L166 0z" />
      <glyph unicode="o" horiz-adv-x="574" d="M287 -10C198 1 160 23 240 -10C92 76 70 116 122 45C38 201 38 252 48 156C48 346 70 386 38 302C122 457 160 479 92 426C240 513 287 513 198 501C375 501 413 479 333 513C480 426 502 386 451 457C535 302 535 252 524 346C524 156 502 116 535 201C451 45 413 23 480 76C333 -10 287 -10 375 1zM287 82C339 89 362 103 314 82C403 137 417 163 385 117C437 218 437 252 430 189C430 314 417 340 437 285C385 386 362 400 403 366C314 421 287 421 339 414C234 414 211 400 259 421C170 366 157 340 188 386C137 285 137 252 143 314C143 189 157 163 137 218C188 117 211 103 170 137C259 82 287 82 234 89z" />
      <glyph unicode="p" horiz-adv-x="593" d="M67 -200L67 503L152 503L162 439L167 439C257 513 323 513 205 488C405 502 441 480 366 513C504 427 524 387 476 458C555 302 555 252 544 347C544 156 524 116 555 201C476 45 441 23 504 76C366 -10 323 -10 405 1C205 17 171 61 256 -10L166 61L166 -200zM311 82C361 89 383 103 337 82C423 137 436 163 405 117C456 218 456 252 449 189C449 314 436 340 456 285C405 386 383 400 423 366C337 421 311 421 361 414C260 414 238 400 285 421C198 366 185 340 216 386C166 285 166 252 172 314C172 189 185 163 166 218C216 117 238 103 198 137C285 82 311 82 260 89z" />
      <glyph unicode="q" horiz-adv-x="594" d="M428 -200L428 61L423 61C334 -10 271 -10 385 13C188 1 153 23 227 -10C89 76 69 116 117 45C38 201 38 252 48 156C48 347 69 387 38 302C117 458 153 480 89 427C227 513 271 513 188 502C388 488 427 439 336 513L432 439L442 503L527 503L527 -200zM283 82C333 89 355 103 309 82C395 137 408 163 377 117C428 218 428 252 421 189C421 314 408 340 428 285C377 386 355 400 395 366C309 421 283 421 333 414C232 414 210 400 256 421C170 366 157 340 188 386C138 285 138 252 144 314C144 188 157 162 138 218C188 117 210 103 170 136C256 82 283 82 232 89z" />
      <glyph unicode="r" horiz-adv-x="361" d="M67 0L67 503L152 503L162 456L167 456C213 503 261 503 187 486L349 503L349 410L270 410C166 372 166 306 203 410L166 0z" />
      <glyph unicode="s" horiz-adv-x="478" d="M238 -10C155 -2 123 14 193 -10C68 50 52 74 91 30C28 123 28 149 36 98L126 149C167 74 238 74 126 107C346 101 346 139 308 74C323 195 269 205 346 175L187 219C36 284 36 363 86 236C106 513 233 513 36 449C311 505 342 490 275 513C397 455 413 431 373 474C438 381 438 355 429 407L341 355C298 429 233 429 341 396C134 400 134 363 169 429C156 312 208 303 134 332L291 289C444 222 444 140 395 271C370 -10 238 -10 444 53z" />
      <glyph unicode="t" horiz-adv-x="364" d="M213 0C105 39 105 102 145 0L105 410L25 410L25 503L105 503L105 649L204 649L204 503L319 503L319 410L204 410L204 122C214 91 235 91 204 101L319 91L319 0z" />
      <glyph unicode="u" horiz-adv-x="582" d="M267 -10C193 -1 163 16 228 -10C109 59 92 91 133 34C67 159 67 201 75 123L67 503L166 503L166 209C218 83 288 83 166 137C332 88 352 100 311 83C387 126 399 146 372 111C416 186 416 209 410 165L416 503L515 503L515 0L430 0L420 52L415 52C332 -10 267 -10 387 18z" />
      <glyph unicode="v" horiz-adv-x="513" d="M329 0L184 0L7 503L111 503L247 112L267 112L403 503L507 503z" />
      <glyph unicode="w" horiz-adv-x="795" d="M293 0L145 0L12 503L116 503L214 124L234 124L333 503L462 503L561 124L581 124L679 503L783 503L649 0L502 0L408 368L388 368z" />
      <glyph unicode="x" horiz-adv-x="498" d="M119 0L5 0L175 257L12 503L125 503L239 328L259 328L372 503L486 503L323 257L493 0L378 0L259 185L239 185z" />
      <glyph unicode="y" horiz-adv-x="513" d="M403 503L508 503L285 -119C236 -200 172 -200 265 -176L63 -200L63 -108L161 -108C189 -99 195 -81 177 -108L212 -34L5 503L110 503L253 120L273 120z" />
      <glyph unicode="z" horiz-adv-x="451" d="M424 0L27 0L27 86L292 413L32 413L32 503L419 503L419 418L154 91L424 91z" />
      <glyph unicode="{" horiz-adv-x="340" d="M247 -200C118 -150 118 -73 168 -200L118 155C93 213 51 213 118 189L51 317C118 340 118 375 93 317L118 603C168 730 247 730 118 680L307 730L307 642L265 642C217 626 217 594 233 642L217 367C174 277 132 275 217 309L132 255C217 220 217 163 174 252L217 -64C233 -112 265 -112 217 -96L307 -112L307 -200z" />
      <glyph unicode="|" horiz-adv-x="338" d="M218 -200L120 -200L120 730L218 730z" />
      <glyph unicode="}" horiz-adv-x="340" d="M33 -200L33 -112L75 -112C123 -96 123 -64 107 -112L123 163C165 252 208 255 123 220L208 275C123 309 123 367 165 277L123 594C107 642 75 642 123 626L33 642L33 730L93 730C222 680 222 603 171 730L222 375C246 317 289 317 222 340L289 213C222 189 222 155 246 213L222 -73C171 -200 93 -200 222 -150z" />
      <glyph unicode="~" horiz-adv-x="576" d="M42 188C99 369 194 369 42 304C270 348 308 314 242 369C351 277 374 277 338 287C438 305 438 363 416 277L534 363C476 182 382 182 534 245C306 201 268 236 334 182C224 273 202 273 240 261C138 244 138 188 159 273z" />
      <glyph unicode="&#xA0;" horiz-adv-x="243" />
      <glyph unicode="&#xA1;" horiz-adv-x="268" d="M190 390L78 390L78 503L190 503zM187 -197L82 -197L82 91L95 322L173 322L187 91z" />
      <glyph unicode="&#xA2;" horiz-adv-x="551" d="M238 -4C165 18 135 41 200 3C81 94 64 130 105 64C38 207 38 252 46 166C46 336 63 372 38 296C104 437 134 461 80 408C199 499 238 507 164 484L238 613L333 613L333 507C495 425 518 331 429 489L418 331C353 421 287 421 400 387C234 414 212 400 259 421C171 366 158 340 189 386C138 285 138 252 144 314C144 189 158 163 138 218C189 117 212 103 171 137C259 82 287 82 234 89C400 117 418 176 353 82L518 176C430 14 333 -4 495 77L333 -110L238 -110z" />
      <glyph unicode="&#xA3;" horiz-adv-x="601" d="M34 0L34 98L61 98C117 116 117 154 98 98L117 294L34 294L34 379L117 379L117 501C126 576 144 608 117 540C188 665 222 683 162 640C294 710 338 710 255 701C421 701 455 683 382 710C515 641 533 610 489 665C561 544 561 506 551 579L456 506C409 612 339 612 456 566C222 565 222 499 269 612L222 379L413 379L413 294L222 294L222 154C207 103 193 98 222 124L576 98L576 0z" />
      <glyph unicode="&#xA4;" horiz-adv-x="576" d="M133 139L76 191L131 255C106 310 106 350 117 272C117 427 131 445 106 390L76 509L133 561L188 502C246 532 288 532 208 518C368 518 388 502 329 532L442 561L499 509L445 445C470 390 470 350 458 427C458 272 445 255 470 310L499 191L442 139L388 198C329 168 288 168 368 182C208 182 188 198 246 168zM288 242C395 291 395 350 346 242C346 458 288 458 395 408C181 408 181 350 229 458C229 242 288 242 181 291z" />
      <glyph unicode="&#xA5;" horiz-adv-x="600" d="M353 0L248 0L248 131L80 131L80 213L248 213L248 288L80 288L80 370L187 370L4 700L118 700L290 380L310 380L482 700L596 700L414 370L520 370L520 288L353 288L353 213L520 213L520 131L353 131z" />
      <glyph unicode="&#xA6;" horiz-adv-x="338" d="M218 356L120 356L120 730L218 730zM218 -200L120 -200L120 174L218 174z" />
      <glyph unicode="&#xA7;" horiz-adv-x="631" d="M318 -170C224 -160 187 -142 268 -170C121 -99 101 -67 149 -124C72 0 72 38 81 -35L177 38C228 -78 318 -78 177 -31C449 -42 449 10 404 -78C416 90 350 104 449 59L252 124C62 208 62 300 121 149C92 405 123 428 62 356C82 486 82 533 101 446C90 596 108 623 82 566C151 671 186 687 125 650C262 710 311 710 220 702C403 700 440 682 360 710C504 639 524 608 476 664C554 541 554 503 544 576L449 503C397 618 311 618 449 571C187 580 187 530 231 618C210 463 281 450 187 486L379 430C569 347 569 253 511 403C538 144 508 122 569 195C554 59 554 7 530 102C544 -55 526 -82 554 -25C481 -130 446 -146 508 -108C368 -170 318 -170 410 -162zM429 173C464 214 464 252 446 185C431 327 367 341 464 298L276 359C220 372 206 378 243 365C167 336 167 302 186 364C199 226 264 213 167 256L355 194C415 179 429 173 391 186z" />
      <glyph unicode="&#xA8;" horiz-adv-x="341" d="M129 599L30 599L30 698L129 698zM311 599L212 599L212 698L311 698z" />
      <glyph unicode="&#xA9;" horiz-adv-x="837" d="M418 -10C288 5 233 37 350 -10C135 111 104 166 178 68C57 282 57 350 72 221C72 478 104 533 57 417C178 631 233 663 135 588C350 710 418 710 288 694C547 694 602 663 486 710C700 588 732 533 657 631C780 417 780 350 764 478C764 221 732 166 780 282C657 68 602 37 700 111C486 -10 418 -10 547 5zM418 66C517 78 560 103 470 66C636 161 661 205 602 127C699 296 699 350 686 248C686 451 661 495 699 403C602 572 560 597 636 538C470 634 418 634 517 621C319 621 277 597 366 634C200 538 175 495 234 572C138 403 138 350 150 451C150 248 175 205 138 296C234 127 277 103 200 161C366 66 418 66 319 78zM423 162C357 170 330 186 388 162C281 225 265 254 302 202C242 314 242 350 249 282C250 417 266 446 242 385C303 497 331 513 282 474C389 538 423 538 359 529C573 482 592 409 508 538L516 409C471 469 423 469 502 449C318 422 318 350 361 469C361 231 423 231 318 278C502 252 516 296 471 231L592 296C508 162 423 162 573 218z" />
      <glyph unicode="&#xAA;" horiz-adv-x="346" d="M147 384C33 425 33 485 77 384C78 582 157 582 33 542L235 582L235 593C209 649 176 649 235 629C126 636 118 612 145 649L45 612C102 710 176 710 55 670C303 662 303 592 253 710L303 389L250 389L240 426L235 426C188 384 147 384 219 402zM156 445C235 473 235 524 206 445L235 529L160 529C106 513 106 487 128 529C126 445 156 445 106 460z" />
      <glyph unicode="&#xAB;" horiz-adv-x="533" d="M287 53L184 53L42 252L184 451L287 451L144 252zM492 53L389 53L247 252L389 451L492 451L349 252z" />
      <glyph unicode="&#xAC;" horiz-adv-x="534" d="M462 156L364 156L364 285L69 285L69 375L462 375z" />
      <glyph unicode="&#xAD;" horiz-adv-x="418" d="M373 239L45 239L45 331L373 331z" />
      <glyph unicode="&#xAE;" horiz-adv-x="837" d="M418 710C547 694 602 663 486 710C700 588 732 533 657 631C780 417 780 350 764 478C764 221 732 166 780 282C657 68 602 37 700 111C486 -10 418 -10 547 5C288 5 233 37 350 -10C135 111 104 166 178 68C57 282 57 350 72 221C72 478 104 533 57 417C178 631 233 663 135 588C350 710 418 710 288 694zM418 66C517 78 560 103 470 66C636 161 661 205 602 127C699 296 699 350 686 248C686 451 661 495 699 403C602 572 560 597 636 538C470 634 418 634 517 621C319 621 277 597 366 634C200 538 175 495 234 572C138 403 138 350 150 451C150 248 175 205 138 296C234 127 277 103 200 161C366 66 418 66 319 78zM573 413C526 296 466 291 573 345L583 168L496 168L382 290L358 290L358 168L285 168L285 537L448 537C573 483 573 413 520 537zM358 353L445 353C501 376 501 412 478 353C478 471 445 471 501 448L358 471z" />
      <glyph unicode="&#xAF;" horiz-adv-x="355" d="M325 611L30 611L30 686L325 686z" />
      <glyph unicode="&#xB0;" horiz-adv-x="379" d="M190 441C55 499 55 575 112 441C112 710 190 710 55 652C324 652 324 575 266 710C266 441 190 441 324 499zM190 510C255 537 255 575 227 510C227 641 190 641 255 612C124 612 124 575 152 641C152 510 190 510 124 537z" />
      <glyph unicode="&#xB1;" horiz-adv-x="540" d="M318 155L223 155L223 334L49 334L49 425L223 425L223 604L318 604L318 425L492 425L492 334L318 334zM488 0L52 0L52 91L488 91z" />
      <glyph unicode="&#xB2;" horiz-adv-x="335" d="M51 440L51 497L190 638C220 672 220 694 211 658C201 743 169 743 220 722C114 722 114 688 135 743L46 688C97 805 169 805 46 756C288 759 288 694 241 805C273 630 237 593 288 651L153 507L153 502L293 502L293 440z" />
      <glyph unicode="&#xB3;" horiz-adv-x="335" d="M164 435C41 480 41 544 90 435L109 544C133 497 164 497 109 520C220 515 220 546 197 497C197 596 159 596 220 578L133 596L133 656L159 656C215 674 215 701 195 656C194 743 164 743 215 725C114 725 114 701 133 743L46 701C93 805 164 805 46 759C283 761 283 703 236 805C262 643 236 630 283 671L236 625C288 586 288 546 264 615C240 435 164 435 288 483z" />
      <glyph unicode="&#xB4;" horiz-adv-x="265" d="M118 579L30 579L126 722L235 722z" />
      <glyph unicode="&#xB5;" horiz-adv-x="582" d="M67 -200L67 503L166 503L166 209C217 83 288 83 166 135C416 138 416 209 360 83L416 503L515 503L515 0L430 0L420 52L415 52C340 -10 280 -10 392 20C183 12 166 35 228 -10L166 -200z" />
      <glyph unicode="&#xB6;" horiz-adv-x="556" d="M211 344C151 351 126 367 179 344C80 403 65 430 100 382C43 488 43 522 50 457C50 586 65 614 43 556C99 662 125 677 79 641C179 700 211 700 151 692L479 700L479 -100L387 -100L387 613L303 613L303 -100L211 -100z" />
      <glyph unicode="&#xB7;" horiz-adv-x="243" d="M178 208L64 208L64 321L178 321z" />
      <glyph unicode="&#xB8;" horiz-adv-x="219" d="M30 -211L30 -150L72 -150C115 -137 115 -117 100 -150C100 -83 72 -83 115 -97L45 -83L45 -46L73 18L138 0L118 -46C189 -85 189 -125 155 -54C149 -211 85 -211 189 -175z" />
      <glyph unicode="&#xB9;" horiz-adv-x="261" d="M118 440L118 692L34 692L34 755L90 755C118 764 118 783 108 755L118 800L187 800L187 440z" />
      <glyph unicode="&#xBA;" horiz-adv-x="379" d="M190 384C38 451 38 547 102 384C102 710 190 710 38 643C341 643 341 547 278 710C278 384 190 384 341 451zM190 451C268 489 268 547 234 451C234 643 190 643 268 604C111 604 111 547 146 643C146 451 190 451 111 489z" />
      <glyph unicode="&#xBB;" horiz-adv-x="533" d="M144 53L42 53L184 252L42 451L144 451L287 252zM349 53L247 53L389 252L247 451L349 451L492 252z" />
      <glyph unicode="&#xBC;" horiz-adv-x="697" d="M118 340L118 592L34 592L34 655L90 655C118 664 118 683 108 655L118 700L187 700L187 340zM149 0L71 0L506 700L585 700zM627 0L558 0L558 73L393 73L393 129L527 360L627 360L627 134L673 134L673 73L627 73zM476 139L476 134L558 134L558 270L548 270z" />
      <glyph unicode="&#xBD;" horiz-adv-x="710" d="M118 340L118 592L34 592L34 655L90 655C118 664 118 683 108 655L118 700L187 700L187 340zM149 0L71 0L506 700L585 700zM426 0L426 57L565 198C595 232 595 254 586 218C576 303 544 303 595 282C489 282 489 248 510 303L421 248C472 365 544 365 421 316C663 319 663 254 616 365C648 190 612 153 663 211L528 67L528 62L668 62L668 0z" />
      <glyph unicode="&#xBE;" horiz-adv-x="751" d="M164 335C41 380 41 444 90 335L109 444C133 397 164 397 109 420C220 415 220 446 197 397C197 496 159 496 220 478L133 496L133 556L159 556C215 574 215 601 195 556C194 643 164 643 215 625C114 625 114 601 133 643L46 601C93 705 164 705 46 659C283 661 283 603 236 705C262 543 236 530 283 571L236 525C288 486 288 446 264 515C240 335 164 335 288 383zM203 0L125 0L560 700L639 700zM681 0L612 0L612 73L447 73L447 129L581 360L681 360L681 134L727 134L727 73L681 73zM530 139L530 134L612 134L612 270L602 270z" />
      <glyph unicode="&#xBF;" horiz-adv-x="515" d="M326 390L213 390L213 503L326 503zM263 -207C179 -198 145 -180 219 -207C84 -137 65 -107 111 -162C37 -42 37 -5 46 -76C74 135 148 173 37 76C218 227 218 270 201 198L218 322L321 322L321 270C291 146 214 108 321 188C144 52 144 0 167 84C195 -110 266 -110 144 -62C385 -63 385 -5 336 -110L491 -5C481 -77 462 -108 491 -43C416 -162 382 -180 443 -138C308 -207 263 -207 348 -198z" />
      <glyph unicode="&#xC0;" horiz-adv-x="666" d="M667 0L554 0L494 168L172 168L112 0L-2 0L256 700L410 700zM323 588L206 263L460 263L343 588zM379 770L291 770L174 912L283 912z" />
      <glyph unicode="&#xC1;" horiz-adv-x="666" d="M667 0L554 0L494 168L172 168L112 0L-2 0L256 700L410 700zM323 588L206 263L460 263L343 588zM375 770L287 770L383 912L492 912z" />
      <glyph unicode="&#xC2;" horiz-adv-x="666" d="M667 0L554 0L494 168L172 168L112 0L-2 0L256 700L410 700zM323 588L206 263L460 263L343 588zM265 770L168 770L285 909L381 909L498 770L401 770L333 853z" />
      <glyph unicode="&#xC3;" horiz-adv-x="666" d="M667 0L554 0L494 168L172 168L112 0L-2 0L256 700L410 700zM323 588L206 263L460 263L343 588zM170 785C214 896 274 896 170 854C314 888 340 872 298 896C346 869 352 865 342 871C364 858 370 856 358 861C380 854 385 854 375 854C423 869 423 896 405 854L494 896C449 785 391 785 494 828C350 794 324 810 365 785C293 828 279 828 302 822C241 811 241 785 259 828z" />
      <glyph unicode="&#xC4;" horiz-adv-x="666" d="M667 0L554 0L494 168L172 168L112 0L-2 0L256 700L410 700zM323 588L206 263L460 263L343 588zM292 793L193 793L193 892L292 892zM474 793L375 793L375 892L474 892z" />
      <glyph unicode="&#xC5;" horiz-adv-x="666" d="M667 0L554 0L494 168L172 168L112 0L-2 0L256 700L410 700zM323 588L206 263L460 263L343 588zM333 756C237 797 237 851 279 756C278 946 333 946 237 903C428 903 428 851 386 946C386 756 333 756 428 797zM333 811C372 827 372 851 354 811C354 890 333 890 372 873C293 873 293 851 311 890C311 811 333 811 293 827z" />
      <glyph unicode="&#xC6;" horiz-adv-x="938" d="M884 700L884 603L530 603L530 399L864 399L864 304L530 304L530 97L884 97L884 0L425 0L425 166L171 166L100 0L-13 0L292 700zM359 603L212 261L425 261L425 603z" />
      <glyph unicode="&#xC7;" horiz-adv-x="730" d="M383 90C560 150 588 241 484 90L697 241C557 1 409 -9 663 103L393 -46C464 -85 464 -125 430 -54C424 -211 360 -211 464 -175L305 -211L305 -150L347 -150C390 -137 390 -117 375 -150C375 -83 347 -83 390 -97L320 -83L320 -46L337 -7C233 20 189 52 282 0C110 125 85 177 145 84C47 286 47 350 59 229C62 481 92 536 47 419C162 633 213 664 122 590C321 710 383 710 264 694C484 699 528 677 436 710C607 626 636 589 571 655C685 510 697 464 665 551L588 464C481 610 383 610 558 550C302 599 267 577 341 610C203 525 183 485 231 555C152 400 152 350 162 445C162 254 183 214 152 299C231 144 267 122 203 174C341 90 383 90 302 100z" />
      <glyph unicode="&#xC8;" horiz-adv-x="590" d="M536 0L77 0L77 700L536 700L536 603L182 603L182 399L516 399L516 304L182 304L182 97L536 97zM358 770L270 770L153 912L262 912z" />
      <glyph unicode="&#xC9;" horiz-adv-x="590" d="M536 0L77 0L77 700L536 700L536 603L182 603L182 399L516 399L516 304L182 304L182 97L536 97zM354 770L266 770L362 912L471 912z" />
      <glyph unicode="&#xCA;" horiz-adv-x="590" d="M536 0L77 0L77 700L536 700L536 603L182 603L182 399L516 399L516 304L182 304L182 97L536 97zM244 770L147 770L264 909L360 909L477 770L380 770L312 853z" />
      <glyph unicode="&#xCB;" horiz-adv-x="590" d="M536 0L77 0L77 700L536 700L536 603L182 603L182 399L516 399L516 304L182 304L182 97L536 97zM270 793L171 793L171 892L270 892zM452 793L353 793L353 892L452 892z" />
      <glyph unicode="&#xCC;" horiz-adv-x="259" d="M182 0L77 0L77 700L182 700zM175 770L87 770L-30 912L79 912z" />
      <glyph unicode="&#xCD;" horiz-adv-x="259" d="M182 0L77 0L77 700L182 700zM171 770L83 770L179 912L288 912z" />
      <glyph unicode="&#xCE;" horiz-adv-x="259" d="M182 0L77 0L77 700L182 700zM62 770L-35 770L82 909L178 909L295 770L198 770L130 853z" />
      <glyph unicode="&#xCF;" horiz-adv-x="259" d="M182 0L77 0L77 700L182 700zM88 793L-11 793L-11 892L88 892zM270 793L171 793L171 892L270 892z" />
      <glyph unicode="&#xD0;" horiz-adv-x="738" d="M355 700C475 685 527 655 418 700C618 583 647 530 578 625C691 416 691 350 676 476C676 223 647 170 691 283C578 75 527 45 618 116C418 0 355 0 475 15L112 0L112 307L22 307L22 397L112 397L112 700zM355 100C437 110 473 131 398 100C536 182 556 220 508 152C586 301 586 350 576 258C576 442 556 480 586 398C508 547 473 568 536 518C398 600 355 600 437 589L217 600L217 397L386 397L386 307L217 307L217 100z" />
      <glyph unicode="&#xD1;" horiz-adv-x="718" d="M182 0L77 0L77 700L231 700L516 153L536 153L536 700L641 700L641 0L487 0L202 547L182 547zM196 785C240 896 300 896 196 854C340 888 366 872 324 896C372 869 378 865 368 871C390 858 396 856 384 861C406 854 411 854 401 854C449 869 449 896 431 854L520 896C475 785 417 785 520 828C376 794 350 810 391 785C319 828 305 828 328 822C267 811 267 785 285 828z" />
      <glyph unicode="&#xD2;" horiz-adv-x="767" d="M383 -10C264 5 213 36 321 -10C122 109 92 164 162 66C47 280 47 350 62 218C62 481 92 536 47 419C162 633 213 664 122 590C321 710 383 710 264 694C501 694 553 664 445 710C645 590 675 536 604 633C720 419 720 350 705 481C705 218 675 164 720 280C604 66 553 36 645 109C445 -10 383 -10 501 5zM383 90C464 100 500 122 425 90C563 174 584 214 535 144C615 299 615 350 604 254C604 445 584 485 615 400C535 555 500 577 563 525C425 610 383 610 464 599C302 599 267 577 341 610C203 525 183 485 231 555C152 400 152 350 162 445C162 254 183 214 152 299C231 144 267 122 203 174C341 90 383 90 302 100zM429 770L341 770L224 912L333 912z" />
      <glyph unicode="&#xD3;" horiz-adv-x="767" d="M383 -10C264 5 213 36 321 -10C122 109 92 164 162 66C47 280 47 350 62 218C62 481 92 536 47 419C162 633 213 664 122 590C321 710 383 710 264 694C501 694 553 664 445 710C645 590 675 536 604 633C720 419 720 350 705 481C705 218 675 164 720 280C604 66 553 36 645 109C445 -10 383 -10 501 5zM383 90C464 100 500 122 425 90C563 174 584 214 535 144C615 299 615 350 604 254C604 445 584 485 615 400C535 555 500 577 563 525C425 610 383 610 464 599C302 599 267 577 341 610C203 525 183 485 231 555C152 400 152 350 162 445C162 254 183 214 152 299C231 144 267 122 203 174C341 90 383 90 302 100zM425 770L337 770L433 912L542 912z" />
      <glyph unicode="&#xD4;" horiz-adv-x="767" d="M383 -10C264 5 213 36 321 -10C122 109 92 164 162 66C47 280 47 350 62 218C62 481 92 536 47 419C162 633 213 664 122 590C321 710 383 710 264 694C501 694 553 664 445 710C645 590 675 536 604 633C720 419 720 350 705 481C705 218 675 164 720 280C604 66 553 36 645 109C445 -10 383 -10 501 5zM383 90C464 100 500 122 425 90C563 174 584 214 535 144C615 299 615 350 604 254C604 445 584 485 615 400C535 555 500 577 563 525C425 610 383 610 464 599C302 599 267 577 341 610C203 525 183 485 231 555C152 400 152 350 162 445C162 254 183 214 152 299C231 144 267 122 203 174C341 90 383 90 302 100zM316 770L219 770L336 909L432 909L549 770L452 770L384 853z" />
      <glyph unicode="&#xD5;" horiz-adv-x="767" d="M383 -10C264 5 213 36 321 -10C122 109 92 164 162 66C47 280 47 350 62 218C62 481 92 536 47 419C162 633 213 664 122 590C321 710 383 710 264 694C501 694 553 664 445 710C645 590 675 536 604 633C720 419 720 350 705 481C705 218 675 164 720 280C604 66 553 36 645 109C445 -10 383 -10 501 5zM383 90C464 100 500 122 425 90C563 174 584 214 535 144C615 299 615 350 604 254C604 445 584 485 615 400C535 555 500 577 563 525C425 610 383 610 464 599C302 599 267 577 341 610C203 525 183 485 231 555C152 400 152 350 162 445C162 254 183 214 152 299C231 144 267 122 203 174C341 90 383 90 302 100zM221 785C265 896 325 896 221 854C365 888 391 872 349 896C397 869 403 865 393 871C415 858 421 856 409 861C431 854 436 854 426 854C474 869 474 896 456 854L545 896C500 785 442 785 545 828C401 794 375 810 416 785C344 828 330 828 353 822C292 811 292 785 310 828z" />
      <glyph unicode="&#xD6;" horiz-adv-x="767" d="M383 -10C264 5 213 36 321 -10C122 109 92 164 162 66C47 280 47 350 62 218C62 481 92 536 47 419C162 633 213 664 122 590C321 710 383 710 264 694C501 694 553 664 445 710C645 590 675 536 604 633C720 419 720 350 705 481C705 218 675 164 720 280C604 66 553 36 645 109C445 -10 383 -10 501 5zM383 90C464 100 500 122 425 90C563 174 584 214 535 144C615 299 615 350 604 254C604 445 584 485 615 400C535 555 500 577 563 525C425 610 383 610 464 599C302 599 267 577 341 610C203 525 183 485 231 555C152 400 152 350 162 445C162 254 183 214 152 299C231 144 267 122 203 174C341 90 383 90 302 100zM342 793L243 793L243 892L342 892zM524 793L425 793L425 892L524 892z" />
      <glyph unicode="&#xD7;" horiz-adv-x="538" d="M269 228L134 94L68 160L203 294L68 429L134 495L269 361L403 495L469 429L335 294L469 160L403 94z" />
      <glyph unicode="&#xD8;" horiz-adv-x="767" d="M588 640C720 472 720 350 670 574C705 218 675 164 720 280C604 66 553 36 645 109C445 -10 383 -10 501 5C296 -1 256 15 339 -10L230 -35L128 -35L178 60C47 227 47 350 96 124C62 481 92 536 47 419C162 633 213 664 122 590C321 710 383 710 264 694C469 701 511 685 426 710L537 735L638 735zM152 350C180 199 228 153 152 268L463 596C410 610 383 610 437 605C302 599 267 577 341 610C203 525 183 485 231 555C152 400 152 350 162 445zM383 90C464 100 500 122 425 90C563 174 584 214 535 144C615 299 615 350 604 254C587 499 539 547 615 431L304 104C356 90 383 90 330 94z" />
      <glyph unicode="&#xD9;" horiz-adv-x="699" d="M350 -10C247 2 205 26 296 -10C128 84 104 128 162 50C68 222 68 280 80 172L68 700L173 700L173 280C180 210 196 181 173 243C233 130 260 114 212 152C317 90 350 90 287 98C412 98 439 114 382 90C487 152 503 181 466 130C526 243 526 280 518 210L526 700L631 700L631 280C619 172 595 128 631 222C537 50 495 26 571 84C404 -10 350 -10 452 2zM396 770L308 770L191 912L300 912z" />
      <glyph unicode="&#xDA;" horiz-adv-x="699" d="M350 -10C247 2 205 26 296 -10C128 84 104 128 162 50C68 222 68 280 80 172L68 700L173 700L173 280C180 210 196 181 173 243C233 130 260 114 212 152C317 90 350 90 287 98C412 98 439 114 382 90C487 152 503 181 466 130C526 243 526 280 518 210L526 700L631 700L631 280C619 172 595 128 631 222C537 50 495 26 571 84C404 -10 350 -10 452 2zM392 770L304 770L400 912L509 912z" />
      <glyph unicode="&#xDB;" horiz-adv-x="699" d="M350 -10C247 2 205 26 296 -10C128 84 104 128 162 50C68 222 68 280 80 172L68 700L173 700L173 280C180 210 196 181 173 243C233 130 260 114 212 152C317 90 350 90 287 98C412 98 439 114 382 90C487 152 503 181 466 130C526 243 526 280 518 210L526 700L631 700L631 280C619 172 595 128 631 222C537 50 495 26 571 84C404 -10 350 -10 452 2zM282 770L185 770L302 909L398 909L515 770L418 770L350 853z" />
      <glyph unicode="&#xDC;" horiz-adv-x="699" d="M350 -10C247 2 205 26 296 -10C128 84 104 128 162 50C68 222 68 280 80 172L68 700L173 700L173 280C180 210 196 181 173 243C233 130 260 114 212 152C317 90 350 90 287 98C412 98 439 114 382 90C487 152 503 181 466 130C526 243 526 280 518 210L526 700L631 700L631 280C619 172 595 128 631 222C537 50 495 26 571 84C404 -10 350 -10 452 2zM308 793L209 793L209 892L308 892zM490 793L391 793L391 892L490 892z" />
      <glyph unicode="&#xDD;" horiz-adv-x="606" d="M355 0L250 0L250 253L-5 700L110 700L293 375L313 375L496 700L610 700L355 253zM345 770L257 770L353 912L462 912z" />
      <glyph unicode="&#xDE;" horiz-adv-x="701" d="M77 0L77 700L182 700L182 559L448 559C526 550 558 532 489 559C614 490 632 458 590 514C659 390 659 350 650 426C650 273 632 241 659 309C590 185 558 167 614 209C489 141 448 141 526 149L182 141L182 0zM446 239C554 284 554 350 508 239C508 461 446 461 554 415L182 461L182 239z" />
      <glyph unicode="&#xDF;" horiz-adv-x="566" d="M66 508C74 583 92 614 66 548C135 668 168 685 110 644C240 711 285 711 201 702C368 702 402 685 329 711C461 644 479 614 436 667C506 551 506 514 497 584C461 378 415 362 506 434L415 357C528 278 528 196 472 338C519 124 501 94 528 158C456 41 422 25 483 64C347 0 301 0 388 8L258 0L258 90L291 90C427 137 427 201 375 90C375 312 291 312 427 265L258 312L258 401L290 401C405 448 405 511 359 401C355 620 285 620 405 573C167 572 167 508 217 620L167 0L66 0z" />
      <glyph unicode="&#xE0;" horiz-adv-x="540" d="M224 -10C157 -3 130 10 188 -10C81 42 67 66 102 24C45 116 45 146 52 90C113 308 248 308 45 244L376 308L376 321C335 428 270 428 376 386C166 395 160 355 207 428L63 355C74 408 91 432 65 382C131 476 162 491 107 456C228 513 270 513 192 505C475 438 475 321 395 513L475 0L389 0L379 55L374 55C294 -10 224 -10 351 21zM234 75C376 127 376 211 322 75L376 229L255 229C144 196 144 150 180 229C176 75 234 75 144 104zM320 579L232 579L115 722L224 722z" />
      <glyph unicode="&#xE1;" horiz-adv-x="540" d="M224 -10C157 -3 130 10 188 -10C81 42 67 66 102 24C45 116 45 146 52 90C113 308 248 308 45 244L376 308L376 321C335 428 270 428 376 386C166 395 160 355 207 428L63 355C74 408 91 432 65 382C131 476 162 491 107 456C228 513 270 513 192 505C475 438 475 321 395 513L475 0L389 0L379 55L374 55C294 -10 224 -10 351 21zM234 75C376 127 376 211 322 75L376 229L255 229C144 196 144 150 180 229C176 75 234 75 144 104zM317 579L229 579L325 722L434 722z" />
      <glyph unicode="&#xE2;" horiz-adv-x="540" d="M224 -10C157 -3 130 10 188 -10C81 42 67 66 102 24C45 116 45 146 52 90C113 308 248 308 45 244L376 308L376 321C335 428 270 428 376 386C166 395 160 355 207 428L63 355C74 408 91 432 65 382C131 476 162 491 107 456C228 513 270 513 192 505C475 438 475 321 395 513L475 0L389 0L379 55L374 55C294 -10 224 -10 351 21zM234 75C376 127 376 211 322 75L376 229L255 229C144 196 144 150 180 229C176 75 234 75 144 104zM204 579L107 579L224 718L320 718L437 579L340 579L272 662z" />
      <glyph unicode="&#xE3;" horiz-adv-x="540" d="M224 -10C157 -3 130 10 188 -10C81 42 67 66 102 24C45 116 45 146 52 90C113 308 248 308 45 244L376 308L376 321C335 428 270 428 376 386C166 395 160 355 207 428L63 355C74 408 91 432 65 382C131 476 162 491 107 456C228 513 270 513 192 505C475 438 475 321 395 513L475 0L389 0L379 55L374 55C294 -10 224 -10 351 21zM234 75C376 127 376 211 322 75L376 229L255 229C144 196 144 150 180 229C176 75 234 75 144 104zM109 595C154 706 213 706 109 663C255 697 279 681 237 706C285 678 291 674 281 680C303 667 309 665 297 670C319 663 324 663 314 663C362 679 362 706 344 663L433 706C388 595 330 595 433 636C292 603 263 619 306 595C232 637 218 637 241 631C180 621 180 595 198 637z" />
      <glyph unicode="&#xE4;" horiz-adv-x="540" d="M224 -10C157 -3 130 10 188 -10C81 42 67 66 102 24C45 116 45 146 52 90C113 308 248 308 45 244L376 308L376 321C335 428 270 428 376 386C166 395 160 355 207 428L63 355C74 408 91 432 65 382C131 476 162 491 107 456C228 513 270 513 192 505C475 438 475 321 395 513L475 0L389 0L379 55L374 55C294 -10 224 -10 351 21zM234 75C376 127 376 211 322 75L376 229L255 229C144 196 144 150 180 229C176 75 234 75 144 104zM230 599L131 599L131 698L230 698zM412 599L313 599L313 698L412 698z" />
      <glyph unicode="&#xE5;" horiz-adv-x="540" d="M224 -10C157 -3 130 10 188 -10C81 42 67 66 102 24C45 116 45 146 52 90C113 308 248 308 45 244L376 308L376 321C335 428 270 428 376 386C166 395 160 355 207 428L63 355C74 408 91 432 65 382C131 476 162 491 107 456C228 513 270 513 192 505C475 438 475 321 395 513L475 0L389 0L379 55L374 55C294 -10 224 -10 351 21zM234 75C376 127 376 211 322 75L376 229L255 229C144 196 144 150 180 229C176 75 234 75 144 104zM272 565C176 606 176 660 218 565C217 755 272 755 176 713C367 713 367 660 325 755C325 565 272 565 367 606zM272 620C311 636 311 660 293 620C293 699 272 699 311 682C232 682 232 660 250 699C250 620 272 620 232 636z" />
      <glyph unicode="&#xE6;" horiz-adv-x="893" d="M854 268C852 231 849 218 854 248L476 218C542 76 620 76 485 134C714 101 737 144 672 76L839 144C728 -10 620 -10 805 48C461 34 428 92 544 -10C311 -10 227 -10 394 33C158 -3 131 10 190 -10C82 41 67 64 103 23C45 113 45 142 52 87C113 300 248 300 45 238L377 300L377 320C336 428 270 428 377 385C166 396 160 355 208 428L63 355C74 409 91 433 65 383C131 476 161 491 107 457C227 513 269 513 191 505C407 476 439 416 347 513C540 513 620 513 475 476C704 502 740 482 664 513C804 432 824 395 776 461C854 315 854 268 844 357zM756 295C693 428 620 428 750 375C485 373 477 295 542 428zM234 75C377 127 377 211 323 75L377 221L255 221C144 191 144 146 181 221C176 75 234 75 144 103z" />
      <glyph unicode="&#xE7;" horiz-adv-x="551" d="M287 82C400 117 418 176 353 82L518 176C422 4 317 -8 496 76L301 -46C372 -85 372 -125 338 -54C332 -211 268 -211 372 -175L213 -211L213 -150L255 -150C298 -137 298 -117 283 -150C283 -83 255 -83 298 -97L228 -83L228 -46L245 -7C169 13 138 37 205 -1C82 91 64 128 106 61C38 206 38 252 46 165C48 346 70 386 38 302C122 457 160 479 92 426C240 513 287 513 198 501C494 437 518 331 408 513L418 331C353 421 287 421 400 387C234 414 212 400 259 421C171 366 158 340 189 386C138 285 138 252 144 314C144 189 158 163 138 218C189 117 212 103 171 137C259 82 287 82 234 89z" />
      <glyph unicode="&#xE8;" horiz-adv-x="565" d="M287 -10C198 1 160 23 240 -10C92 76 70 116 122 45C38 201 38 252 48 156C48 346 70 386 38 302C122 457 160 479 92 426C240 513 287 513 198 501C372 502 408 481 331 513C473 430 494 393 444 459C526 313 526 267 515 355C524 226 521 214 526 243L137 214C208 76 287 76 146 132C387 104 409 144 343 76L512 144C401 -10 287 -10 481 54zM428 290C364 428 287 428 421 370C147 370 137 290 207 428zM332 579L244 579L127 722L236 722z" />
      <glyph unicode="&#xE9;" horiz-adv-x="565" d="M287 -10C198 1 160 23 240 -10C92 76 70 116 122 45C38 201 38 252 48 156C48 346 70 386 38 302C122 457 160 479 92 426C240 513 287 513 198 501C372 502 408 481 331 513C473 430 494 393 444 459C526 313 526 267 515 355C524 226 521 214 526 243L137 214C208 76 287 76 146 132C387 104 409 144 343 76L512 144C401 -10 287 -10 481 54zM428 290C364 428 287 428 421 370C147 370 137 290 207 428zM328 579L240 579L336 722L445 722z" />
      <glyph unicode="&#xEA;" horiz-adv-x="565" d="M287 -10C198 1 160 23 240 -10C92 76 70 116 122 45C38 201 38 252 48 156C48 346 70 386 38 302C122 457 160 479 92 426C240 513 287 513 198 501C372 502 408 481 331 513C473 430 494 393 444 459C526 313 526 267 515 355C524 226 521 214 526 243L137 214C208 76 287 76 146 132C387 104 409 144 343 76L512 144C401 -10 287 -10 481 54zM428 290C364 428 287 428 421 370C147 370 137 290 207 428zM215 579L118 579L235 718L331 718L448 579L351 579L283 662z" />
      <glyph unicode="&#xEB;" horiz-adv-x="565" d="M287 -10C198 1 160 23 240 -10C92 76 70 116 122 45C38 201 38 252 48 156C48 346 70 386 38 302C122 457 160 479 92 426C240 513 287 513 198 501C372 502 408 481 331 513C473 430 494 393 444 459C526 313 526 267 515 355C524 226 521 214 526 243L137 214C208 76 287 76 146 132C387 104 409 144 343 76L512 144C401 -10 287 -10 481 54zM428 290C364 428 287 428 421 370C147 370 137 290 207 428zM242 599L143 599L143 698L242 698zM424 599L325 599L325 698L424 698z" />
      <glyph unicode="&#xEC;" horiz-adv-x="233" d="M166 0L67 0L67 503L166 503zM166 579L78 579L-39 722L70 722z" />
      <glyph unicode="&#xED;" horiz-adv-x="233" d="M166 0L67 0L67 503L166 503zM162 579L74 579L170 722L279 722z" />
      <glyph unicode="&#xEE;" horiz-adv-x="233" d="M166 0L67 0L67 503L166 503zM49 579L-48 579L69 718L165 718L282 579L185 579L117 662z" />
      <glyph unicode="&#xEF;" horiz-adv-x="233" d="M166 0L67 0L67 503L166 503zM86 599L-13 599L-13 698L86 698zM247 599L148 599L148 698L247 698z" />
      <glyph unicode="&#xF0;" horiz-adv-x="562" d="M277 -10C190 0 154 20 231 -10C89 68 69 104 118 40C38 180 38 226 48 140C48 311 68 347 38 271C115 410 151 430 88 383C227 460 271 460 187 450C363 445 398 415 321 460L403 415C346 515 301 561 384 461L176 496L140 558L243 612C162 669 136 683 198 645L209 723C285 673 315 648 238 705L431 708L468 646L369 597C518 391 518 253 454 510C507 153 487 113 518 199C437 43 401 22 466 73C323 -10 277 -10 365 0zM278 82C418 141 418 227 359 82C359 371 278 371 418 312C139 312 139 227 196 371C198 82 278 82 139 141z" />
      <glyph unicode="&#xF1;" horiz-adv-x="580" d="M67 0L67 503L152 503L162 451L167 451C247 513 315 513 192 483C388 504 418 486 353 513C472 444 489 412 448 468C515 343 515 302 506 380L515 0L416 0L416 294C363 420 294 420 416 366C249 414 229 403 270 420C194 376 183 357 209 391C166 316 166 294 171 337L166 0zM135 595C180 706 239 706 135 663C281 697 305 681 263 706C311 678 317 674 307 680C329 667 335 665 323 670C345 663 350 663 340 663C388 679 388 706 370 663L459 706C414 595 356 595 459 636C318 603 289 619 332 595C258 637 244 637 267 631C206 621 206 595 224 637z" />
      <glyph unicode="&#xF2;" horiz-adv-x="574" d="M287 -10C198 1 160 23 240 -10C92 76 70 116 122 45C38 201 38 252 48 156C48 346 70 386 38 302C122 457 160 479 92 426C240 513 287 513 198 501C375 501 413 479 333 513C480 426 502 386 451 457C535 302 535 252 524 346C524 156 502 116 535 201C451 45 413 23 480 76C333 -10 287 -10 375 1zM287 82C339 89 362 103 314 82C403 137 417 163 385 117C437 218 437 252 430 189C430 314 417 340 437 285C385 386 362 400 403 366C314 421 287 421 339 414C234 414 211 400 259 421C170 366 157 340 188 386C137 285 137 252 143 314C143 189 157 163 137 218C188 117 211 103 170 137C259 82 287 82 234 89zM336 579L248 579L131 722L240 722z" />
      <glyph unicode="&#xF3;" horiz-adv-x="574" d="M287 -10C198 1 160 23 240 -10C92 76 70 116 122 45C38 201 38 252 48 156C48 346 70 386 38 302C122 457 160 479 92 426C240 513 287 513 198 501C375 501 413 479 333 513C480 426 502 386 451 457C535 302 535 252 524 346C524 156 502 116 535 201C451 45 413 23 480 76C333 -10 287 -10 375 1zM287 82C339 89 362 103 314 82C403 137 417 163 385 117C437 218 437 252 430 189C430 314 417 340 437 285C385 386 362 400 403 366C314 421 287 421 339 414C234 414 211 400 259 421C170 366 157 340 188 386C137 285 137 252 143 314C143 189 157 163 137 218C188 117 211 103 170 137C259 82 287 82 234 89zM332 579L244 579L340 722L449 722z" />
      <glyph unicode="&#xF4;" horiz-adv-x="574" d="M287 -10C198 1 160 23 240 -10C92 76 70 116 122 45C38 201 38 252 48 156C48 346 70 386 38 302C122 457 160 479 92 426C240 513 287 513 198 501C375 501 413 479 333 513C480 426 502 386 451 457C535 302 535 252 524 346C524 156 502 116 535 201C451 45 413 23 480 76C333 -10 287 -10 375 1zM287 82C339 89 362 103 314 82C403 137 417 163 385 117C437 218 437 252 430 189C430 314 417 340 437 285C385 386 362 400 403 366C314 421 287 421 339 414C234 414 211 400 259 421C170 366 157 340 188 386C137 285 137 252 143 314C143 189 157 163 137 218C188 117 211 103 170 137C259 82 287 82 234 89zM219 579L122 579L239 718L335 718L452 579L355 579L287 662z" />
      <glyph unicode="&#xF5;" horiz-adv-x="574" d="M287 -10C198 1 160 23 240 -10C92 76 70 116 122 45C38 201 38 252 48 156C48 346 70 386 38 302C122 457 160 479 92 426C240 513 287 513 198 501C375 501 413 479 333 513C480 426 502 386 451 457C535 302 535 252 524 346C524 156 502 116 535 201C451 45 413 23 480 76C333 -10 287 -10 375 1zM287 82C339 89 362 103 314 82C403 137 417 163 385 117C437 218 437 252 430 189C430 314 417 340 437 285C385 386 362 400 403 366C314 421 287 421 339 414C234 414 211 400 259 421C170 366 157 340 188 386C137 285 137 252 143 314C143 189 157 163 137 218C188 117 211 103 170 137C259 82 287 82 234 89zM125 595C170 706 229 706 125 663C271 697 295 681 253 706C301 678 307 674 297 680C319 667 325 665 313 670C335 663 340 663 330 663C378 679 378 706 360 663L449 706C404 595 346 595 449 636C308 603 279 619 322 595C248 637 234 637 257 631C196 621 196 595 214 637z" />
      <glyph unicode="&#xF6;" horiz-adv-x="574" d="M287 -10C198 1 160 23 240 -10C92 76 70 116 122 45C38 201 38 252 48 156C48 346 70 386 38 302C122 457 160 479 92 426C240 513 287 513 198 501C375 501 413 479 333 513C480 426 502 386 451 457C535 302 535 252 524 346C524 156 502 116 535 201C451 45 413 23 480 76C333 -10 287 -10 375 1zM287 82C339 89 362 103 314 82C403 137 417 163 385 117C437 218 437 252 430 189C430 314 417 340 437 285C385 386 362 400 403 366C314 421 287 421 339 414C234 414 211 400 259 421C170 366 157 340 188 386C137 285 137 252 143 314C143 189 157 163 137 218C188 117 211 103 170 137C259 82 287 82 234 89zM246 599L147 599L147 698L246 698zM428 599L329 599L329 698L428 698z" />
      <glyph unicode="&#xF7;" horiz-adv-x="536" d="M268 405C215 428 215 458 238 405C238 512 268 512 215 488C322 488 322 458 298 512C298 405 268 405 322 428zM476 246L60 246L60 334L476 334zM268 68C215 91 215 122 238 68C238 175 268 175 215 152C322 152 322 122 298 175C298 68 268 68 322 91z" />
      <glyph unicode="&#xF8;" horiz-adv-x="574" d="M443 459C536 338 536 252 501 412C525 156 503 116 536 201C452 45 414 23 481 76C333 -10 287 -10 376 1C227 -5 199 5 256 -10L178 -35L89 -35L131 44C38 165 38 252 72 90C48 346 70 386 38 302C122 457 160 479 92 426C240 513 287 513 198 501C347 508 375 498 317 513L396 538L485 538zM135 252C149 162 177 130 135 202L331 417C303 424 287 424 317 421C234 416 211 402 259 424C169 367 155 341 187 388C135 285 135 252 141 315zM287 79C340 86 363 100 315 79C404 135 418 161 386 114C439 218 439 252 432 187C425 342 397 374 439 301L243 86C271 79 287 79 256 81z" />
      <glyph unicode="&#xF9;" horiz-adv-x="582" d="M267 -10C193 -1 163 16 228 -10C109 59 92 91 133 34C67 159 67 201 75 123L67 503L166 503L166 209C218 83 288 83 166 137C332 88 352 100 311 83C387 126 399 146 372 111C416 186 416 209 410 165L416 503L515 503L515 0L430 0L420 52L415 52C332 -10 267 -10 387 18zM340 579L252 579L135 722L244 722z" />
      <glyph unicode="&#xFA;" horiz-adv-x="582" d="M267 -10C193 -1 163 16 228 -10C109 59 92 91 133 34C67 159 67 201 75 123L67 503L166 503L166 209C218 83 288 83 166 137C332 88 352 100 311 83C387 126 399 146 372 111C416 186 416 209 410 165L416 503L515 503L515 0L430 0L420 52L415 52C332 -10 267 -10 387 18zM336 579L248 579L344 722L453 722z" />
      <glyph unicode="&#xFB;" horiz-adv-x="582" d="M267 -10C193 -1 163 16 228 -10C109 59 92 91 133 34C67 159 67 201 75 123L67 503L166 503L166 209C218 83 288 83 166 137C332 88 352 100 311 83C387 126 399 146 372 111C416 186 416 209 410 165L416 503L515 503L515 0L430 0L420 52L415 52C332 -10 267 -10 387 18zM223 579L126 579L243 718L339 718L456 579L359 579L291 662z" />
      <glyph unicode="&#xFC;" horiz-adv-x="582" d="M267 -10C193 -1 163 16 228 -10C109 59 92 91 133 34C67 159 67 201 75 123L67 503L166 503L166 209C218 83 288 83 166 137C332 88 352 100 311 83C387 126 399 146 372 111C416 186 416 209 410 165L416 503L515 503L515 0L430 0L420 52L415 52C332 -10 267 -10 387 18zM250 599L151 599L151 698L250 698zM432 599L333 599L333 698L432 698z" />
      <glyph unicode="&#xFD;" horiz-adv-x="513" d="M403 503L508 503L285 -119C236 -200 172 -200 265 -176L63 -200L63 -108L161 -108C189 -99 195 -81 177 -108L212 -34L5 503L110 503L253 120L273 120zM308 579L220 579L316 722L425 722z" />
      <glyph unicode="&#xFE;" horiz-adv-x="598" d="M72 -200L72 700L169 700L169 440L174 440C264 513 328 513 213 488C410 502 446 480 371 513C509 427 529 387 481 458C560 302 560 252 549 347C549 156 529 116 560 201C481 45 446 23 509 76C371 -10 328 -10 410 1C210 17 176 61 261 -10L171 61L171 -200zM316 82C366 89 388 103 342 82C428 137 441 163 410 117C461 218 461 252 454 189C454 314 441 340 461 285C410 386 388 400 428 366C342 421 316 421 366 414C265 414 243 400 290 421C203 366 190 340 221 386C171 285 171 252 177 314C177 189 190 163 171 218C221 117 243 103 203 137C290 82 316 82 265 89z" />
      <glyph unicode="&#xFF;" horiz-adv-x="513" d="M403 503L508 503L285 -119C236 -200 172 -200 265 -176L63 -200L63 -108L161 -108C189 -99 195 -81 177 -108L212 -34L5 503L110 503L253 120L273 120zM221 599L122 599L122 698L221 698zM403 599L304 599L304 698L403 698z" />
      <glyph unicode="&#x100;" horiz-adv-x="666" d="M667 0L554 0L494 168L172 168L112 0L-2 0L256 700L410 700zM323 588L206 263L460 263L343 588zM480 806L185 806L185 881L480 881z" />
      <glyph unicode="&#x101;" horiz-adv-x="540" d="M224 -10C157 -3 130 10 188 -10C81 42 67 66 102 24C45 116 45 146 52 90C113 308 248 308 45 244L376 308L376 321C335 428 270 428 376 386C166 395 160 355 207 428L63 355C74 408 91 432 65 382C131 476 162 491 107 456C228 513 270 513 192 505C475 438 475 321 395 513L475 0L389 0L379 55L374 55C294 -10 224 -10 351 21zM234 75C376 127 376 211 322 75L376 229L255 229C144 196 144 150 180 229C176 75 234 75 144 104zM419 611L124 611L124 686L419 686z" />
      <glyph unicode="&#x102;" horiz-adv-x="666" d="M667 0L554 0L494 168L172 168L112 0L-2 0L256 700L410 700zM323 588L206 263L460 263L343 588zM333 776C189 829 184 909 249 776L263 909C294 844 333 844 268 867C396 867 402 909 370 844L481 909C415 776 333 776 475 829z" />
      <glyph unicode="&#x103;" horiz-adv-x="540" d="M224 -10C157 -3 130 10 188 -10C81 42 67 66 102 24C45 116 45 146 52 90C113 308 248 308 45 244L376 308L376 321C335 428 270 428 376 386C166 395 160 355 207 428L63 355C74 408 91 432 65 382C131 476 162 491 107 456C228 513 270 513 192 505C475 438 475 321 395 513L475 0L389 0L379 55L374 55C294 -10 224 -10 351 21zM234 75C376 127 376 211 322 75L376 229L255 229C144 196 144 150 180 229C176 75 234 75 144 104zM272 582C128 635 123 715 188 582L202 715C233 650 272 650 207 673C335 673 341 715 309 650L420 715C354 582 272 582 414 635z" />
      <glyph unicode="&#x104;" horiz-adv-x="666" d="M608 -67C625 -105 653 -105 608 -88L667 -105L667 -170L640 -170C530 -134 530 -81 569 -170C556 -12 584 0 530 -43L554 0L494 168L172 168L112 0L-2 0L256 700L410 700L667 0C608 -40 608 -67 627 -18zM323 588L206 263L460 263L343 588z" />
      <glyph unicode="&#x105;" horiz-adv-x="540" d="M270 513C475 438 475 321 395 513L475 0L473 0C414 -40 414 -67 433 -18C431 -105 459 -105 414 -88L473 -105L473 -170L446 -170C336 -134 336 -81 375 -170C362 -12 390 0 336 -43L389 0L379 55L374 55C294 -10 224 -10 351 21C157 -3 130 10 188 -10C81 42 67 66 102 24C45 116 45 146 52 90C113 308 248 308 45 244L376 308L376 321C335 428 270 428 376 386C166 395 160 355 207 428L63 355C74 408 91 432 65 382C131 476 162 491 107 456C228 513 270 513 192 505zM376 229L255 229C144 196 144 150 180 229C176 75 234 75 144 104C376 127 376 211 322 75z" />
      <glyph unicode="&#x106;" horiz-adv-x="730" d="M383 -10C264 5 213 36 321 -10C122 109 92 164 162 66C47 280 47 350 62 218C62 481 92 536 47 419C162 633 213 664 122 590C321 710 383 710 264 694C484 699 528 677 436 710C607 626 636 589 571 655C685 510 697 464 665 551L588 464C481 610 383 610 558 550C302 599 267 577 341 610C203 525 183 485 231 555C152 400 152 350 162 445C162 254 183 214 152 299C231 144 267 122 203 174C341 90 383 90 302 100C560 150 588 241 484 90L697 241C665 151 637 113 685 193C572 45 529 23 608 75C437 -10 383 -10 485 1zM416 770L328 770L424 912L533 912z" />
      <glyph unicode="&#x107;" horiz-adv-x="551" d="M287 -10C198 1 160 23 240 -10C92 76 70 116 122 45C38 201 38 252 48 156C48 346 70 386 38 302C122 457 160 479 92 426C240 513 287 513 198 501C494 437 518 331 408 513L418 331C353 421 287 421 400 387C234 414 212 400 259 421C171 366 158 340 189 386C138 285 138 252 144 314C144 189 158 163 138 218C189 117 212 103 171 137C259 82 287 82 234 89C400 117 418 176 353 82L518 176C408 -10 287 -10 494 66zM331 579L243 579L339 722L448 722z" />
      <glyph unicode="&#x108;" horiz-adv-x="730" d="M383 -10C264 5 213 36 321 -10C122 109 92 164 162 66C47 280 47 350 62 218C62 481 92 536 47 419C162 633 213 664 122 590C321 710 383 710 264 694C484 699 528 677 436 710C607 626 636 589 571 655C685 510 697 464 665 551L588 464C481 610 383 610 558 550C302 599 267 577 341 610C203 525 183 485 231 555C152 400 152 350 162 445C162 254 183 214 152 299C231 144 267 122 203 174C341 90 383 90 302 100C560 150 588 241 484 90L697 241C665 151 637 113 685 193C572 45 529 23 608 75C437 -10 383 -10 485 1zM307 770L210 770L327 909L423 909L540 770L443 770L375 853z" />
      <glyph unicode="&#x109;" horiz-adv-x="551" d="M287 -10C198 1 160 23 240 -10C92 76 70 116 122 45C38 201 38 252 48 156C48 346 70 386 38 302C122 457 160 479 92 426C240 513 287 513 198 501C494 437 518 331 408 513L418 331C353 421 287 421 400 387C234 414 212 400 259 421C171 366 158 340 189 386C138 285 138 252 144 314C144 189 158 163 138 218C189 117 212 103 171 137C259 82 287 82 234 89C400 117 418 176 353 82L518 176C408 -10 287 -10 494 66zM218 579L121 579L238 718L334 718L451 579L354 579L286 662z" />
      <glyph unicode="&#x10A;" horiz-adv-x="730" d="M383 -10C264 5 213 36 321 -10C122 109 92 164 162 66C47 280 47 350 62 218C62 481 92 536 47 419C162 633 213 664 122 590C321 710 383 710 264 694C484 699 528 677 436 710C607 626 636 589 571 655C685 510 697 464 665 551L588 464C481 610 383 610 558 550C302 599 267 577 341 610C203 525 183 485 231 555C152 400 152 350 162 445C162 254 183 214 152 299C231 144 267 122 203 174C341 90 383 90 302 100C560 150 588 241 484 90L697 241C665 151 637 113 685 193C572 45 529 23 608 75C437 -10 383 -10 485 1zM426 793L323 793L323 892L426 892z" />
      <glyph unicode="&#x10B;" horiz-adv-x="551" d="M287 -10C198 1 160 23 240 -10C92 76 70 116 122 45C38 201 38 252 48 156C48 346 70 386 38 302C122 457 160 479 92 426C240 513 287 513 198 501C494 437 518 331 408 513L418 331C353 421 287 421 400 387C234 414 212 400 259 421C171 366 158 340 189 386C138 285 138 252 144 314C144 189 158 163 138 218C189 117 212 103 171 137C259 82 287 82 234 89C400 117 418 176 353 82L518 176C408 -10 287 -10 494 66zM340 598L232 598L232 698L340 698z" />
      <glyph unicode="&#x10C;" horiz-adv-x="730" d="M383 -10C264 5 213 36 321 -10C122 109 92 164 162 66C47 280 47 350 62 218C62 481 92 536 47 419C162 633 213 664 122 590C321 710 383 710 264 694C484 699 528 677 436 710C607 626 636 589 571 655C685 510 697 464 665 551L588 464C481 610 383 610 558 550C302 599 267 577 341 610C203 525 183 485 231 555C152 400 152 350 162 445C162 254 183 214 152 299C231 144 267 122 203 174C341 90 383 90 302 100C560 150 588 241 484 90L697 241C665 151 637 113 685 193C572 45 529 23 608 75C437 -10 383 -10 485 1zM423 770L327 770L210 909L307 909L375 826L443 909L540 909z" />
      <glyph unicode="&#x10D;" horiz-adv-x="551" d="M287 -10C198 1 160 23 240 -10C92 76 70 116 122 45C38 201 38 252 48 156C48 346 70 386 38 302C122 457 160 479 92 426C240 513 287 513 198 501C494 437 518 331 408 513L418 331C353 421 287 421 400 387C234 414 212 400 259 421C171 366 158 340 189 386C138 285 138 252 144 314C144 189 158 163 138 218C189 117 212 103 171 137C259 82 287 82 234 89C400 117 418 176 353 82L518 176C408 -10 287 -10 494 66zM334 579L238 579L121 718L218 718L286 636L354 718L451 718z" />
      <glyph unicode="&#x10E;" horiz-adv-x="703" d="M77 0L77 700L320 700C440 685 492 655 383 700C583 583 612 530 543 625C656 416 656 350 641 476C641 223 612 170 656 283C543 75 492 45 583 116C383 0 320 0 440 15zM320 100C402 110 438 131 363 100C501 182 521 220 473 152C551 301 551 350 541 258C541 442 521 480 551 398C473 547 438 568 501 518C363 600 320 600 402 589L182 600L182 100zM397 770L301 770L184 909L281 909L349 826L417 909L514 909z" />
      <glyph unicode="&#x10F;" horiz-adv-x="599" d="M271 -10C188 1 153 23 227 -10C89 76 69 116 117 45C38 201 38 252 48 156C48 347 69 387 38 302C117 458 153 480 89 427C227 513 271 513 188 502C385 489 423 441 334 513L428 441L428 700L527 700L527 0L442 0L432 64L427 64C336 -10 271 -10 388 14zM283 82C333 89 355 103 309 82C395 137 408 163 377 117C428 218 428 252 421 189C421 314 408 340 428 285C377 386 355 400 395 366C309 421 283 421 333 414C232 414 210 400 256 421C170 366 157 340 188 386C138 285 138 252 144 314C144 188 157 162 138 218C188 117 210 103 170 136C256 82 283 82 232 89zM664 536L586 536L605 700L706 700z" />
      <glyph unicode="&#x110;" horiz-adv-x="738" d="M355 700C475 685 527 655 418 700C618 583 647 530 578 625C691 416 691 350 676 476C676 223 647 170 691 283C578 75 527 45 618 116C418 0 355 0 475 15L112 0L112 307L22 307L22 397L112 397L112 700zM355 100C437 110 473 131 398 100C536 182 556 220 508 152C586 301 586 350 576 258C576 442 556 480 586 398C508 547 473 568 536 518C398 600 355 600 437 589L217 600L217 397L386 397L386 307L217 307L217 100z" />
      <glyph unicode="&#x111;" horiz-adv-x="599" d="M266 -10C184 0 150 20 223 -10C88 67 68 103 115 40C38 179 38 225 48 139C48 310 68 346 38 270C115 410 150 430 88 382C223 460 266 460 184 450C376 439 414 397 327 460L419 397L419 542L259 542L259 627L419 627L419 706L518 706L518 627L600 627L600 542L518 542L518 0L433 0L423 55L418 55C329 -10 266 -10 380 11zM278 77C419 137 419 225 360 77C360 373 278 373 419 313C138 313 138 225 196 373C196 77 278 77 138 137z" />
      <glyph unicode="&#x112;" horiz-adv-x="590" d="M536 0L77 0L77 700L536 700L536 603L182 603L182 399L516 399L516 304L182 304L182 97L536 97zM459 806L164 806L164 881L459 881z" />
      <glyph unicode="&#x113;" horiz-adv-x="565" d="M287 -10C198 1 160 23 240 -10C92 76 70 116 122 45C38 201 38 252 48 156C48 346 70 386 38 302C122 457 160 479 92 426C240 513 287 513 198 501C372 502 408 481 331 513C473 430 494 393 444 459C526 313 526 267 515 355C524 226 521 214 526 243L137 214C208 76 287 76 146 132C387 104 409 144 343 76L512 144C401 -10 287 -10 481 54zM428 290C364 428 287 428 421 370C147 370 137 290 207 428zM430 611L135 611L135 686L430 686z" />
      <glyph unicode="&#x114;" horiz-adv-x="590" d="M536 0L77 0L77 700L536 700L536 603L182 603L182 399L516 399L516 304L182 304L182 97L536 97zM312 776C168 829 163 909 228 776L242 909C273 844 312 844 247 867C375 867 381 909 349 844L460 909C394 776 312 776 454 829z" />
      <glyph unicode="&#x115;" horiz-adv-x="565" d="M287 -10C198 1 160 23 240 -10C92 76 70 116 122 45C38 201 38 252 48 156C48 346 70 386 38 302C122 457 160 479 92 426C240 513 287 513 198 501C372 502 408 481 331 513C473 430 494 393 444 459C526 313 526 267 515 355C524 226 521 214 526 243L137 214C208 76 287 76 146 132C387 104 409 144 343 76L512 144C401 -10 287 -10 481 54zM428 290C364 428 287 428 421 370C147 370 137 290 207 428zM283 582C139 635 134 715 199 582L213 715C244 650 283 650 218 673C346 673 352 715 320 650L431 715C365 582 283 582 425 635z" />
      <glyph unicode="&#x116;" horiz-adv-x="590" d="M536 0L77 0L77 700L536 700L536 603L182 603L182 399L516 399L516 304L182 304L182 97L536 97zM363 793L260 793L260 892L363 892z" />
      <glyph unicode="&#x117;" horiz-adv-x="565" d="M287 -10C198 1 160 23 240 -10C92 76 70 116 122 45C38 201 38 252 48 156C48 346 70 386 38 302C122 457 160 479 92 426C240 513 287 513 198 501C372 502 408 481 331 513C473 430 494 393 444 459C526 313 526 267 515 355C524 226 521 214 526 243L137 214C208 76 287 76 146 132C387 104 409 144 343 76L512 144C401 -10 287 -10 481 54zM428 290C364 428 287 428 421 370C147 370 137 290 207 428zM337 598L229 598L229 698L337 698z" />
      <glyph unicode="&#x118;" horiz-adv-x="590" d="M536 603L182 603L182 399L516 399L516 304L182 304L182 97L536 97L536 0C477 -40 477 -67 496 -18C494 -105 522 -105 477 -88L536 -105L536 -170L509 -170C399 -134 399 -81 438 -170C425 -12 453 0 399 -43L77 0L77 700L536 700z" />
      <glyph unicode="&#x119;" horiz-adv-x="565" d="M526 267C524 226 521 214 526 243L137 214C208 76 287 76 146 132C387 104 409 144 343 76L512 144C472 66 436 36 498 102C363 -31 363 -67 382 -10C380 -105 408 -105 363 -88L422 -105L422 -170L395 -170C285 -134 285 -81 324 -170C299 -26 319 -8 285 -53C301 -10 287 -10 312 -9C198 1 160 23 240 -10C92 76 70 116 122 45C38 201 38 252 48 156C48 346 70 386 38 302C122 457 160 479 92 426C240 513 287 513 198 501C372 502 408 481 331 513C473 430 494 393 444 459C526 313 526 267 515 355zM428 290C364 428 287 428 421 370C147 370 137 290 207 428z" />
      <glyph unicode="&#x11A;" horiz-adv-x="590" d="M536 0L77 0L77 700L536 700L536 603L182 603L182 399L516 399L516 304L182 304L182 97L536 97zM360 770L264 770L147 909L244 909L312 826L380 909L477 909z" />
      <glyph unicode="&#x11B;" horiz-adv-x="565" d="M287 -10C198 1 160 23 240 -10C92 76 70 116 122 45C38 201 38 252 48 156C48 346 70 386 38 302C122 457 160 479 92 426C240 513 287 513 198 501C372 502 408 481 331 513C473 430 494 393 444 459C526 313 526 267 515 355C524 226 521 214 526 243L137 214C208 76 287 76 146 132C387 104 409 144 343 76L512 144C401 -10 287 -10 481 54zM428 290C364 428 287 428 421 370C147 370 137 290 207 428zM331 579L235 579L118 718L215 718L283 636L351 718L448 718z" />
      <glyph unicode="&#x11C;" horiz-adv-x="767" d="M406 363L702 363L702 0L619 0L609 91L604 91C478 -10 384 -10 561 37C265 5 214 36 322 -10C122 109 92 164 162 66C47 280 47 350 62 218C62 482 92 537 47 420C162 634 214 664 122 591C322 710 384 710 265 694C480 699 523 679 434 710C601 631 631 597 565 659C682 523 696 481 661 562L587 481C472 610 384 610 552 558C302 599 267 577 341 610C203 525 183 485 231 555C152 400 152 350 162 445C162 254 183 214 152 299C231 144 267 122 203 174C341 90 384 90 302 100C457 98 489 116 422 90C546 157 565 185 521 134C594 243 596 273 584 213L597 281L406 281zM314 770L217 770L334 909L430 909L547 770L450 770L382 853z" />
      <glyph unicode="&#x11D;" horiz-adv-x="589" d="M288 -210C197 -201 163 -183 239 -210C103 -142 85 -115 129 -165C57 -61 56 -33 67 -88L156 -33C208 -121 288 -121 161 -79C424 -70 424 7 370 -121L424 87L419 87C330 24 268 24 384 48C185 34 150 55 224 24C88 104 68 142 115 75C38 221 38 269 48 179C48 358 68 395 38 316C115 461 150 482 88 432C224 513 268 513 185 502C388 485 422 443 332 513L427 443L437 503L523 503L523 6C513 -74 495 -107 523 -36C449 -165 413 -183 476 -139C336 -210 288 -210 377 -201zM281 114C331 120 353 133 307 114C392 164 405 188 375 146C424 239 424 269 417 212C417 325 405 349 424 299C375 390 353 403 392 372C307 423 281 423 331 416C138 359 138 269 198 423C198 114 281 114 138 177zM227 579L130 579L247 718L343 718L460 579L363 579L295 662z" />
      <glyph unicode="&#x11E;" horiz-adv-x="767" d="M406 363L702 363L702 0L619 0L609 91L604 91C478 -10 384 -10 561 37C265 5 214 36 322 -10C122 109 92 164 162 66C47 280 47 350 62 218C62 482 92 537 47 420C162 634 214 664 122 591C322 710 384 710 265 694C480 699 523 679 434 710C601 631 631 597 565 659C682 523 696 481 661 562L587 481C472 610 384 610 552 558C302 599 267 577 341 610C203 525 183 485 231 555C152 400 152 350 162 445C162 254 183 214 152 299C231 144 267 122 203 174C341 90 384 90 302 100C457 98 489 116 422 90C546 157 565 185 521 134C594 243 596 273 584 213L597 281L406 281zM382 776C238 829 233 909 298 776L312 909C343 844 382 844 317 867C445 867 451 909 419 844L530 909C464 776 382 776 524 829z" />
      <glyph unicode="&#x11F;" horiz-adv-x="589" d="M288 -210C197 -201 163 -183 239 -210C103 -142 85 -115 129 -165C57 -61 56 -33 67 -88L156 -33C208 -121 288 -121 161 -79C424 -70 424 7 370 -121L424 87L419 87C330 24 268 24 384 48C185 34 150 55 224 24C88 104 68 142 115 75C38 221 38 269 48 179C48 358 68 395 38 316C115 461 150 482 88 432C224 513 268 513 185 502C388 485 422 443 332 513L427 443L437 503L523 503L523 6C513 -74 495 -107 523 -36C449 -165 413 -183 476 -139C336 -210 288 -210 377 -201zM281 114C331 120 353 133 307 114C392 164 405 188 375 146C424 239 424 269 417 212C417 325 405 349 424 299C375 390 353 403 392 372C307 423 281 423 331 416C138 359 138 269 198 423C198 114 281 114 138 177zM295 582C151 635 146 715 211 582L225 715C256 650 295 650 230 673C358 673 364 715 332 650L443 715C377 582 295 582 437 635z" />
      <glyph unicode="&#x120;" horiz-adv-x="767" d="M406 363L702 363L702 0L619 0L609 91L604 91C478 -10 384 -10 561 37C265 5 214 36 322 -10C122 109 92 164 162 66C47 280 47 350 62 218C62 482 92 537 47 420C162 634 214 664 122 591C322 710 384 710 265 694C480 699 523 679 434 710C601 631 631 597 565 659C682 523 696 481 661 562L587 481C472 610 384 610 552 558C302 599 267 577 341 610C203 525 183 485 231 555C152 400 152 350 162 445C162 254 183 214 152 299C231 144 267 122 203 174C341 90 384 90 302 100C457 98 489 116 422 90C546 157 565 185 521 134C594 243 596 273 584 213L597 281L406 281zM433 793L330 793L330 892L433 892z" />
      <glyph unicode="&#x121;" horiz-adv-x="589" d="M288 -210C197 -201 163 -183 239 -210C103 -142 85 -115 129 -165C57 -61 56 -33 67 -88L156 -33C208 -121 288 -121 161 -79C424 -70 424 7 370 -121L424 87L419 87C330 24 268 24 384 48C185 34 150 55 224 24C88 104 68 142 115 75C38 221 38 269 48 179C48 358 68 395 38 316C115 461 150 482 88 432C224 513 268 513 185 502C388 485 422 443 332 513L427 443L437 503L523 503L523 6C513 -74 495 -107 523 -36C449 -165 413 -183 476 -139C336 -210 288 -210 377 -201zM281 114C331 120 353 133 307 114C392 164 405 188 375 146C424 239 424 269 417 212C417 325 405 349 424 299C375 390 353 403 392 372C307 423 281 423 331 416C138 359 138 269 198 423C198 114 281 114 138 177zM349 598L241 598L241 698L349 698z" />
      <glyph unicode="&#x122;" horiz-adv-x="767" d="M406 363L702 363L702 0L619 0L609 91L604 91C478 -10 384 -10 561 37C265 5 214 36 322 -10C122 109 92 164 162 66C47 280 47 350 62 218C62 482 92 537 47 420C162 634 214 664 122 591C322 710 384 710 265 694C480 699 523 679 434 710C601 631 631 597 565 659C682 523 696 481 661 562L587 481C472 610 384 610 552 558C302 599 267 577 341 610C203 525 183 485 231 555C152 400 152 350 162 445C162 254 183 214 152 299C231 144 267 122 203 174C341 90 384 90 302 100C457 98 489 116 422 90C546 157 565 185 521 134C594 243 596 273 584 213L597 281L406 281zM378 -247L300 -247L334 -83L435 -83z" />
      <glyph unicode="&#x123;" horiz-adv-x="589" d="M288 -210C197 -201 163 -183 239 -210C103 -142 85 -115 129 -165C57 -61 56 -33 67 -88L156 -33C208 -121 288 -121 161 -79C424 -70 424 7 370 -121L424 87L419 87C330 24 268 24 384 48C185 34 150 55 224 24C88 104 68 142 115 75C38 221 38 269 48 179C48 358 68 395 38 316C115 461 150 482 88 432C224 513 268 513 185 502C388 485 422 443 332 513L427 443L437 503L523 503L523 6C513 -74 495 -107 523 -36C449 -165 413 -183 476 -139C336 -210 288 -210 377 -201zM281 114C331 120 353 133 307 114C392 164 405 188 375 146C424 239 424 269 417 212C417 325 405 349 424 299C375 390 353 403 392 372C307 423 281 423 331 416C138 359 138 269 198 423C198 114 281 114 138 177zM340 579L238 579L300 748L381 748z" />
      <glyph unicode="&#x124;" horiz-adv-x="716" d="M182 0L77 0L77 700L182 700L182 404L534 404L534 700L639 700L639 0L534 0L534 301L182 301zM290 770L193 770L310 909L406 909L523 770L426 770L358 853z" />
      <glyph unicode="&#x125;" horiz-adv-x="585" d="M72 0L72 700L171 700L171 451L176 451C254 513 320 513 200 483C393 504 423 486 358 513C477 444 494 412 453 468C520 343 520 302 511 380L520 0L421 0L421 294C368 420 299 420 421 366C254 414 234 403 275 420C199 376 188 357 214 391C171 316 171 294 176 337L171 0zM237 770L140 770L257 909L353 909L470 770L373 770L305 853z" />
      <glyph unicode="&#x126;" horiz-adv-x="764" d="M663 597L754 597L754 504L663 504L663 0L558 0L558 301L206 301L206 0L101 0L101 504L10 504L10 597L101 597L101 700L206 700L206 597L558 597L558 700L663 700zM206 404L558 404L558 504L206 504z" />
      <glyph unicode="&#x127;" horiz-adv-x="594" d="M81 0L81 542L-1 542L-1 627L81 627L81 706L180 706L180 627L340 627L340 542L180 542L180 398L185 398C263 460 329 460 209 430C402 451 432 433 367 460C486 391 503 359 462 415C529 290 529 249 520 327L529 0L430 0L430 241C377 368 308 368 430 314C263 362 243 350 284 368C208 323 197 304 223 338C180 263 180 241 185 284L180 0z" />
      <glyph unicode="&#x128;" horiz-adv-x="259" d="M182 0L77 0L77 700L182 700zM-33 785C11 896 71 896 -33 854C111 888 137 872 95 896C143 869 149 865 139 871C161 858 167 856 155 861C177 854 182 854 172 854C220 869 220 896 202 854L291 896C246 785 188 785 291 828C147 794 121 810 162 785C90 828 76 828 99 822C38 811 38 785 56 828z" />
      <glyph unicode="&#x129;" horiz-adv-x="233" d="M166 0L67 0L67 503L166 503zM-46 595C0 706 58 706 -46 663C100 697 124 681 82 706C130 678 136 674 126 680C148 667 154 665 142 670C164 663 169 663 159 663C207 679 207 706 189 663L278 706C233 595 175 595 278 636C137 603 108 619 151 595C77 637 63 637 86 631C25 621 25 595 43 637z" />
      <glyph unicode="&#x12A;" horiz-adv-x="259" d="M182 0L77 0L77 700L182 700zM277 806L-18 806L-18 881L277 881z" />
      <glyph unicode="&#x12B;" horiz-adv-x="233" d="M166 0L67 0L67 503L166 503zM264 611L-31 611L-31 686L264 686z" />
      <glyph unicode="&#x12C;" horiz-adv-x="259" d="M182 0L77 0L77 700L182 700zM130 776C-13 829 -19 909 46 776L60 909C91 844 130 844 65 867C193 867 199 909 167 844L278 909C212 776 130 776 272 829z" />
      <glyph unicode="&#x12D;" horiz-adv-x="233" d="M166 0L67 0L67 503L166 503zM117 582C-26 635 -32 715 33 582L47 715C78 650 117 650 52 673C180 673 186 715 154 650L265 715C199 582 117 582 259 635z" />
      <glyph unicode="&#x12E;" horiz-adv-x="259" d="M77 700L182 700L182 0L165 0C106 -40 106 -67 125 -18C123 -105 151 -105 106 -88L165 -105L165 -170L138 -170C28 -134 28 -81 67 -170C54 -12 82 0 28 -43L77 0z" />
      <glyph unicode="&#x12F;" horiz-adv-x="233" d="M63 598L63 698L171 698L171 598zM67 0L67 503L166 503L166 0L154 0C95 -40 95 -67 114 -18C112 -105 140 -105 95 -88L154 -105L154 -170L127 -170C17 -134 17 -81 56 -170C43 -12 71 0 17 -43z" />
      <glyph unicode="&#x130;" horiz-adv-x="259" d="M182 0L77 0L77 700L182 700zM181 793L78 793L78 892L181 892z" />
      <glyph unicode="&#x131;" horiz-adv-x="233" d="M166 0L67 0L67 503L166 503z" />
      <glyph unicode="&#x132;" horiz-adv-x="658" d="M182 0L77 0L77 700L182 700zM269 0L269 100L433 100C481 118 481 149 463 100L481 700L586 700L586 127C540 0 456 0 586 47z" />
      <glyph unicode="&#x133;" horiz-adv-x="466" d="M166 0L67 0L67 503L166 503zM171 598L63 598L63 698L171 698zM191 -200L191 -108L268 -108C300 -97 300 -77 289 -108L300 503L399 503L399 -98C356 -200 290 -200 399 -159zM404 598L296 598L296 698L404 698z" />
      <glyph unicode="&#x134;" horiz-adv-x="399" d="M10 0L10 100L174 100C222 118 222 149 204 100L222 700L327 700L327 127C281 0 197 0 327 47zM207 770L110 770L227 909L323 909L440 770L343 770L275 853z" />
      <glyph unicode="&#x135;" horiz-adv-x="233" d="M-42 -200L-42 -108L35 -108C67 -97 67 -77 56 -108L67 503L166 503L166 -98C123 -200 57 -200 166 -159zM49 579L-48 579L69 718L165 718L282 579L185 579L117 662z" />
      <glyph unicode="&#x136;" horiz-adv-x="578" d="M182 0L77 0L77 700L182 700L182 379L449 700L578 700L290 355L598 0L468 0L182 332zM310 -247L232 -247L266 -83L367 -83z" />
      <glyph unicode="&#x137;" horiz-adv-x="502" d="M171 0L72 0L72 700L171 700L171 274L378 503L498 503L272 257L508 0L388 0L171 239zM270 -247L192 -247L226 -83L327 -83z" />
      <glyph unicode="&#x139;" horiz-adv-x="539" d="M521 0L77 0L77 700L182 700L182 100L521 100zM171 770L83 770L179 912L288 912z" />
      <glyph unicode="&#x13A;" horiz-adv-x="243" d="M171 0L72 0L72 700L171 700zM165 770L77 770L173 912L282 912z" />
      <glyph unicode="&#x13B;" horiz-adv-x="539" d="M521 0L77 0L77 700L182 700L182 100L521 100zM296 -247L218 -247L252 -83L353 -83z" />
      <glyph unicode="&#x13C;" horiz-adv-x="243" d="M171 0L72 0L72 700L171 700zM114 -247L36 -247L70 -83L171 -83z" />
      <glyph unicode="&#x13D;" horiz-adv-x="539" d="M521 0L77 0L77 700L182 700L182 100L521 100zM319 536L241 536L260 700L361 700z" />
      <glyph unicode="&#x13E;" horiz-adv-x="243" d="M171 0L72 0L72 700L171 700zM308 536L230 536L249 700L350 700z" />
      <glyph unicode="&#x13F;" horiz-adv-x="539" d="M521 0L77 0L77 700L182 700L182 100L521 100zM456 332L342 332L342 445L456 445z" />
      <glyph unicode="&#x140;" horiz-adv-x="396" d="M171 0L72 0L72 700L171 700zM377 308L263 308L263 421L377 421z" />
      <glyph unicode="&#x141;" horiz-adv-x="561" d="M203 322L203 100L542 100L542 0L98 0L98 283L18 253L18 347L98 377L98 700L203 700L203 416L362 476L362 382z" />
      <glyph unicode="&#x142;" horiz-adv-x="286" d="M193 420L267 449L267 363L193 333L193 0L94 0L94 294L18 263L18 350L94 380L94 700L193 700z" />
      <glyph unicode="&#x143;" horiz-adv-x="718" d="M182 0L77 0L77 700L231 700L516 153L536 153L536 700L641 700L641 0L487 0L202 547L182 547zM401 770L313 770L409 912L518 912z" />
      <glyph unicode="&#x144;" horiz-adv-x="580" d="M67 0L67 503L152 503L162 451L167 451C247 513 315 513 192 483C388 504 418 486 353 513C472 444 489 412 448 468C515 343 515 302 506 380L515 0L416 0L416 294C363 420 294 420 416 366C249 414 229 403 270 420C194 376 183 357 209 391C166 316 166 294 171 337L166 0zM343 579L255 579L351 722L460 722z" />
      <glyph unicode="&#x145;" horiz-adv-x="718" d="M182 0L77 0L77 700L231 700L516 153L536 153L536 700L641 700L641 0L487 0L202 547L182 547zM356 -247L278 -247L312 -83L413 -83z" />
      <glyph unicode="&#x146;" horiz-adv-x="580" d="M67 0L67 503L152 503L162 451L167 451C247 513 315 513 192 483C388 504 418 486 353 513C472 444 489 412 448 468C515 343 515 302 506 380L515 0L416 0L416 294C363 420 294 420 416 366C249 414 229 403 270 420C194 376 183 357 209 391C166 316 166 294 171 337L166 0zM285 -247L207 -247L241 -83L342 -83z" />
      <glyph unicode="&#x147;" horiz-adv-x="718" d="M182 0L77 0L77 700L231 700L516 153L536 153L536 700L641 700L641 0L487 0L202 547L182 547zM407 770L311 770L194 909L291 909L359 826L427 909L524 909z" />
      <glyph unicode="&#x148;" horiz-adv-x="580" d="M67 0L67 503L152 503L162 451L167 451C247 513 315 513 192 483C388 504 418 486 353 513C472 444 489 412 448 468C515 343 515 302 506 380L515 0L416 0L416 294C363 420 294 420 416 366C249 414 229 403 270 420C194 376 183 357 209 391C166 316 166 294 171 337L166 0zM346 579L250 579L133 718L230 718L298 636L366 718L463 718z" />
      <glyph unicode="&#x149;" horiz-adv-x="607" d="M94 0L94 503L179 503L189 451L194 451C274 513 342 513 219 483C415 504 445 486 380 513C499 444 516 412 475 468C542 343 542 302 533 380L542 0L443 0L443 294C390 420 321 420 443 366C276 414 256 403 297 420C221 376 210 357 236 391C193 316 193 294 198 337L193 0zM85 538L7 538L41 702L142 702z" />
      <glyph unicode="&#x14A;" horiz-adv-x="718" d="M398 -210L398 -113L486 -113C536 -94 536 -62 518 -113L536 0L487 0L202 547L182 547L182 0L77 0L77 700L231 700L516 153L536 153L536 700L641 700L641 -81C594 -210 508 -210 641 -163z" />
      <glyph unicode="&#x14B;" horiz-adv-x="580" d="M297 -203L297 -108L367 -108C416 -89 416 -59 397 -108L416 294C363 420 294 420 416 366C249 414 229 403 270 420C194 376 183 357 209 391C166 316 166 294 171 337L166 0L67 0L67 503L152 503L162 451L167 451C247 513 315 513 192 483C388 504 418 486 353 513C472 444 489 412 448 468C515 343 515 302 506 380L515 -78C469 -203 383 -203 515 -159z" />
      <glyph unicode="&#x14C;" horiz-adv-x="767" d="M383 -10C264 5 213 36 321 -10C122 109 92 164 162 66C47 280 47 350 62 218C62 481 92 536 47 419C162 633 213 664 122 590C321 710 383 710 264 694C501 694 553 664 445 710C645 590 675 536 604 633C720 419 720 350 705 481C705 218 675 164 720 280C604 66 553 36 645 109C445 -10 383 -10 501 5zM383 90C464 100 500 122 425 90C563 174 584 214 535 144C615 299 615 350 604 254C604 445 584 485 615 400C535 555 500 577 563 525C425 610 383 610 464 599C302 599 267 577 341 610C203 525 183 485 231 555C152 400 152 350 162 445C162 254 183 214 152 299C231 144 267 122 203 174C341 90 383 90 302 100zM531 806L236 806L236 881L531 881z" />
      <glyph unicode="&#x14D;" horiz-adv-x="574" d="M287 -10C198 1 160 23 240 -10C92 76 70 116 122 45C38 201 38 252 48 156C48 346 70 386 38 302C122 457 160 479 92 426C240 513 287 513 198 501C375 501 413 479 333 513C480 426 502 386 451 457C535 302 535 252 524 346C524 156 502 116 535 201C451 45 413 23 480 76C333 -10 287 -10 375 1zM287 82C339 89 362 103 314 82C403 137 417 163 385 117C437 218 437 252 430 189C430 314 417 340 437 285C385 386 362 400 403 366C314 421 287 421 339 414C234 414 211 400 259 421C170 366 157 340 188 386C137 285 137 252 143 314C143 189 157 163 137 218C188 117 211 103 170 137C259 82 287 82 234 89zM434 611L139 611L139 686L434 686z" />
      <glyph unicode="&#x14E;" horiz-adv-x="767" d="M383 -10C264 5 213 36 321 -10C122 109 92 164 162 66C47 280 47 350 62 218C62 481 92 536 47 419C162 633 213 664 122 590C321 710 383 710 264 694C501 694 553 664 445 710C645 590 675 536 604 633C720 419 720 350 705 481C705 218 675 164 720 280C604 66 553 36 645 109C445 -10 383 -10 501 5zM383 90C464 100 500 122 425 90C563 174 584 214 535 144C615 299 615 350 604 254C604 445 584 485 615 400C535 555 500 577 563 525C425 610 383 610 464 599C302 599 267 577 341 610C203 525 183 485 231 555C152 400 152 350 162 445C162 254 183 214 152 299C231 144 267 122 203 174C341 90 383 90 302 100zM384 776C240 829 235 909 300 776L314 909C345 844 384 844 319 867C447 867 453 909 421 844L532 909C466 776 384 776 526 829z" />
      <glyph unicode="&#x14F;" horiz-adv-x="574" d="M287 -10C198 1 160 23 240 -10C92 76 70 116 122 45C38 201 38 252 48 156C48 346 70 386 38 302C122 457 160 479 92 426C240 513 287 513 198 501C375 501 413 479 333 513C480 426 502 386 451 457C535 302 535 252 524 346C524 156 502 116 535 201C451 45 413 23 480 76C333 -10 287 -10 375 1zM287 82C339 89 362 103 314 82C403 137 417 163 385 117C437 218 437 252 430 189C430 314 417 340 437 285C385 386 362 400 403 366C314 421 287 421 339 414C234 414 211 400 259 421C170 366 157 340 188 386C137 285 137 252 143 314C143 189 157 163 137 218C188 117 211 103 170 137C259 82 287 82 234 89zM287 582C143 635 138 715 203 582L217 715C248 650 287 650 222 673C350 673 356 715 324 650L435 715C369 582 287 582 429 635z" />
      <glyph unicode="&#x150;" horiz-adv-x="767" d="M383 -10C264 5 213 36 321 -10C122 109 92 164 162 66C47 280 47 350 62 218C62 481 92 536 47 419C162 633 213 664 122 590C321 710 383 710 264 694C501 694 553 664 445 710C645 590 675 536 604 633C720 419 720 350 705 481C705 218 675 164 720 280C604 66 553 36 645 109C445 -10 383 -10 501 5zM383 90C464 100 500 122 425 90C563 174 584 214 535 144C615 299 615 350 604 254C604 445 584 485 615 400C535 555 500 577 563 525C425 610 383 610 464 599C302 599 267 577 341 610C203 525 183 485 231 555C152 400 152 350 162 445C162 254 183 214 152 299C231 144 267 122 203 174C341 90 383 90 302 100zM340 770L256 770L353 912L456 912zM509 770L425 770L522 912L626 912z" />
      <glyph unicode="&#x151;" horiz-adv-x="574" d="M287 -10C198 1 160 23 240 -10C92 76 70 116 122 45C38 201 38 252 48 156C48 346 70 386 38 302C122 457 160 479 92 426C240 513 287 513 198 501C375 501 413 479 333 513C480 426 502 386 451 457C535 302 535 252 524 346C524 156 502 116 535 201C451 45 413 23 480 76C333 -10 287 -10 375 1zM287 82C339 89 362 103 314 82C403 137 417 163 385 117C437 218 437 252 430 189C430 314 417 340 437 285C385 386 362 400 403 366C314 421 287 421 339 414C234 414 211 400 259 421C170 366 157 340 188 386C137 285 137 252 143 314C143 189 157 163 137 218C188 117 211 103 170 137C259 82 287 82 234 89zM242 579L158 579L255 722L358 722zM411 579L327 579L424 722L528 722z" />
      <glyph unicode="&#x152;" horiz-adv-x="1092" d="M368 -10C254 5 206 36 308 -10C118 109 90 164 157 66C47 280 47 350 61 218C61 481 90 536 47 419C157 633 206 664 118 590C308 710 368 710 254 694C536 666 578 606 461 710L583 606L583 700L1039 700L1039 603L684 603L684 400L1019 400L1019 304L684 304L684 97L1039 97L1039 0L583 0L583 94L578 94C461 -10 368 -10 536 34zM368 90C444 100 476 122 408 90C534 173 553 213 508 143C581 298 581 350 571 252C571 447 553 487 581 402C508 556 476 578 534 526C408 610 368 610 444 599C291 599 259 578 328 610C200 526 181 487 226 556C152 402 152 350 161 447C161 252 181 213 152 298C226 143 259 122 200 173C328 90 368 90 291 100z" />
      <glyph unicode="&#x153;" horiz-adv-x="937" d="M277 -10C191 1 155 23 232 -10C90 77 69 117 119 45C38 202 38 252 48 157C48 346 69 386 38 302C119 457 155 479 90 426C232 513 277 513 191 501C430 469 468 405 362 513C577 513 665 513 505 470C749 502 785 480 709 513C848 429 868 392 820 458C898 313 898 268 888 354C896 229 893 214 898 247L520 214C586 76 665 76 529 130C759 102 781 144 718 76L883 144C777 -10 665 -10 851 53C502 35 468 95 578 -10C361 -10 277 -10 432 33zM801 290C738 428 665 428 794 372C529 371 520 290 587 428zM277 82C325 89 347 103 302 82C385 137 398 163 368 117C417 218 417 252 410 189C410 314 398 340 417 285C368 386 347 400 385 366C302 421 277 421 325 414C228 414 207 400 251 421C168 366 156 340 185 386C138 285 138 252 144 314C144 189 156 163 138 218C185 117 207 103 168 137C251 82 277 82 228 89z" />
      <glyph unicode="&#x154;" horiz-adv-x="653" d="M358 257L616 0L485 0L231 256L182 256L182 0L77 0L77 700L390 700C464 690 496 671 429 700C553 626 571 592 528 652C599 519 599 477 589 558C590 397 572 364 599 435C529 304 499 285 554 330C435 257 399 257 468 266zM182 353L387 353C494 403 494 477 447 353C447 602 387 602 494 550L182 602zM369 770L281 770L377 912L486 912z" />
      <glyph unicode="&#x155;" horiz-adv-x="361" d="M67 0L67 503L152 503L162 456L167 456C213 503 261 503 187 486L349 503L349 410L270 410C166 372 166 306 203 410L166 0zM261 579L173 579L269 722L378 722z" />
      <glyph unicode="&#x156;" horiz-adv-x="653" d="M358 257L616 0L485 0L231 256L182 256L182 0L77 0L77 700L390 700C464 690 496 671 429 700C553 626 571 592 528 652C599 519 599 477 589 558C590 397 572 364 599 435C529 304 499 285 554 330C435 257 399 257 468 266zM182 353L387 353C494 403 494 477 447 353C447 602 387 602 494 550L182 602zM322 -247L244 -247L278 -83L379 -83z" />
      <glyph unicode="&#x157;" horiz-adv-x="361" d="M67 0L67 503L152 503L162 456L167 456C213 503 261 503 187 486L349 503L349 410L270 410C166 372 166 306 203 410L166 0zM110 -247L32 -247L66 -83L167 -83z" />
      <glyph unicode="&#x158;" horiz-adv-x="653" d="M358 257L616 0L485 0L231 256L182 256L182 0L77 0L77 700L390 700C464 690 496 671 429 700C553 626 571 592 528 652C599 519 599 477 589 558C590 397 572 364 599 435C529 304 499 285 554 330C435 257 399 257 468 266zM182 353L387 353C494 403 494 477 447 353C447 602 387 602 494 550L182 602zM375 770L279 770L162 909L259 909L327 826L395 909L492 909z" />
      <glyph unicode="&#x159;" horiz-adv-x="361" d="M67 0L67 503L152 503L162 456L167 456C213 503 261 503 187 486L349 503L349 410L270 410C166 372 166 306 203 410L166 0zM264 579L168 579L51 718L148 718L216 636L284 718L381 718z" />
      <glyph unicode="&#x15A;" horiz-adv-x="623" d="M313 -10C209 0 168 20 257 -10C95 67 73 101 126 40C40 172 40 213 51 135L145 213C207 85 313 85 145 141C471 129 471 195 419 85C433 283 357 297 471 249L230 321C55 403 55 505 113 342C65 579 85 610 55 544C133 665 171 683 105 641C252 710 303 710 208 701C405 700 445 681 357 710C516 635 538 601 485 661C571 529 571 487 560 567L466 487C459 531 446 551 466 510C414 585 390 597 433 570C336 615 303 615 365 609C160 569 160 505 212 615C195 422 266 409 160 454L376 389C576 304 576 195 516 363C565 120 545 89 576 155C495 34 455 16 525 58C368 -10 313 -10 415 -1zM352 770L264 770L360 912L469 912z" />
      <glyph unicode="&#x15B;" horiz-adv-x="478" d="M238 -10C155 -2 123 14 193 -10C68 50 52 74 91 30C28 123 28 149 36 98L126 149C167 74 238 74 126 107C346 101 346 139 308 74C323 195 269 205 346 175L187 219C36 284 36 363 86 236C106 513 233 513 36 449C311 505 342 490 275 513C397 455 413 431 373 474C438 381 438 355 429 407L341 355C298 429 233 429 341 396C134 400 134 363 169 429C156 312 208 303 134 332L291 289C444 222 444 140 395 271C370 -10 238 -10 444 53zM283 579L195 579L291 722L400 722z" />
      <glyph unicode="&#x15C;" horiz-adv-x="623" d="M313 -10C209 0 168 20 257 -10C95 67 73 101 126 40C40 172 40 213 51 135L145 213C207 85 313 85 145 141C471 129 471 195 419 85C433 283 357 297 471 249L230 321C55 403 55 505 113 342C65 579 85 610 55 544C133 665 171 683 105 641C252 710 303 710 208 701C405 700 445 681 357 710C516 635 538 601 485 661C571 529 571 487 560 567L466 487C459 531 446 551 466 510C414 585 390 597 433 570C336 615 303 615 365 609C160 569 160 505 212 615C195 422 266 409 160 454L376 389C576 304 576 195 516 363C565 120 545 89 576 155C495 34 455 16 525 58C368 -10 313 -10 415 -1zM242 770L145 770L262 909L358 909L475 770L378 770L310 853z" />
      <glyph unicode="&#x15D;" horiz-adv-x="478" d="M238 -10C155 -2 123 14 193 -10C68 50 52 74 91 30C28 123 28 149 36 98L126 149C167 74 238 74 126 107C346 101 346 139 308 74C323 195 269 205 346 175L187 219C36 284 36 363 86 236C106 513 233 513 36 449C311 505 342 490 275 513C397 455 413 431 373 474C438 381 438 355 429 407L341 355C298 429 233 429 341 396C134 400 134 363 169 429C156 312 208 303 134 332L291 289C444 222 444 140 395 271C370 -10 238 -10 444 53zM170 579L73 579L190 718L286 718L403 579L306 579L238 662z" />
      <glyph unicode="&#x15E;" horiz-adv-x="623" d="M576 195C491 0 343 -9 576 81L327 -46C398 -85 398 -125 364 -54C358 -211 294 -211 398 -175L239 -211L239 -150L281 -150C324 -137 324 -117 309 -150C309 -83 281 -83 324 -97L254 -83L254 -46L271 -8C182 10 147 31 223 -2C85 77 67 109 112 51C40 175 40 213 49 141L145 213C207 85 313 85 145 141C471 129 471 195 419 85C433 283 357 297 471 249L230 321C55 403 55 505 113 342C65 579 85 610 55 544C133 665 171 683 105 641C252 710 303 710 208 701C405 700 445 681 357 710C516 635 538 601 485 661C571 529 571 487 560 567L466 487C459 531 446 551 466 510C414 585 390 597 433 570C336 615 303 615 365 609C160 569 160 505 212 615C195 422 266 409 160 454L376 389C576 304 576 195 516 363z" />
      <glyph unicode="&#x15F;" horiz-adv-x="478" d="M444 140C383 1 271 -9 444 61L255 -46C326 -85 326 -125 292 -54C286 -211 222 -211 326 -175L167 -211L167 -150L209 -150C252 -137 252 -117 237 -150C237 -83 209 -83 252 -97L182 -83L182 -46L199 -8C131 7 105 23 162 -3C60 59 47 81 79 39C28 126 28 149 34 103L126 149C167 74 238 74 126 107C346 101 346 139 308 74C323 195 269 205 346 175L187 219C36 284 36 363 86 236C106 513 233 513 36 449C311 505 342 490 275 513C397 455 413 431 373 474C438 381 438 355 429 407L341 355C298 429 233 429 341 396C134 400 134 363 169 429C156 312 208 303 134 332L291 289C444 222 444 140 395 271z" />
      <glyph unicode="&#x160;" horiz-adv-x="623" d="M313 -10C209 0 168 20 257 -10C95 67 73 101 126 40C40 172 40 213 51 135L145 213C207 85 313 85 145 141C471 129 471 195 419 85C433 283 357 297 471 249L230 321C55 403 55 505 113 342C65 579 85 610 55 544C133 665 171 683 105 641C252 710 303 710 208 701C405 700 445 681 357 710C516 635 538 601 485 661C571 529 571 487 560 567L466 487C459 531 446 551 466 510C414 585 390 597 433 570C336 615 303 615 365 609C160 569 160 505 212 615C195 422 266 409 160 454L376 389C576 304 576 195 516 363C565 120 545 89 576 155C495 34 455 16 525 58C368 -10 313 -10 415 -1zM358 770L262 770L145 909L242 909L310 826L378 909L475 909z" />
      <glyph unicode="&#x161;" horiz-adv-x="478" d="M238 -10C155 -2 123 14 193 -10C68 50 52 74 91 30C28 123 28 149 36 98L126 149C167 74 238 74 126 107C346 101 346 139 308 74C323 195 269 205 346 175L187 219C36 284 36 363 86 236C106 513 233 513 36 449C311 505 342 490 275 513C397 455 413 431 373 474C438 381 438 355 429 407L341 355C298 429 233 429 341 396C134 400 134 363 169 429C156 312 208 303 134 332L291 289C444 222 444 140 395 271C370 -10 238 -10 444 53zM286 579L190 579L73 718L170 718L238 636L306 718L403 718z" />
      <glyph unicode="&#x162;" horiz-adv-x="590" d="M348 0L331 0L311 -46C382 -85 382 -125 348 -54C342 -211 278 -211 382 -175L223 -211L223 -150L265 -150C308 -137 308 -117 293 -150C293 -83 265 -83 308 -97L238 -83L238 -46L258 0L243 0L243 600L23 600L23 700L567 700L567 600L348 600z" />
      <glyph unicode="&#x163;" horiz-adv-x="364" d="M319 410L204 410L204 122C214 91 235 91 204 101L319 91L319 0L250 0L230 -46C301 -85 301 -125 267 -54C261 -211 197 -211 301 -175L142 -211L142 -150L184 -150C227 -137 227 -117 212 -150C212 -83 184 -83 227 -97L157 -83L157 -46L179 4C105 51 105 102 132 14L105 410L25 410L25 503L105 503L105 649L204 649L204 503L319 503z" />
      <glyph unicode="&#x164;" horiz-adv-x="590" d="M348 0L243 0L243 600L23 600L23 700L567 700L567 600L348 600zM343 770L247 770L130 909L227 909L295 826L363 909L460 909z" />
      <glyph unicode="&#x165;" horiz-adv-x="364" d="M213 0C105 39 105 102 145 0L105 410L25 410L25 503L105 503L105 649L204 649L204 503L319 503L319 410L204 410L204 122C214 91 235 91 204 101L319 91L319 0zM341 545L263 545L282 709L383 709z" />
      <glyph unicode="&#x166;" horiz-adv-x="590" d="M567 700L567 600L348 600L348 392L497 392L497 299L348 299L348 0L243 0L243 299L93 299L93 392L243 392L243 600L23 600L23 700z" />
      <glyph unicode="&#x167;" horiz-adv-x="364" d="M319 416L204 416L204 324L309 324L309 241L204 241L204 122C214 91 235 91 204 101L319 91L319 0L213 0C105 39 105 102 145 0L105 241L35 241L35 324L105 324L105 416L25 416L25 503L105 503L105 649L204 649L204 503L319 503z" />
      <glyph unicode="&#x168;" horiz-adv-x="699" d="M350 -10C247 2 205 26 296 -10C128 84 104 128 162 50C68 222 68 280 80 172L68 700L173 700L173 280C180 210 196 181 173 243C233 130 260 114 212 152C317 90 350 90 287 98C412 98 439 114 382 90C487 152 503 181 466 130C526 243 526 280 518 210L526 700L631 700L631 280C619 172 595 128 631 222C537 50 495 26 571 84C404 -10 350 -10 452 2zM187 785C231 896 291 896 187 854C331 888 357 872 315 896C363 869 369 865 359 871C381 858 387 856 375 861C397 854 402 854 392 854C440 869 440 896 422 854L511 896C466 785 408 785 511 828C367 794 341 810 382 785C310 828 296 828 319 822C258 811 258 785 276 828z" />
      <glyph unicode="&#x169;" horiz-adv-x="582" d="M267 -10C193 -1 163 16 228 -10C109 59 92 91 133 34C67 159 67 201 75 123L67 503L166 503L166 209C218 83 288 83 166 137C332 88 352 100 311 83C387 126 399 146 372 111C416 186 416 209 410 165L416 503L515 503L515 0L430 0L420 52L415 52C332 -10 267 -10 387 18zM129 595C174 706 233 706 129 663C275 697 299 681 257 706C305 678 311 674 301 680C323 667 329 665 317 670C339 663 344 663 334 663C382 679 382 706 364 663L453 706C408 595 350 595 453 636C312 603 283 619 326 595C252 637 238 637 261 631C200 621 200 595 218 637z" />
      <glyph unicode="&#x16A;" horiz-adv-x="699" d="M350 -10C247 2 205 26 296 -10C128 84 104 128 162 50C68 222 68 280 80 172L68 700L173 700L173 280C180 210 196 181 173 243C233 130 260 114 212 152C317 90 350 90 287 98C412 98 439 114 382 90C487 152 503 181 466 130C526 243 526 280 518 210L526 700L631 700L631 280C619 172 595 128 631 222C537 50 495 26 571 84C404 -10 350 -10 452 2zM497 806L202 806L202 881L497 881z" />
      <glyph unicode="&#x16B;" horiz-adv-x="582" d="M267 -10C193 -1 163 16 228 -10C109 59 92 91 133 34C67 159 67 201 75 123L67 503L166 503L166 209C218 83 288 83 166 137C332 88 352 100 311 83C387 126 399 146 372 111C416 186 416 209 410 165L416 503L515 503L515 0L430 0L420 52L415 52C332 -10 267 -10 387 18zM438 611L143 611L143 686L438 686z" />
      <glyph unicode="&#x16C;" horiz-adv-x="699" d="M350 -10C247 2 205 26 296 -10C128 84 104 128 162 50C68 222 68 280 80 172L68 700L173 700L173 280C180 210 196 181 173 243C233 130 260 114 212 152C317 90 350 90 287 98C412 98 439 114 382 90C487 152 503 181 466 130C526 243 526 280 518 210L526 700L631 700L631 280C619 172 595 128 631 222C537 50 495 26 571 84C404 -10 350 -10 452 2zM350 776C206 829 201 909 266 776L280 909C311 844 350 844 285 867C413 867 419 909 387 844L498 909C432 776 350 776 492 829z" />
      <glyph unicode="&#x16D;" horiz-adv-x="582" d="M267 -10C193 -1 163 16 228 -10C109 59 92 91 133 34C67 159 67 201 75 123L67 503L166 503L166 209C218 83 288 83 166 137C332 88 352 100 311 83C387 126 399 146 372 111C416 186 416 209 410 165L416 503L515 503L515 0L430 0L420 52L415 52C332 -10 267 -10 387 18zM291 582C147 635 142 715 207 582L221 715C252 650 291 650 226 673C354 673 360 715 328 650L439 715C373 582 291 582 433 635z" />
      <glyph unicode="&#x16E;" horiz-adv-x="699" d="M350 -10C247 2 205 26 296 -10C128 84 104 128 162 50C68 222 68 280 80 172L68 700L173 700L173 280C180 210 196 181 173 243C233 130 260 114 212 152C317 90 350 90 287 98C412 98 439 114 382 90C487 152 503 181 466 130C526 243 526 280 518 210L526 700L631 700L631 280C619 172 595 128 631 222C537 50 495 26 571 84C404 -10 350 -10 452 2zM350 756C254 797 254 851 296 756C295 946 350 946 254 903C445 903 445 851 403 946C403 756 350 756 445 797zM350 811C389 827 389 851 371 811C371 890 350 890 389 873C310 873 310 851 328 890C328 811 350 811 310 827z" />
      <glyph unicode="&#x16F;" horiz-adv-x="582" d="M267 -10C193 -1 163 16 228 -10C109 59 92 91 133 34C67 159 67 201 75 123L67 503L166 503L166 209C218 83 288 83 166 137C332 88 352 100 311 83C387 126 399 146 372 111C416 186 416 209 410 165L416 503L515 503L515 0L430 0L420 52L415 52C332 -10 267 -10 387 18zM291 565C195 606 195 660 237 565C236 755 291 755 195 713C386 713 386 660 344 755C344 565 291 565 386 606zM291 620C330 636 330 660 312 620C312 699 291 699 330 682C251 682 251 660 269 699C269 620 291 620 251 636z" />
      <glyph unicode="&#x170;" horiz-adv-x="699" d="M350 -10C247 2 205 26 296 -10C128 84 104 128 162 50C68 222 68 280 80 172L68 700L173 700L173 280C180 210 196 181 173 243C233 130 260 114 212 152C317 90 350 90 287 98C412 98 439 114 382 90C487 152 503 181 466 130C526 243 526 280 518 210L526 700L631 700L631 280C619 172 595 128 631 222C537 50 495 26 571 84C404 -10 350 -10 452 2zM306 770L222 770L319 912L422 912zM475 770L391 770L488 912L592 912z" />
      <glyph unicode="&#x171;" horiz-adv-x="582" d="M267 -10C193 -1 163 16 228 -10C109 59 92 91 133 34C67 159 67 201 75 123L67 503L166 503L166 209C218 83 288 83 166 137C332 88 352 100 311 83C387 126 399 146 372 111C416 186 416 209 410 165L416 503L515 503L515 0L430 0L420 52L415 52C332 -10 267 -10 387 18zM246 579L162 579L259 722L362 722zM415 579L331 579L428 722L532 722z" />
      <glyph unicode="&#x172;" horiz-adv-x="699" d="M526 700L631 700L631 280C560 45 456 9 631 145C375 -35 375 -67 402 -10C392 -105 420 -105 375 -88L435 -105L435 -170L407 -170C298 -134 298 -81 336 -170C313 -26 335 -10 298 -51C238 5 198 29 284 -8C125 87 102 131 157 53C68 224 68 280 79 174L68 700L173 700L173 280C180 210 196 181 173 243C233 130 260 114 212 152C317 90 350 90 287 98C412 98 439 114 382 90C487 152 503 181 466 130C526 243 526 280 518 210z" />
      <glyph unicode="&#x173;" horiz-adv-x="582" d="M416 503L515 503L515 0L513 0C454 -40 454 -67 473 -18C471 -105 499 -105 454 -88L513 -105L513 -170L486 -170C376 -134 376 -81 415 -170C402 -12 430 0 376 -43L420 52L415 52C332 -10 267 -10 387 18C193 -1 163 16 228 -10C109 59 92 91 133 34C67 159 67 201 75 123L67 503L166 503L166 209C218 83 288 83 166 137C332 88 352 100 311 83C387 126 399 146 372 111C416 186 416 209 410 165z" />
      <glyph unicode="&#x174;" horiz-adv-x="983" d="M344 0L185 0L12 700L125 700L259 144L279 144L424 700L559 700L704 144L724 144L858 700L971 700L798 0L639 0L502 533L482 533zM424 770L327 770L444 909L540 909L657 770L560 770L492 853z" />
      <glyph unicode="&#x175;" horiz-adv-x="795" d="M293 0L145 0L12 503L116 503L214 124L234 124L333 503L462 503L561 124L581 124L679 503L783 503L649 0L502 0L408 368L388 368zM330 579L233 579L350 718L446 718L563 579L466 579L398 662z" />
      <glyph unicode="&#x176;" horiz-adv-x="606" d="M355 0L250 0L250 253L-5 700L110 700L293 375L313 375L496 700L610 700L355 253zM235 770L138 770L255 909L351 909L468 770L371 770L303 853z" />
      <glyph unicode="&#x177;" horiz-adv-x="513" d="M403 503L508 503L285 -119C236 -200 172 -200 265 -176L63 -200L63 -108L161 -108C189 -99 195 -81 177 -108L212 -34L5 503L110 503L253 120L273 120zM195 579L98 579L215 718L311 718L428 579L331 579L263 662z" />
      <glyph unicode="&#x178;" horiz-adv-x="606" d="M355 0L250 0L250 253L-5 700L110 700L293 375L313 375L496 700L610 700L355 253zM262 793L163 793L163 892L262 892zM444 793L345 793L345 892L444 892z" />
      <glyph unicode="&#x179;" horiz-adv-x="589" d="M553 0L37 0L37 90L412 600L42 600L42 700L548 700L548 610L173 100L553 100zM337 770L249 770L345 912L454 912z" />
      <glyph unicode="&#x17A;" horiz-adv-x="451" d="M424 0L27 0L27 86L292 413L32 413L32 503L419 503L419 418L154 91L424 91zM271 579L183 579L279 722L388 722z" />
      <glyph unicode="&#x17B;" horiz-adv-x="589" d="M553 0L37 0L37 90L412 600L42 600L42 700L548 700L548 610L173 100L553 100zM346 793L243 793L243 892L346 892z" />
      <glyph unicode="&#x17C;" horiz-adv-x="451" d="M424 0L27 0L27 86L292 413L32 413L32 503L419 503L419 418L154 91L424 91zM279 598L171 598L171 698L279 698z" />
      <glyph unicode="&#x17D;" horiz-adv-x="589" d="M553 0L37 0L37 90L412 600L42 600L42 700L548 700L548 610L173 100L553 100zM343 770L247 770L130 909L227 909L295 826L363 909L460 909z" />
      <glyph unicode="&#x17E;" horiz-adv-x="451" d="M424 0L27 0L27 86L292 413L32 413L32 503L419 503L419 418L154 91L424 91zM274 579L178 579L61 718L158 718L226 636L294 718L391 718z" />
      <glyph unicode="&#x18F;" horiz-adv-x="753" d="M372 -10C255 4 205 34 310 -10C117 103 89 155 155 63C47 264 47 328 61 206L47 391L600 391C581 471 560 504 594 433C511 563 478 582 538 537C409 610 370 610 445 600C207 563 170 485 284 610L57 485C227 710 370 710 102 625C488 694 540 664 432 710C632 590 662 536 591 633C707 419 707 350 692 481C692 218 662 164 707 280C591 66 540 36 632 109C433 -10 372 -10 489 5zM372 90C446 99 478 117 410 90C537 161 559 194 510 135C593 264 599 306 580 226L155 306C167 224 187 192 157 262C232 134 264 116 206 159C332 90 372 90 296 98z" />
      <glyph unicode="&#x192;" horiz-adv-x="402" d="M-68 -200L-48 -108L12 -108C56 -93 62 -63 40 -108L148 331L53 331L72 423L167 423L201 580C264 693 340 693 217 650L427 693L408 605L349 605C304 590 299 560 321 605L271 423L371 423L351 331L251 331L159 -88C96 -200 20 -200 143 -157z" />
      <glyph unicode="&#x1A0;" horiz-adv-x="767" d="M605 626C720 466 720 350 677 562C705 218 675 164 720 280C604 66 553 36 645 109C445 -10 383 -10 501 5C264 5 213 36 321 -10C122 109 92 164 162 66C47 280 47 350 62 218C62 481 92 536 47 419C162 633 213 664 122 590C321 710 383 710 264 694C459 703 496 691 421 710L544 691C596 706 596 737 578 691C589 778 584 790 596 755L667 790C680 746 680 722 675 769C653 635 605 626 680 671zM383 90C464 100 500 122 425 90C563 174 584 214 535 144C615 299 615 350 604 254C604 445 584 485 615 400C535 555 500 577 563 525C425 610 383 610 464 599C302 599 267 577 341 610C203 525 183 485 231 555C152 400 152 350 162 445C162 254 183 214 152 299C231 144 267 122 203 174C341 90 383 90 302 100z" />
      <glyph unicode="&#x1A1;" horiz-adv-x="574" d="M465 439C535 326 535 252 509 392C524 156 502 116 535 201C451 45 413 23 480 76C333 -10 287 -10 375 1C198 1 160 23 240 -10C92 76 70 116 122 45C38 201 38 252 48 156C48 346 70 386 38 302C122 457 160 479 92 426C240 513 287 513 198 501C341 508 369 500 314 513L402 500C441 514 441 540 427 500C437 578 429 600 441 558L512 600C525 558 525 537 520 579C503 453 465 439 525 487zM287 82C339 89 362 103 314 82C403 137 417 163 385 117C437 218 437 252 430 189C430 314 417 340 437 285C385 386 362 400 403 366C314 421 287 421 339 414C234 414 211 400 259 421C170 366 157 340 188 386C137 285 137 252 143 314C143 189 157 163 137 218C188 117 211 103 170 137C259 82 287 82 234 89z" />
      <glyph unicode="&#x1AF;" horiz-adv-x="711" d="M726 800C740 760 740 737 735 781C702 634 640 634 740 673L631 634L631 280C619 172 595 128 631 222C537 50 495 26 571 84C404 -10 350 -10 452 2C247 2 205 26 296 -10C128 84 104 128 162 50C68 222 68 280 80 172L68 700L173 700L173 280C180 210 196 181 173 243C233 130 260 114 212 152C317 90 350 90 287 98C412 98 439 114 382 90C487 152 503 181 466 130C526 243 526 280 518 210L526 700L617 700C656 714 656 741 642 700C649 788 643 800 656 762z" />
      <glyph unicode="&#x1B0;" horiz-adv-x="598" d="M610 603C624 565 624 541 616 589C586 437 524 437 624 475L515 437L515 0L430 0L420 52L415 52C332 -10 267 -10 387 18C193 -1 163 16 228 -10C109 59 92 91 133 34C67 159 67 201 75 123L67 503L166 503L166 209C218 83 288 83 166 137C332 88 352 100 311 83C387 126 399 146 372 111C416 186 416 209 410 165L416 503L501 503C540 517 540 544 526 503C533 591 527 603 540 566z" />
      <glyph unicode="&#x1F4;" horiz-adv-x="767" d="M406 363L702 363L702 0L619 0L609 91L604 91C478 -10 384 -10 561 37C265 5 214 36 322 -10C122 109 92 164 162 66C47 280 47 350 62 218C62 482 92 537 47 420C162 634 214 664 122 591C322 710 384 710 265 694C480 699 523 679 434 710C601 631 631 597 565 659C682 523 696 481 661 562L587 481C472 610 384 610 552 558C302 599 267 577 341 610C203 525 183 485 231 555C152 400 152 350 162 445C162 254 183 214 152 299C231 144 267 122 203 174C341 90 384 90 302 100C457 98 489 116 422 90C546 157 565 185 521 134C594 243 596 273 584 213L597 281L406 281zM423 770L335 770L431 912L540 912z" />
      <glyph unicode="&#x1F5;" horiz-adv-x="589" d="M288 -210C197 -201 163 -183 239 -210C103 -142 85 -115 129 -165C57 -61 56 -33 67 -88L156 -33C208 -121 288 -121 161 -79C424 -70 424 7 370 -121L424 87L419 87C330 24 268 24 384 48C185 34 150 55 224 24C88 104 68 142 115 75C38 221 38 269 48 179C48 358 68 395 38 316C115 461 150 482 88 432C224 513 268 513 185 502C388 485 422 443 332 513L427 443L437 503L523 503L523 6C513 -74 495 -107 523 -36C449 -165 413 -183 476 -139C336 -210 288 -210 377 -201zM281 114C331 120 353 133 307 114C392 164 405 188 375 146C424 239 424 269 417 212C417 325 405 349 424 299C375 390 353 403 392 372C307 423 281 423 331 416C138 359 138 269 198 423C198 114 281 114 138 177zM340 579L252 579L348 722L457 722z" />
      <glyph unicode="&#x1FA;" horiz-adv-x="666" d="M667 0L554 0L494 168L172 168L112 0L-2 0L256 700L410 700zM323 588L206 263L460 263L343 588zM333 747C237 788 237 842 279 747C273 930 321 936 237 892L355 992L448 992L389 918C428 874 428 842 415 900C386 747 333 747 428 788zM333 803C372 819 372 842 354 803C354 881 333 881 372 864C293 864 293 842 311 881C311 803 333 803 293 819z" />
      <glyph unicode="&#x1FB;" horiz-adv-x="540" d="M224 -10C157 -3 130 10 188 -10C81 42 67 66 102 24C45 116 45 146 52 90C113 308 248 308 45 244L376 308L376 321C335 428 270 428 376 386C166 395 160 355 207 428L63 355C74 408 91 432 65 382C131 476 162 491 107 456C228 513 270 513 192 505C475 438 475 321 395 513L475 0L389 0L379 55L374 55C294 -10 224 -10 351 21zM234 75C376 127 376 211 322 75L376 229L255 229C144 196 144 150 180 229C176 75 234 75 144 104zM272 549C176 591 176 643 218 549C212 732 260 738 176 695L294 794L387 794L328 720C367 675 367 643 354 701C325 549 272 549 367 591zM272 604C311 620 311 643 293 604C293 683 272 683 311 667C232 667 232 643 250 683C250 604 272 604 232 620z" />
      <glyph unicode="&#x1FC;" horiz-adv-x="938" d="M884 700L884 603L530 603L530 399L864 399L864 304L530 304L530 97L884 97L884 0L425 0L425 166L171 166L100 0L-13 0L292 700zM359 603L212 261L425 261L425 603zM519 770L431 770L527 912L636 912z" />
      <glyph unicode="&#x1FD;" horiz-adv-x="893" d="M854 268C852 231 849 218 854 248L476 218C542 76 620 76 485 134C714 101 737 144 672 76L839 144C728 -10 620 -10 805 48C461 34 428 92 544 -10C311 -10 227 -10 394 33C158 -3 131 10 190 -10C82 41 67 64 103 23C45 113 45 142 52 87C113 300 248 300 45 238L377 300L377 320C336 428 270 428 377 385C166 396 160 355 208 428L63 355C74 409 91 433 65 383C131 476 161 491 107 457C227 513 269 513 191 505C407 476 439 416 347 513C540 513 620 513 475 476C704 502 740 482 664 513C804 432 824 395 776 461C854 315 854 268 844 357zM756 295C693 428 620 428 750 375C485 373 477 295 542 428zM234 75C377 127 377 211 323 75L377 221L255 221C144 191 144 146 181 221C176 75 234 75 144 103zM489 579L401 579L497 722L606 722z" />
      <glyph unicode="&#x1FE;" horiz-adv-x="767" d="M588 640C720 472 720 350 670 574C705 218 675 164 720 280C604 66 553 36 645 109C445 -10 383 -10 501 5C296 -1 256 15 339 -10L230 -35L128 -35L178 60C47 227 47 350 96 124C62 481 92 536 47 419C162 633 213 664 122 590C321 710 383 710 264 694C469 701 511 685 426 710L537 735L638 735zM152 350C180 199 228 153 152 268L463 596C410 610 383 610 437 605C302 599 267 577 341 610C203 525 183 485 231 555C152 400 152 350 162 445zM383 90C464 100 500 122 425 90C563 174 584 214 535 144C615 299 615 350 604 254C587 499 539 547 615 431L304 104C356 90 383 90 330 94zM425 770L337 770L433 912L542 912z" />
      <glyph unicode="&#x1FF;" horiz-adv-x="574" d="M443 459C536 338 536 252 501 412C525 156 503 116 536 201C452 45 414 23 481 76C333 -10 287 -10 376 1C227 -5 199 5 256 -10L178 -35L89 -35L131 44C38 165 38 252 72 90C48 346 70 386 38 302C122 457 160 479 92 426C240 513 287 513 198 501C347 508 375 498 317 513L396 538L485 538zM135 252C149 162 177 130 135 202L331 417C303 424 287 424 317 421C234 416 211 402 259 424C169 367 155 341 187 388C135 285 135 252 141 315zM287 79C340 86 363 100 315 79C404 135 418 161 386 114C439 218 439 252 432 187C425 342 397 374 439 301L243 86C271 79 287 79 256 81zM333 579L245 579L341 722L450 722z" />
      <glyph unicode="&#x218;" horiz-adv-x="623" d="M313 -10C209 0 168 20 257 -10C95 67 73 101 126 40C40 172 40 213 51 135L145 213C207 85 313 85 145 141C471 129 471 195 419 85C433 283 357 297 471 249L230 321C55 403 55 505 113 342C65 579 85 610 55 544C133 665 171 683 105 641C252 710 303 710 208 701C405 700 445 681 357 710C516 635 538 601 485 661C571 529 571 487 560 567L466 487C459 531 446 551 466 510C414 585 390 597 433 570C336 615 303 615 365 609C160 569 160 505 212 615C195 422 266 409 160 454L376 389C576 304 576 195 516 363C565 120 545 89 576 155C495 34 455 16 525 58C368 -10 313 -10 415 -1zM305 -247L227 -247L261 -83L362 -83z" />
      <glyph unicode="&#x219;" horiz-adv-x="478" d="M238 -10C155 -2 123 14 193 -10C68 50 52 74 91 30C28 123 28 149 36 98L126 149C167 74 238 74 126 107C346 101 346 139 308 74C323 195 269 205 346 175L187 219C36 284 36 363 86 236C106 513 233 513 36 449C311 505 342 490 275 513C397 455 413 431 373 474C438 381 438 355 429 407L341 355C298 429 233 429 341 396C134 400 134 363 169 429C156 312 208 303 134 332L291 289C444 222 444 140 395 271C370 -10 238 -10 444 53zM233 -247L155 -247L189 -83L290 -83z" />
      <glyph unicode="&#x21A;" horiz-adv-x="590" d="M348 0L243 0L243 600L23 600L23 700L567 700L567 600L348 600zM289 -247L211 -247L245 -83L346 -83z" />
      <glyph unicode="&#x21B;" horiz-adv-x="364" d="M213 0C105 39 105 102 145 0L105 410L25 410L25 503L105 503L105 649L204 649L204 503L319 503L319 410L204 410L204 122C214 91 235 91 204 101L319 91L319 0zM208 -247L130 -247L164 -83L265 -83z" />
      <glyph unicode="&#x232;" horiz-adv-x="606" d="M355 0L250 0L250 253L-5 700L110 700L293 375L313 375L496 700L610 700L355 253zM450 806L155 806L155 881L450 881z" />
      <glyph unicode="&#x233;" horiz-adv-x="513" d="M403 503L508 503L285 -119C236 -200 172 -200 265 -176L63 -200L63 -108L161 -108C189 -99 195 -81 177 -108L212 -34L5 503L110 503L253 120L273 120zM410 611L115 611L115 686L410 686z" />
      <glyph unicode="&#x237;" horiz-adv-x="233" d="M-42 -200L-42 -108L35 -108C67 -97 67 -77 56 -108L67 503L166 503L166 -98C123 -200 57 -200 166 -159z" />
      <glyph unicode="&#x244;" horiz-adv-x="766" d="M756 510L756 418L664 418L664 280C652 172 628 128 664 222C570 50 528 26 604 84C437 -10 383 -10 485 2C280 2 238 26 329 -10C162 84 138 128 195 50C102 222 102 280 114 172L102 418L10 418L10 510L102 510L102 700L207 700L207 510L559 510L559 700L664 700L664 510zM559 418L207 418L207 280C214 210 230 181 207 243C266 130 293 114 245 152C350 90 383 90 320 98C445 98 472 114 415 90C520 152 536 181 499 130C559 243 559 280 551 210z" />
      <glyph unicode="&#x259;" horiz-adv-x="565" d="M278 -10C192 0 156 22 233 -10C90 72 69 110 119 43C38 189 38 236 48 147C39 277 43 289 38 260L428 289C355 427 278 427 418 371C176 400 155 359 222 427L53 359C163 513 278 513 83 449C366 501 404 479 324 513C471 426 493 386 442 457C526 302 526 252 515 346C515 156 493 116 526 201C442 45 404 23 471 76C324 -10 278 -10 366 1zM278 76C417 133 428 213 359 76L137 213C200 76 278 76 143 133z" />
      <glyph unicode="&#x289;" horiz-adv-x="619" d="M609 401L609 316L533 316L533 0L448 0L438 52L433 52C350 -10 285 -10 405 18C212 -1 182 16 247 -10C128 59 111 91 152 34C85 159 85 201 93 123L85 316L10 316L10 401L85 401L85 503L184 503L184 401L435 401L435 503L533 503L533 401zM435 316L184 316L184 209C236 83 306 83 184 137C351 88 371 100 329 83C406 126 418 146 391 111C435 186 435 209 429 165z" />
      <glyph unicode="&#x2BC;" horiz-adv-x="195" d="M108 538L30 538L64 702L165 702z" />
      <glyph unicode="&#x2C6;" horiz-adv-x="390" d="M127 579L30 579L147 718L243 718L360 579L263 579L195 662z" />
      <glyph unicode="&#x2C7;" horiz-adv-x="390" d="M243 579L147 579L30 718L127 718L195 636L263 718L360 718z" />
      <glyph unicode="&#x2D8;" horiz-adv-x="357" d="M179 582C35 635 30 715 95 582L109 715C140 650 179 650 114 673C242 673 248 715 216 650L327 715C261 582 179 582 321 635z" />
      <glyph unicode="&#x2D9;" horiz-adv-x="168" d="M138 598L30 598L30 698L138 698z" />
      <glyph unicode="&#x2DA;" horiz-adv-x="0" d="M-125 565C-221 606 -221 660 -178 565C-179 755 -125 755 -221 713C-30 713 -30 660 -71 755C-71 565 -125 565 -30 606zM-125 620C-86 636 -86 660 -103 620C-103 699 -125 699 -86 682C-165 682 -165 660 -146 699C-146 620 -125 620 -165 636z" />
      <glyph unicode="&#x2DB;" horiz-adv-x="197" d="M140 -170C30 -134 30 -81 69 -170C56 -12 84 0 30 -43L93 9L167 0C108 -40 108 -67 127 -18C125 -105 153 -105 108 -88L167 -105L167 -170z" />
      <glyph unicode="&#x2DC;" horiz-adv-x="384" d="M30 595C75 706 134 706 30 663C176 697 200 681 158 706C206 678 212 674 202 680C224 667 230 665 218 670C240 663 245 663 235 663C283 679 283 706 265 663L354 706C309 595 251 595 354 636C213 603 184 619 227 595C153 637 139 637 162 631C101 621 101 595 119 637z" />
      <glyph unicode="&#x2DD;" horiz-adv-x="430" d="M114 579L30 579L127 722L230 722zM283 579L199 579L296 722L400 722z" />
      <glyph unicode="&#x300;" horiz-adv-x="0" d="M-30 579L-118 579L-235 722L-126 722z" />
      <glyph unicode="&#x301;" horiz-adv-x="0" d="M-147 579L-235 579L-139 722L-30 722z" />
      <glyph unicode="&#x302;" horiz-adv-x="0" d="M-263 579L-360 579L-243 718L-147 718L-30 579L-127 579L-195 662z" />
      <glyph unicode="&#x303;" horiz-adv-x="0" d="M-354 595C-308 706 -250 706 -354 663C-208 697 -184 681 -226 706C-177 678 -171 674 -182 680C-159 667 -154 665 -165 670C-143 663 -139 663 -148 663C-101 679 -101 706 -119 663L-30 706C-74 595 -133 595 -30 636C-170 603 -200 619 -157 595C-230 637 -245 637 -221 631C-283 621 -283 595 -265 637z" />
      <glyph unicode="&#x304;" horiz-adv-x="0" d="M-30 611L-325 611L-325 686L-30 686z" />
      <glyph unicode="&#x306;" horiz-adv-x="0" d="M-178 582C-321 635 -327 715 -262 582L-248 715C-216 650 -178 650 -242 673C-114 673 -109 715 -140 650L-30 715C-95 582 -178 582 -35 635z" />
      <glyph unicode="&#x307;" horiz-adv-x="0" d="M-30 598L-138 598L-138 698L-30 698z" />
      <glyph unicode="&#x308;" horiz-adv-x="0" d="M-212 599L-311 599L-311 698L-212 698zM-30 599L-129 599L-129 698L-30 698z" />
      <glyph unicode="&#x309;" horiz-adv-x="0" d="M-139 553C-111 602 -111 620 -120 579C-125 657 -151 657 -111 641C-182 653 -195 646 -167 657L-195 718C-155 731 -127 731 -181 726C-30 694 -30 640 -65 731C-41 577 -59 553 -30 610z" />
      <glyph unicode="&#x30A;" horiz-adv-x="0" d="M-125 565C-221 606 -221 660 -178 565C-179 755 -125 755 -221 713C-30 713 -30 660 -71 755C-71 565 -125 565 -30 606zM-125 620C-86 636 -86 660 -103 620C-103 699 -125 699 -86 682C-165 682 -165 660 -146 699C-146 620 -125 620 -165 636z" />
      <glyph unicode="&#x30B;" horiz-adv-x="0" d="M-316 579L-400 579L-303 722L-200 722zM-147 579L-231 579L-134 722L-30 722z" />
      <glyph unicode="&#x30C;" horiz-adv-x="0" d="M-147 579L-243 579L-360 718L-263 718L-195 636L-127 718L-30 718z" />
      <glyph unicode="&#x312;" horiz-adv-x="0" d="M-71 579L-173 579L-111 748L-30 748z" />
      <glyph unicode="&#x31B;" horiz-adv-x="0" d="M-198 436L-198 502L-153 502C-115 516 -115 543 -127 502C-121 590 -127 602 -115 565L-44 602C-30 562 -30 539 -34 583C-67 436 -130 436 -30 475z" />
      <glyph unicode="&#x323;" horiz-adv-x="0" d="M-30 -167L-138 -167L-138 -68L-30 -68z" />
      <glyph unicode="&#x326;" horiz-adv-x="0" d="M-87 -247L-165 -247L-131 -83L-30 -83z" />
      <glyph unicode="&#x327;" horiz-adv-x="0" d="M-189 -211L-189 -150L-147 -150C-104 -137 -104 -117 -119 -150C-119 -83 -147 -83 -104 -97L-174 -83L-174 -46L-146 18L-81 0L-101 -46C-30 -85 -30 -125 -63 -54C-70 -211 -134 -211 -30 -175z" />
      <glyph unicode="&#x328;" horiz-adv-x="0" d="M-57 -170C-167 -134 -167 -81 -127 -170C-141 -12 -113 0 -167 -43L-104 9L-30 0C-89 -40 -89 -67 -69 -18C-72 -105 -44 -105 -89 -88L-30 -105L-30 -170z" />
      <glyph unicode="&#x3A9;" horiz-adv-x="823" d="M90 0L90 79L218 79C60 225 60 360 138 127C75 486 105 540 60 426C177 635 231 665 135 593C345 710 411 710 285 695C537 695 591 665 477 710C687 593 717 540 645 635C763 426 763 360 747 486C685 127 604 79 763 225L733 79L733 0L478 0L478 78C540 108 571 134 509 90C627 192 647 231 601 160C678 312 678 360 667 269C666 458 643 499 678 412C587 572 547 595 619 540C461 630 411 630 506 618C315 618 275 595 361 630C203 540 180 499 235 572C145 412 145 360 156 458C155 269 175 231 145 312C221 160 252 134 195 192C313 90 345 78 282 108L345 0z" />
      <glyph unicode="&#x400;" horiz-adv-x="590" d="M536 0L77 0L77 700L536 700L536 603L182 603L182 399L516 399L516 304L182 304L182 97L536 97zM358 770L270 770L153 912L262 912z" />
      <glyph unicode="&#x401;" horiz-adv-x="590" d="M536 0L77 0L77 700L536 700L536 603L182 603L182 399L516 399L516 304L182 304L182 97L536 97zM270 793L171 793L171 892L270 892zM452 793L353 793L353 892L452 892z" />
      <glyph unicode="&#x402;" horiz-adv-x="718" d="M409 -28C574 47 574 169 506 -28C521 352 428 352 574 282C332 338 288 312 374 352L288 0L183 0L183 602L0 602L0 700L472 700L472 602L288 602L288 405C375 448 443 448 328 431C679 341 679 169 592 448C668 59 648 15 679 111C596 -64 556 -90 627 -29C466 -128 409 -128 515 -115z" />
      <glyph unicode="&#x403;" horiz-adv-x="545" d="M182 0L77 0L77 700L525 700L525 600L182 600zM345 770L257 770L353 912L462 912z" />
      <glyph unicode="&#x404;" horiz-adv-x="730" d="M383 -10C264 5 213 36 321 -10C122 109 92 164 162 66C47 280 47 350 62 218C62 481 92 536 47 419C162 633 213 664 122 590C321 710 383 710 264 694C482 699 526 677 435 710C606 626 636 590 570 655C685 512 697 468 665 553L588 468C481 610 383 610 558 550C307 600 274 582 343 610C214 538 194 506 241 563C161 438 158 399 173 474L467 399L467 304L158 304C173 227 194 195 161 264C241 136 274 118 214 162C343 90 383 90 307 99C560 150 588 238 484 90L697 238C667 150 639 112 687 192C574 45 530 23 610 74C437 -10 383 -10 486 1z" />
      <glyph unicode="&#x405;" horiz-adv-x="623" d="M313 -10C209 0 168 20 257 -10C95 67 73 101 126 40C40 172 40 213 51 135L145 213C207 85 313 85 145 141C471 129 471 195 419 85C433 283 357 297 471 249L230 321C55 403 55 505 113 342C65 579 85 610 55 544C133 665 171 683 105 641C252 710 303 710 208 701C405 700 445 681 357 710C516 635 538 601 485 661C571 529 571 487 560 567L466 487C459 531 446 551 466 510C414 585 390 597 433 570C336 615 303 615 365 609C160 569 160 505 212 615C195 422 266 409 160 454L376 389C576 304 576 195 516 363C565 120 545 89 576 155C495 34 455 16 525 58C368 -10 313 -10 415 -1z" />
      <glyph unicode="&#x406;" horiz-adv-x="259" d="M182 0L77 0L77 700L182 700z" />
      <glyph unicode="&#x407;" horiz-adv-x="259" d="M182 0L77 0L77 700L182 700zM88 793L-11 793L-11 892L88 892zM270 793L171 793L171 892L270 892z" />
      <glyph unicode="&#x408;" horiz-adv-x="399" d="M10 0L10 100L174 100C222 118 222 149 204 100L222 700L327 700L327 127C281 0 197 0 327 47z" />
      <glyph unicode="&#x409;" horiz-adv-x="1026" d="M8 -5L8 98L39 98C110 125 115 179 85 98L159 700L596 700L596 429L773 429C851 420 883 402 814 429C941 358 959 326 915 384C986 256 986 214 977 293C977 135 959 103 986 172C915 45 883 27 941 70C814 0 773 0 851 9L491 0L491 600L256 600L219 167C152 -5 48 -5 209 49zM770 100C881 144 881 214 836 100C838 329 770 329 881 284L596 329L596 100z" />
      <glyph unicode="&#x40A;" horiz-adv-x="1036" d="M77 0L77 700L182 700L182 416L501 416L501 700L606 700L606 416L783 416C861 407 893 389 824 416C951 347 969 315 925 371C996 248 996 208 987 283C987 132 969 100 996 168C925 44 893 26 951 68C824 0 783 0 861 8L501 0L501 316L182 316L182 0zM779 98C891 141 891 208 847 98C847 317 779 317 891 273L606 317L606 98z" />
      <glyph unicode="&#x40B;" horiz-adv-x="726" d="M183 0L183 602L0 602L0 700L472 700L472 602L288 602L288 407C373 450 444 450 329 433C661 365 661 225 578 450L661 0L556 0L556 220C508 353 431 353 556 306C330 339 288 313 371 353L288 0z" />
      <glyph unicode="&#x40C;" horiz-adv-x="578" d="M182 0L77 0L77 700L182 700L182 379L449 700L578 700L290 355L598 0L468 0L182 332zM356 770L268 770L364 912L473 912z" />
      <glyph unicode="&#x40D;" horiz-adv-x="716" d="M229 0L77 0L77 700L182 700L182 153L202 153L487 700L639 700L639 0L534 0L534 547L514 547zM404 770L316 770L199 912L308 912z" />
      <glyph unicode="&#x40E;" horiz-adv-x="618" d="M503 700L616 700L335 84C272 0 198 0 309 28L98 0L98 97L193 97C234 106 245 130 221 97L262 166L2 700L117 700L305 303L325 303zM314 776C170 829 165 909 230 776L244 909C275 844 314 844 249 867C377 867 383 909 351 844L462 909C396 776 314 776 456 829z" />
      <glyph unicode="&#x40F;" horiz-adv-x="699" d="M402 -140L297 -140L297 0L77 0L77 700L182 700L182 100L518 100L518 700L623 700L623 0L402 0z" />
      <glyph unicode="&#x410;" horiz-adv-x="666" d="M667 0L554 0L494 168L172 168L112 0L-2 0L256 700L410 700zM323 588L206 263L460 263L343 588z" />
      <glyph unicode="&#x411;" horiz-adv-x="644" d="M77 0L77 700L561 700L561 605L182 605L182 409L400 409C471 400 501 383 437 409C555 341 573 310 531 365C599 244 599 205 590 279C590 129 573 98 599 165C531 43 501 26 555 67C437 0 400 0 471 8zM397 95C494 139 494 205 454 95C454 314 397 314 494 270L182 314L182 95z" />
      <glyph unicode="&#x412;" horiz-adv-x="649" d="M77 0L77 700L389 700C458 691 488 674 425 700C541 634 558 604 518 657C584 541 584 505 575 574C547 379 509 355 584 435L509 350C594 269 594 195 553 328C585 125 568 95 594 158C528 42 498 25 551 65C435 0 399 0 468 8zM382 396C479 441 479 500 435 396C435 605 382 605 479 560L182 605L182 396zM392 95C489 140 489 200 445 95C445 304 392 304 489 258L182 304L182 95z" />
      <glyph unicode="&#x413;" horiz-adv-x="545" d="M182 0L77 0L77 700L525 700L525 600L182 600z" />
      <glyph unicode="&#x414;" horiz-adv-x="693" d="M2 -140L2 100L13 100C89 124 95 182 65 100L138 700L591 700L591 100L666 100L666 -140L561 -140L561 0L107 0L107 -140zM486 100L486 600L236 600L200 182C181 109 168 100 196 139z" />
      <glyph unicode="&#x415;" horiz-adv-x="590" d="M536 0L77 0L77 700L536 700L536 603L182 603L182 399L516 399L516 304L182 304L182 97L536 97z" />
      <glyph unicode="&#x416;" horiz-adv-x="825" d="M122 0L-3 0L252 355L17 700L142 700L360 378L360 700L465 700L465 378L683 700L808 700L573 355L828 0L703 0L465 337L465 0L360 0L360 337z" />
      <glyph unicode="&#x417;" horiz-adv-x="604" d="M296 -10C195 0 155 17 242 -10C85 61 64 93 115 35C33 161 33 201 43 125L138 201C197 88 296 88 138 138C356 93 380 103 328 88C422 127 434 144 404 113C453 178 453 198 446 160C447 235 436 252 453 217C408 282 388 292 424 268C343 307 317 307 367 302L245 307L245 398L315 398C439 444 439 502 388 398C384 612 295 612 439 564C152 562 152 501 208 612L47 501C57 575 77 607 47 539C125 664 163 682 97 639C245 710 296 710 201 700C390 700 428 682 346 710C494 639 514 608 465 664C544 543 544 507 534 577C492 373 439 357 544 428L439 352C558 275 558 193 499 334C547 121 527 90 558 155C476 35 436 17 506 59C350 -10 296 -10 396 -1z" />
      <glyph unicode="&#x418;" horiz-adv-x="716" d="M229 0L77 0L77 700L182 700L182 153L202 153L487 700L639 700L639 0L534 0L534 547L514 547z" />
      <glyph unicode="&#x419;" horiz-adv-x="716" d="M229 0L77 0L77 700L182 700L182 153L202 153L487 700L639 700L639 0L534 0L534 547L514 547zM358 776C214 829 209 909 274 776L288 909C319 844 358 844 293 867C421 867 427 909 395 844L506 909C440 776 358 776 500 829z" />
      <glyph unicode="&#x41A;" horiz-adv-x="578" d="M182 0L77 0L77 700L182 700L182 379L449 700L578 700L290 355L598 0L468 0L182 332z" />
      <glyph unicode="&#x41B;" horiz-adv-x="688" d="M8 -5L8 98L39 98C110 125 115 179 85 98L159 700L611 700L611 0L506 0L506 600L256 600L219 167C152 -5 48 -5 209 49z" />
      <glyph unicode="&#x41C;" horiz-adv-x="909" d="M182 0L77 0L77 700L253 700L445 145L465 145L656 700L833 700L833 0L728 0L728 543L708 543L519 0L390 0L202 543L182 543z" />
      <glyph unicode="&#x41D;" horiz-adv-x="716" d="M182 0L77 0L77 700L182 700L182 404L534 404L534 700L639 700L639 0L534 0L534 301L182 301z" />
      <glyph unicode="&#x41E;" horiz-adv-x="767" d="M383 -10C264 5 213 36 321 -10C122 109 92 164 162 66C47 280 47 350 62 218C62 481 92 536 47 419C162 633 213 664 122 590C321 710 383 710 264 694C501 694 553 664 445 710C645 590 675 536 604 633C720 419 720 350 705 481C705 218 675 164 720 280C604 66 553 36 645 109C445 -10 383 -10 501 5zM383 90C464 100 500 122 425 90C563 174 584 214 535 144C615 299 615 350 604 254C604 445 584 485 615 400C535 555 500 577 563 525C425 610 383 610 464 599C302 599 267 577 341 610C203 525 183 485 231 555C152 400 152 350 162 445C162 254 183 214 152 299C231 144 267 122 203 174C341 90 383 90 302 100z" />
      <glyph unicode="&#x41F;" horiz-adv-x="713" d="M182 0L77 0L77 700L636 700L636 0L531 0L531 600L182 600z" />
      <glyph unicode="&#x420;" horiz-adv-x="643" d="M77 0L77 700L388 700C463 690 495 671 427 700C552 626 570 592 527 652C598 519 598 476 588 558C588 393 570 359 598 432C527 298 495 279 552 325C427 251 388 251 463 260L182 251L182 0zM385 351C493 401 493 476 445 351C446 600 385 600 493 550L182 600L182 351z" />
      <glyph unicode="&#x421;" horiz-adv-x="730" d="M383 -10C264 5 213 36 321 -10C122 109 92 164 162 66C47 280 47 350 62 218C62 481 92 536 47 419C162 633 213 664 122 590C321 710 383 710 264 694C484 699 528 677 436 710C607 626 636 589 571 655C685 510 697 464 665 551L588 464C481 610 383 610 558 550C302 599 267 577 341 610C203 525 183 485 231 555C152 400 152 350 162 445C162 254 183 214 152 299C231 144 267 122 203 174C341 90 383 90 302 100C560 150 588 241 484 90L697 241C665 151 637 113 685 193C572 45 529 23 608 75C437 -10 383 -10 485 1z" />
      <glyph unicode="&#x422;" horiz-adv-x="590" d="M348 0L243 0L243 600L23 600L23 700L567 700L567 600L348 600z" />
      <glyph unicode="&#x423;" horiz-adv-x="618" d="M503 700L616 700L335 84C272 0 198 0 309 28L98 0L98 97L193 97C234 106 245 130 221 97L262 166L2 700L117 700L305 303L325 303z" />
      <glyph unicode="&#x424;" horiz-adv-x="816" d="M473 630C589 618 635 595 535 630C717 539 742 498 681 571C779 411 779 360 766 457C766 262 742 221 779 308C681 148 635 125 717 180C535 90 473 90 589 101L460 90L460 -20L355 -20L355 90L343 90C226 101 180 125 280 90C98 180 74 221 134 148C37 308 37 360 49 262C49 457 74 498 37 411C134 571 180 595 98 539C280 630 343 630 226 618L355 630L355 720L460 720L460 630zM142 360C150 294 166 268 142 325C206 220 236 205 182 241C302 182 343 182 266 189L355 182L355 538L343 538C266 530 236 515 302 538C182 478 166 452 206 499C142 394 142 360 150 425zM472 182C549 189 579 205 513 182C633 241 649 268 609 220C674 325 674 360 665 294C665 425 649 452 674 394C609 499 579 515 633 478C513 538 472 538 549 530L460 538L460 182z" />
      <glyph unicode="&#x425;" horiz-adv-x="629" d="M124 0L2 0L244 360L17 700L138 700L305 445L325 445L491 700L612 700L385 360L627 0L505 0L325 273L305 273z" />
      <glyph unicode="&#x426;" horiz-adv-x="721" d="M694 -140L589 -140L589 0L77 0L77 700L182 700L182 100L514 100L514 700L619 700L619 100L694 100z" />
      <glyph unicode="&#x427;" horiz-adv-x="673" d="M491 283C380 223 307 223 453 252C63 307 63 476 144 223L63 700L168 700L168 480C218 323 318 323 168 375C460 353 491 385 392 323L491 700L596 700L596 0L491 0z" />
      <glyph unicode="&#x428;" horiz-adv-x="959" d="M883 0L77 0L77 700L182 700L182 100L427 100L427 700L532 700L532 100L778 100L778 700L883 700z" />
      <glyph unicode="&#x429;" horiz-adv-x="984" d="M958 -140L853 -140L853 0L77 0L77 700L182 700L182 100L427 100L427 700L532 700L532 100L778 100L778 700L883 700L883 100L958 100z" />
      <glyph unicode="&#x42A;" horiz-adv-x="708" d="M163 0L163 600L8 600L8 700L268 700L268 453L454 453C530 443 563 424 494 453C621 377 639 343 595 404C667 269 667 226 657 308C657 143 639 109 667 182C595 48 563 29 621 75C494 0 454 0 530 9zM451 100C562 152 562 226 513 100C513 353 451 353 562 299L268 353L268 100z" />
      <glyph unicode="&#x42B;" horiz-adv-x="828" d="M77 0L77 700L182 700L182 453L358 453C434 443 467 424 398 453C525 377 543 343 499 404C571 269 571 226 561 308C561 143 543 109 571 182C499 48 467 29 525 75C398 0 358 0 434 9zM751 0L646 0L646 700L751 700zM355 100C466 152 466 226 419 100C419 353 355 353 466 299L182 353L182 100z" />
      <glyph unicode="&#x42C;" horiz-adv-x="631" d="M77 0L77 700L182 700L182 453L378 453C454 443 486 424 418 453C544 377 563 343 518 404C591 269 591 226 581 308C581 144 563 110 591 183C518 48 486 29 544 75C418 0 378 0 454 9zM375 100C486 152 486 226 437 100C437 353 375 353 486 299L182 353L182 100z" />
      <glyph unicode="&#x42D;" horiz-adv-x="730" d="M347 -10C244 1 200 23 293 -10C119 74 91 112 156 45C43 192 33 238 62 150L142 238C245 90 347 90 170 150C422 99 455 118 386 90C515 162 536 195 488 136C568 264 572 304 556 227L263 304L263 399L572 399C556 474 536 506 568 438C488 563 455 582 515 538C386 610 347 610 422 600C171 550 142 468 248 610L33 468C65 553 94 590 45 512C159 655 203 677 123 626C295 710 347 710 247 699C465 694 516 664 409 710C608 590 638 536 567 633C683 419 683 350 668 481C668 218 638 164 683 280C567 66 516 36 608 109C409 -10 347 -10 465 5z" />
      <glyph unicode="&#x42E;" horiz-adv-x="963" d="M598 -10C493 3 447 29 543 -10C363 92 334 140 401 55C287 241 281 303 304 187L182 303L182 0L77 0L77 700L182 700L182 403L282 403C307 517 336 564 289 463C402 646 448 672 365 610C543 710 598 710 493 697C710 694 758 664 656 710C845 591 873 537 806 634C916 420 916 350 901 482C901 217 873 163 916 280C806 65 758 35 845 108C656 -10 598 -10 710 5zM598 90C673 100 705 122 637 90C763 173 782 213 737 143C811 298 811 350 801 252C801 447 782 487 811 402C737 556 705 578 763 526C637 610 598 610 673 599C522 599 490 578 558 610C431 526 412 487 457 556C384 402 384 350 393 447C393 252 412 213 384 298C457 143 490 122 431 173C558 90 598 90 522 100z" />
      <glyph unicode="&#x42F;" horiz-adv-x="653" d="M576 700L576 0L471 0L471 256L413 256L168 0L37 0L286 259L254 259C185 268 155 286 218 259C99 329 81 363 124 304C53 434 53 477 62 396C62 558 80 592 53 519C124 652 156 671 98 626C223 700 263 700 188 690zM471 353L471 602L266 602C158 551 158 477 206 602C206 353 266 353 158 403z" />
      <glyph unicode="&#x430;" horiz-adv-x="540" d="M224 -10C157 -3 130 10 188 -10C81 42 67 66 102 24C45 116 45 146 52 90C113 308 248 308 45 244L376 308L376 321C335 428 270 428 376 386C166 395 160 355 207 428L63 355C74 408 91 432 65 382C131 476 162 491 107 456C228 513 270 513 192 505C475 438 475 321 395 513L475 0L389 0L379 55L374 55C294 -10 224 -10 351 21zM234 75C376 127 376 211 322 75L376 229L255 229C144 196 144 150 180 229C176 75 234 75 144 104z" />
      <glyph unicode="&#x431;" horiz-adv-x="567" d="M286 -10C197 1 161 23 239 -10C95 76 74 117 124 45C43 205 43 259 53 157L43 287C89 563 185 618 43 463C278 654 349 662 229 643C412 689 412 731 393 667L501 731C460 586 375 577 499 633C263 557 233 539 311 569C152 462 145 397 181 509L150 397C240 467 303 467 186 443C383 457 417 437 345 467C479 389 499 353 451 417C529 277 529 233 519 317C518 145 497 108 529 187C447 42 410 21 476 71C332 -10 286 -10 373 0zM286 81C429 144 429 232 367 81C367 382 286 382 429 318C235 375 213 363 259 382C174 332 162 309 191 350C143 260 143 232 149 286C149 176 162 154 143 202C191 113 213 100 174 131C259 81 286 81 235 87z" />
      <glyph unicode="&#x432;" horiz-adv-x="533" d="M67 0L67 503L338 503C484 446 484 362 426 503C454 272 424 258 484 311L424 253C494 198 494 142 460 238C487 91 475 69 494 115C445 30 423 18 462 47C376 0 348 0 401 6zM318 293C384 320 384 359 355 293C355 424 318 424 384 397L166 424L166 293zM327 79C394 107 394 147 364 79C364 215 327 215 394 187L166 215L166 79z" />
      <glyph unicode="&#x433;" horiz-adv-x="423" d="M166 0L67 0L67 503L403 503L403 411L166 411z" />
      <glyph unicode="&#x434;" horiz-adv-x="554" d="M2 -120L2 93L10 93C76 113 80 163 55 93L109 503L466 503L466 93L536 93L536 -120L437 -120L437 0L100 0L100 -120zM367 93L367 411L201 411L178 161C163 99 151 93 175 125z" />
      <glyph unicode="&#x435;" horiz-adv-x="565" d="M287 -10C198 1 160 23 240 -10C92 76 70 116 122 45C38 201 38 252 48 156C48 346 70 386 38 302C122 457 160 479 92 426C240 513 287 513 198 501C372 502 408 481 331 513C473 430 494 393 444 459C526 313 526 267 515 355C524 226 521 214 526 243L137 214C208 76 287 76 146 132C387 104 409 144 343 76L512 144C401 -10 287 -10 481 54zM428 290C364 428 287 428 421 370C147 370 137 290 207 428z" />
      <glyph unicode="&#x436;" horiz-adv-x="677" d="M114 0L-2 0L188 257L12 503L127 503L289 270L289 503L388 503L388 270L549 503L665 503L488 257L678 0L563 0L388 243L388 0L289 0L289 243z" />
      <glyph unicode="&#x437;" horiz-adv-x="480" d="M235 -10C156 -2 125 13 193 -10C69 49 53 75 93 28C28 129 28 161 36 101L127 161C169 76 235 76 127 114C343 104 343 147 308 76C306 216 240 216 343 187L191 216L191 292L240 292C333 321 333 363 300 292C297 429 235 429 333 400C135 394 135 349 173 429L37 349C45 406 61 431 37 379C101 476 131 491 77 456C196 513 235 513 161 505C311 506 341 493 276 513C393 461 409 438 371 479C432 390 432 363 424 415C394 270 356 258 432 309L356 253C442 200 442 142 400 241C434 87 418 64 442 113C378 23 347 10 402 41C278 -10 235 -10 315 -3z" />
      <glyph unicode="&#x438;" horiz-adv-x="569" d="M213 0L67 0L67 503L165 503L165 138L185 138L357 503L502 503L502 0L404 0L404 365L384 365z" />
      <glyph unicode="&#x439;" horiz-adv-x="569" d="M213 0L67 0L67 503L165 503L165 138L185 138L357 503L502 503L502 0L404 0L404 365L384 365zM287 582C143 635 138 715 203 582L217 715C248 650 287 650 222 673C350 673 356 715 324 650L435 715C369 582 287 582 429 635z" />
      <glyph unicode="&#x43A;" horiz-adv-x="498" d="M166 0L67 0L67 503L166 503L166 273L374 503L493 503L268 257L503 0L384 0L166 240z" />
      <glyph unicode="&#x43B;" horiz-adv-x="554" d="M8 -6L8 90L36 90C98 114 102 162 76 90L131 503L487 503L487 0L388 0L388 411L222 411L199 152C141 -6 45 -6 188 46z" />
      <glyph unicode="&#x43C;" horiz-adv-x="729" d="M166 0L67 0L67 503L231 503L354 128L374 128L497 503L662 503L662 0L563 0L563 369L543 369L421 0L307 0L186 369L166 369z" />
      <glyph unicode="&#x43D;" horiz-adv-x="567" d="M166 0L67 0L67 503L166 503L166 298L401 298L401 503L500 503L500 0L401 0L401 205L166 205z" />
      <glyph unicode="&#x43E;" horiz-adv-x="574" d="M287 -10C198 1 160 23 240 -10C92 76 70 116 122 45C38 201 38 252 48 156C48 346 70 386 38 302C122 457 160 479 92 426C240 513 287 513 198 501C375 501 413 479 333 513C480 426 502 386 451 457C535 302 535 252 524 346C524 156 502 116 535 201C451 45 413 23 480 76C333 -10 287 -10 375 1zM287 82C339 89 362 103 314 82C403 137 417 163 385 117C437 218 437 252 430 189C430 314 417 340 437 285C385 386 362 400 403 366C314 421 287 421 339 414C234 414 211 400 259 421C170 366 157 340 188 386C137 285 137 252 143 314C143 189 157 163 137 218C188 117 211 103 170 137C259 82 287 82 234 89z" />
      <glyph unicode="&#x43F;" horiz-adv-x="567" d="M166 0L67 0L67 503L500 503L500 0L401 0L401 410L166 410z" />
      <glyph unicode="&#x440;" horiz-adv-x="593" d="M67 -200L67 503L152 503L162 439L167 439C257 513 323 513 205 488C405 502 441 480 366 513C504 427 524 387 476 458C555 302 555 252 544 347C544 156 524 116 555 201C476 45 441 23 504 76C366 -10 323 -10 405 1C205 17 171 61 256 -10L166 61L166 -200zM311 82C361 89 383 103 337 82C423 137 436 163 405 117C456 218 456 252 449 189C449 314 436 340 456 285C405 386 383 400 423 366C337 421 311 421 361 414C260 414 238 400 285 421C198 366 185 340 216 386C166 285 166 252 172 314C172 189 185 163 166 218C216 117 238 103 198 137C285 82 311 82 260 89z" />
      <glyph unicode="&#x441;" horiz-adv-x="551" d="M287 -10C198 1 160 23 240 -10C92 76 70 116 122 45C38 201 38 252 48 156C48 346 70 386 38 302C122 457 160 479 92 426C240 513 287 513 198 501C494 437 518 331 408 513L418 331C353 421 287 421 400 387C234 414 212 400 259 421C171 366 158 340 189 386C138 285 138 252 144 314C144 189 158 163 138 218C189 117 212 103 171 137C259 82 287 82 234 89C400 117 418 176 353 82L518 176C408 -10 287 -10 494 66z" />
      <glyph unicode="&#x442;" horiz-adv-x="460" d="M280 0L181 0L181 411L15 411L15 503L445 503L445 411L280 411z" />
      <glyph unicode="&#x443;" horiz-adv-x="513" d="M403 503L508 503L285 -119C236 -200 172 -200 265 -176L63 -200L63 -108L161 -108C189 -99 195 -81 177 -108L212 -34L5 503L110 503L253 120L273 120z" />
      <glyph unicode="&#x444;" horiz-adv-x="710" d="M415 503C513 492 553 471 467 503C623 421 645 383 593 450C677 302 677 252 666 345C666 158 645 120 677 202C593 52 553 31 623 82C467 0 415 0 513 10L405 0L405 -200L306 -200L306 0L295 0C196 10 156 31 242 0C86 82 65 120 116 52C33 202 33 252 43 158C43 345 65 383 33 302C116 450 156 471 86 421C242 503 295 503 196 492L306 503L306 700L405 700L405 503zM306 92L306 411L294 411C133 350 133 252 192 411C192 92 294 92 133 153zM416 92C578 153 578 252 518 92C518 411 416 411 578 350L405 411L405 92z" />
      <glyph unicode="&#x445;" horiz-adv-x="498" d="M119 0L5 0L175 257L12 503L125 503L239 328L259 328L372 503L486 503L323 257L493 0L378 0L259 185L239 185z" />
      <glyph unicode="&#x446;" horiz-adv-x="581" d="M562 -120L463 -120L463 0L67 0L67 503L166 503L166 93L393 93L393 503L492 503L492 93L562 93z" />
      <glyph unicode="&#x447;" horiz-adv-x="534" d="M368 188C285 148 229 148 331 161C48 215 48 341 111 148L48 503L147 503L147 348C183 241 250 241 147 278C334 254 368 281 299 241L368 503L467 503L467 0L368 0z" />
      <glyph unicode="&#x448;" horiz-adv-x="789" d="M723 0L67 0L67 503L166 503L166 93L345 93L345 503L444 503L444 93L624 93L624 503L723 503z" />
      <glyph unicode="&#x449;" horiz-adv-x="811" d="M793 -120L694 -120L694 0L67 0L67 503L166 503L166 93L345 93L345 503L444 503L444 93L624 93L624 503L723 503L723 93L793 93z" />
      <glyph unicode="&#x44A;" horiz-adv-x="574" d="M135 0L135 411L10 411L10 503L234 503L234 340L370 340C435 332 462 318 404 340C509 283 524 257 488 303C546 202 546 170 538 231C538 108 524 82 546 137C488 36 462 22 509 56C404 0 370 0 435 7zM361 85C447 120 447 170 411 85C410 255 361 255 447 219L234 255L234 85z" />
      <glyph unicode="&#x44B;" horiz-adv-x="700" d="M67 0L67 503L166 503L166 340L292 340C356 332 383 318 326 340C430 283 445 257 409 303C467 202 467 170 459 231C459 108 445 82 467 137C409 36 383 22 430 56C326 0 292 0 356 7zM633 0L534 0L534 503L633 503zM283 85C368 120 368 170 332 85C332 255 283 255 368 219L166 255L166 85z" />
      <glyph unicode="&#x44C;" horiz-adv-x="513" d="M67 0L67 503L166 503L166 340L309 340C373 332 400 318 343 340C447 283 462 257 426 303C484 202 484 170 476 231C476 108 462 82 484 137C426 36 400 22 447 56C343 0 309 0 373 7zM299 85C385 120 385 170 349 85C348 255 299 255 385 219L166 255L166 85z" />
      <glyph unicode="&#x44D;" horiz-adv-x="551" d="M264 -10C57 64 33 168 142 -10L131 168C198 78 264 78 148 114C400 130 412 209 340 78L208 209L208 293L412 293C340 425 264 425 400 373C148 390 131 338 200 425L33 338C54 398 75 425 40 369C122 473 154 489 95 451C223 513 264 513 186 505C353 501 391 479 310 513C458 426 480 386 429 457C513 302 513 252 502 346C502 156 480 116 513 201C429 45 391 23 458 76C310 -10 264 -10 353 1z" />
      <glyph unicode="&#x44E;" horiz-adv-x="746" d="M469 -10C391 -1 357 17 428 -10C296 60 274 93 323 35C239 163 233 205 252 125L166 205L166 0L67 0L67 503L166 503L166 297L233 297C252 376 274 409 239 339C323 468 357 486 296 442C428 513 469 513 391 504C555 502 591 480 514 513C656 427 677 387 627 458C708 302 708 252 697 347C697 155 677 115 708 200C627 45 591 23 656 75C514 -10 469 -10 555 1zM469 82C518 89 540 103 495 82C578 136 590 162 561 117C609 218 609 252 602 188C602 314 590 340 609 285C561 386 540 400 578 366C495 421 469 421 518 414C419 414 398 400 443 421C359 366 347 340 376 386C329 285 329 252 335 314C335 188 347 162 329 218C376 117 398 103 359 136C443 82 469 82 419 89z" />
      <glyph unicode="&#x44F;" horiz-adv-x="526" d="M459 503L459 0L360 0L360 177L313 177L144 0L27 0L196 178C140 185 116 199 166 178C73 233 59 257 92 213C38 309 38 339 45 281C45 398 60 423 38 370C95 468 121 482 74 448C176 503 209 503 147 496zM360 260L360 418L218 418C137 385 137 339 171 418C172 260 218 260 137 292z" />
      <glyph unicode="&#x450;" horiz-adv-x="565" d="M287 -10C198 1 160 23 240 -10C92 76 70 116 122 45C38 201 38 252 48 156C48 346 70 386 38 302C122 457 160 479 92 426C240 513 287 513 198 501C372 502 408 481 331 513C473 430 494 393 444 459C526 313 526 267 515 355C524 226 521 214 526 243L137 214C208 76 287 76 146 132C387 104 409 144 343 76L512 144C401 -10 287 -10 481 54zM428 290C364 428 287 428 421 370C147 370 137 290 207 428zM332 579L244 579L127 722L236 722z" />
      <glyph unicode="&#x451;" horiz-adv-x="565" d="M287 -10C198 1 160 23 240 -10C92 76 70 116 122 45C38 201 38 252 48 156C48 346 70 386 38 302C122 457 160 479 92 426C240 513 287 513 198 501C372 502 408 481 331 513C473 430 494 393 444 459C526 313 526 267 515 355C524 226 521 214 526 243L137 214C208 76 287 76 146 132C387 104 409 144 343 76L512 144C401 -10 287 -10 481 54zM428 290C364 428 287 428 421 370C147 370 137 290 207 428zM242 599L143 599L143 698L242 698zM424 599L325 599L325 698L424 698z" />
      <glyph unicode="&#x452;" horiz-adv-x="594" d="M301 -200L301 -108L349 -108C430 -81 430 -27 403 -108L430 241C377 367 308 367 430 313C263 361 243 350 284 367C208 323 197 304 223 338C180 263 180 241 185 284L180 0L81 0L81 542L-1 542L-1 627L81 627L81 706L180 706L180 627L340 627L340 542L180 542L180 398L185 398C263 460 329 460 209 430C402 451 432 433 367 460C486 391 503 359 462 415C529 290 529 249 520 327L529 -29C464 -200 352 -200 529 -137z" />
      <glyph unicode="&#x453;" horiz-adv-x="423" d="M166 0L67 0L67 503L403 503L403 411L166 411zM280 579L192 579L288 722L397 722z" />
      <glyph unicode="&#x454;" horiz-adv-x="551" d="M287 -10C198 1 160 23 240 -10C92 76 70 116 122 45C38 201 38 252 48 156C48 346 70 386 38 302C122 457 160 479 92 426C240 513 287 513 198 501C364 505 396 489 327 513C455 451 476 425 428 473C510 369 518 338 496 398L420 338C351 425 287 425 402 390C151 373 139 293 211 425L343 293L343 209L139 209C211 78 287 78 151 130C402 114 420 168 352 78L518 168C408 -10 287 -10 494 64z" />
      <glyph unicode="&#x455;" horiz-adv-x="478" d="M238 -10C155 -2 123 14 193 -10C68 50 52 74 91 30C28 123 28 149 36 98L126 149C167 74 238 74 126 107C346 101 346 139 308 74C323 195 269 205 346 175L187 219C36 284 36 363 86 236C106 513 233 513 36 449C311 505 342 490 275 513C397 455 413 431 373 474C438 381 438 355 429 407L341 355C298 429 233 429 341 396C134 400 134 363 169 429C156 312 208 303 134 332L291 289C444 222 444 140 395 271C370 -10 238 -10 444 53z" />
      <glyph unicode="&#x456;" horiz-adv-x="233" d="M166 0L67 0L67 503L166 503zM171 598L63 598L63 698L171 698z" />
      <glyph unicode="&#x457;" horiz-adv-x="233" d="M166 0L67 0L67 503L166 503zM86 599L-13 599L-13 698L86 698zM247 599L148 599L148 698L247 698z" />
      <glyph unicode="&#x458;" horiz-adv-x="233" d="M-42 -200L-42 -108L35 -108C67 -97 67 -77 56 -108L67 503L166 503L166 -98C123 -200 57 -200 166 -159zM171 598L63 598L63 698L171 698z" />
      <glyph unicode="&#x459;" horiz-adv-x="797" d="M8 -6L8 90L36 90C98 114 102 162 76 90L131 503L479 503L479 315L604 315C768 251 768 158 702 315C702 0 604 0 768 63L380 0L380 411L222 411L199 152C141 -6 45 -6 188 46zM595 85C669 114 669 158 639 85C639 231 595 231 669 202L479 231L479 85z" />
      <glyph unicode="&#x45A;" horiz-adv-x="802" d="M67 0L67 503L166 503L166 315L386 315L386 503L484 503L484 314L610 314C774 250 774 157 707 314C707 0 610 0 774 63L386 0L386 222L166 222L166 0zM600 85C674 113 674 157 644 85C644 229 600 229 674 201L484 229L484 85z" />
      <glyph unicode="&#x45B;" horiz-adv-x="594" d="M81 0L81 542L-1 542L-1 627L81 627L81 706L180 706L180 627L340 627L340 542L180 542L180 398L185 398C263 460 329 460 209 430C402 451 432 433 367 460C486 391 503 359 462 415C529 290 529 249 520 327L529 0L430 0L430 241C377 368 308 368 430 314C263 362 243 350 284 368C208 323 197 304 223 338C180 263 180 241 185 284L180 0z" />
      <glyph unicode="&#x45C;" horiz-adv-x="498" d="M166 0L67 0L67 503L166 503L166 273L374 503L493 503L268 257L503 0L384 0L166 240zM308 579L220 579L316 722L425 722z" />
      <glyph unicode="&#x45D;" horiz-adv-x="569" d="M213 0L67 0L67 503L165 503L165 138L185 138L357 503L502 503L502 0L404 0L404 365L384 365zM335 579L247 579L130 722L239 722z" />
      <glyph unicode="&#x45E;" horiz-adv-x="513" d="M403 503L508 503L285 -119C236 -200 172 -200 265 -176L63 -200L63 -108L161 -108C189 -99 195 -81 177 -108L212 -34L5 503L110 503L253 120L273 120zM263 582C119 635 114 715 179 582L193 715C224 650 263 650 198 673C326 673 332 715 300 650L411 715C345 582 263 582 405 635z" />
      <glyph unicode="&#x45F;" horiz-adv-x="558" d="M328 -120L230 -120L230 0L67 0L67 503L166 503L166 92L393 92L393 503L491 503L491 0L328 0z" />
      <glyph unicode="&#x462;" horiz-adv-x="685" d="M141 0L141 528L0 528L0 618L141 618L141 700L246 700L246 618L435 618L435 528L246 528L246 423L435 423C510 413 542 395 475 423C599 351 617 319 574 377C644 251 644 211 635 287C635 135 617 103 644 171C574 45 542 27 599 71C475 0 435 0 510 9zM433 100C539 145 539 211 495 100C495 323 433 323 539 277L246 323L246 100z" />
      <glyph unicode="&#x463;" horiz-adv-x="554" d="M115 0L115 446L0 446L0 532L115 532L115 700L214 700L214 532L357 532L357 446L214 446L214 340L350 340C415 332 442 318 384 340C489 283 504 257 468 303C526 202 526 170 518 231C518 108 504 82 526 137C468 36 442 22 489 56C384 0 350 0 415 7zM341 85C427 120 427 170 391 85C390 255 341 255 427 219L214 255L214 85z" />
      <glyph unicode="&#x46A;" horiz-adv-x="799" d="M42 66C130 361 286 395 42 243L67 608L67 700L732 700L732 608L513 395C757 243 757 66 669 361L757 0L652 0L652 66C643 161 626 197 652 117C585 261 555 280 608 233C490 308 452 308 525 298L452 0L347 0L347 308C274 298 244 280 308 308C190 233 173 197 214 261C147 117 147 66 155 161L147 0L42 0zM196 603L399 407L603 603z" />
      <glyph unicode="&#x46B;" horiz-adv-x="637" d="M28 0C102 255 217 279 28 150L66 421L66 503L571 503L571 421L420 279C608 150 608 0 533 255L510 0C452 197 368 200 510 126L368 0L269 0L269 200C127 126 127 0 185 197zM177 419L318 283L460 419z" />
      <glyph unicode="&#x472;" horiz-adv-x="767" d="M383 -10C264 5 213 36 321 -10C122 109 92 164 162 66C47 280 47 350 62 218C62 481 92 536 47 419C162 633 213 664 122 590C321 710 383 710 264 694C501 694 553 664 445 710C645 590 675 536 604 633C720 419 720 350 705 481C705 218 675 164 720 280C604 66 553 36 645 109C445 -10 383 -10 501 5zM511 373C585 379 612 392 551 373C593 473 572 506 606 435C523 565 490 583 550 539C421 610 383 610 457 601C309 601 277 583 345 610C217 539 196 507 244 565C161 437 155 395 174 474C215 413 254 413 182 407C331 405 390 392 296 413C473 373 511 373 442 380zM383 90C457 99 490 117 421 90C549 160 571 193 522 135C606 263 612 305 593 225C551 287 513 287 584 293C435 294 377 308 470 287C293 327 256 327 325 320C180 320 155 308 214 327C173 227 195 194 160 265C243 135 276 117 216 161C345 90 383 90 309 99z" />
      <glyph unicode="&#x473;" horiz-adv-x="574" d="M287 -10C198 1 160 23 240 -10C92 76 70 116 122 45C38 201 38 252 48 156C48 346 70 386 38 302C122 457 160 479 92 426C240 513 287 513 198 501C376 501 414 479 333 513C481 426 503 386 452 457C536 302 536 252 525 346C525 156 503 116 536 201C452 45 414 23 481 76C333 -10 287 -10 376 1zM140 288C185 299 211 299 162 295C281 291 288 290 243 299C347 280 365 280 321 283C414 283 435 291 391 280C360 423 287 423 421 369C152 368 140 288 213 423zM287 81C421 134 435 216 360 81C391 204 363 204 415 208C319 207 287 214 344 204C240 223 210 223 279 215C160 219 140 212 184 223C215 81 287 81 153 133z" />
      <glyph unicode="&#x474;" horiz-adv-x="689" d="M254 0L7 700L120 700L321 121L341 121L492 552C575 705 646 705 529 661C691 700 701 695 670 705L701 595C679 605 666 605 691 601C616 586 599 536 636 605L408 0z" />
      <glyph unicode="&#x475;" horiz-adv-x="534" d="M184 0L7 503L111 503L247 112L267 112L364 385C431 510 494 510 394 473C534 503 544 497 515 510L544 411C527 418 514 418 540 415C473 402 461 369 487 418L329 0z" />
      <glyph unicode="&#x48A;" horiz-adv-x="736" d="M358 776C214 829 209 909 274 776L288 909C319 844 358 844 293 867C421 867 427 909 395 844L506 909C440 776 358 776 500 829zM663 -140L585 -140L610 0L534 0L534 547L514 547L229 0L77 0L77 700L182 700L182 153L202 153L487 700L639 700L639 100L739 100L739 84z" />
      <glyph unicode="&#x48B;" horiz-adv-x="589" d="M287 582C143 635 138 715 203 582L217 715C248 650 287 650 222 673C350 673 356 715 324 650L435 715C369 582 287 582 429 635zM523 -120L453 -120L473 0L404 0L404 365L384 365L213 0L67 0L67 503L165 503L165 138L185 138L357 503L502 503L502 93L592 93L592 76z" />
      <glyph unicode="&#x48C;" horiz-adv-x="685" d="M141 0L141 528L0 528L0 618L141 618L141 700L246 700L246 618L435 618L435 528L246 528L246 423L435 423C510 413 542 395 475 423C599 351 617 319 574 377C644 251 644 211 635 287C635 135 617 103 644 171C574 45 542 27 599 71C475 0 435 0 510 9zM433 100C539 145 539 211 495 100C495 323 433 323 539 277L246 323L246 100z" />
      <glyph unicode="&#x48D;" horiz-adv-x="554" d="M115 0L115 446L0 446L0 532L115 532L115 700L214 700L214 532L357 532L357 446L214 446L214 340L350 340C415 332 442 318 384 340C489 283 504 257 468 303C526 202 526 170 518 231C518 108 504 82 526 137C468 36 442 22 489 56C384 0 350 0 415 7zM341 85C427 120 427 170 391 85C390 255 341 255 427 219L214 255L214 85z" />
      <glyph unicode="&#x48E;" horiz-adv-x="643" d="M598 476C569 338 520 297 598 401L565 233L498 191L449 260C410 251 388 251 430 254L182 251L182 0L77 0L77 700L388 700C463 690 495 671 427 700C552 626 570 592 527 652C598 519 598 476 588 558zM182 351L385 351L339 416L407 458L459 383C493 438 493 476 481 407C446 600 385 600 493 550L182 600z" />
      <glyph unicode="&#x48F;" horiz-adv-x="593" d="M555 252C528 104 483 58 555 172L536 -17L477 -55L427 15C360 -10 323 -10 395 -1C205 17 171 61 256 -10L166 61L166 -200L67 -200L67 503L154 503L164 440L169 440C259 513 323 513 208 488C405 502 441 480 366 513C504 427 524 387 476 458C555 302 555 252 544 347zM311 82C351 86 370 96 331 82L317 170L377 208L424 142C456 208 456 252 445 172C449 314 436 340 456 285C405 386 383 400 423 366C337 421 311 421 361 414C260 414 238 400 285 421C198 366 185 340 216 386C166 285 166 252 172 314C172 189 185 163 166 218C216 117 238 103 198 137C285 82 311 82 260 89z" />
      <glyph unicode="&#x490;" horiz-adv-x="545" d="M182 0L77 0L77 700L425 700L425 840L525 840L525 600L182 600z" />
      <glyph unicode="&#x491;" horiz-adv-x="434" d="M166 0L67 0L67 503L322 503L322 625L414 625L414 410L166 410z" />
      <glyph unicode="&#x492;" horiz-adv-x="566" d="M212 0L107 0L107 303L10 303L10 396L107 396L107 700L546 700L546 603L212 603L212 396L404 396L404 303L212 303z" />
      <glyph unicode="&#x493;" horiz-adv-x="442" d="M184 0L86 0L86 202L8 202L8 286L86 286L86 503L422 503L422 413L184 413L184 286L354 286L354 202L184 202z" />
      <glyph unicode="&#x494;" horiz-adv-x="628" d="M319 -28C482 37 482 137 417 -28C418 301 321 301 482 237C208 280 182 258 263 301L182 0L77 0L77 700L526 700L526 600L182 600L182 364C269 401 332 401 210 382C427 390 465 368 382 401C533 316 555 276 503 346C587 189 587 137 576 236C576 36 554 -3 587 83C500 -73 460 -95 532 -43C373 -128 319 -128 420 -117z" />
      <glyph unicode="&#x495;" horiz-adv-x="516" d="M263 -109C388 -54 388 43 344 -105C339 190 266 190 388 136C184 173 166 157 224 190L166 0L67 0L67 503L403 503L403 410L166 410L166 253C230 283 276 283 187 269C487 193 487 44 402 283C403 -201 263 -201 487 -109z" />
      <glyph unicode="&#x496;" horiz-adv-x="832" d="M830 -140L725 -140L725 0L703 0L465 337L465 0L360 0L360 337L122 0L-3 0L252 355L17 700L142 700L360 378L360 700L465 700L465 378L683 700L808 700L573 355L758 100L830 100z" />
      <glyph unicode="&#x497;" horiz-adv-x="686" d="M686 -120L587 -120L587 0L563 0L388 243L388 0L289 0L289 243L114 0L-2 0L188 257L12 503L127 503L289 270L289 503L388 503L388 270L549 503L665 503L488 257L613 93L686 93z" />
      <glyph unicode="&#x498;" horiz-adv-x="604" d="M558 193C479 10 350 -7 558 91L350 -140L245 -140L245 -7C33 93 33 201 113 9L138 201C197 88 296 88 138 138C356 93 380 103 328 88C422 127 434 144 404 113C453 178 453 198 446 160C447 235 436 252 453 217C408 282 388 292 424 268C343 307 317 307 367 302L245 307L245 398L315 398C439 444 439 502 388 398C384 612 295 612 439 564C152 562 152 501 208 612L47 501C57 575 77 607 47 539C125 664 163 682 97 639C245 710 296 710 201 700C390 700 428 682 346 710C494 639 514 608 465 664C544 543 544 507 534 577C492 373 439 357 544 428L439 352C558 275 558 193 499 334z" />
      <glyph unicode="&#x499;" horiz-adv-x="480" d="M442 142C385 8 287 -6 442 67L287 -120L188 -120L188 -6C28 78 28 161 89 10L127 161C169 76 235 76 127 114C343 104 343 147 308 76C306 216 240 216 343 187L191 216L191 292L240 292C333 321 333 363 300 292C297 429 235 429 333 400C135 394 135 349 173 429L37 349C45 406 61 431 37 379C101 476 131 491 77 456C196 513 235 513 161 505C311 506 341 493 276 513C393 461 409 438 371 479C432 390 432 363 424 415C394 270 356 258 432 309L356 253C442 200 442 142 400 241z" />
      <glyph unicode="&#x49A;" horiz-adv-x="592" d="M590 -140L485 -140L485 0L469 0L182 333L182 0L77 0L77 700L182 700L182 379L449 700L578 700L290 355L515 100L590 100z" />
      <glyph unicode="&#x49B;" horiz-adv-x="498" d="M498 -120L399 -120L399 0L384 0L166 239L166 0L67 0L67 503L166 503L166 274L374 503L493 503L267 257L422 93L498 93z" />
      <glyph unicode="&#x49C;" horiz-adv-x="638" d="M182 0L77 0L77 700L182 700L182 401L225 401L225 511L302 511L302 401L333 401L515 700L638 700L421 355L658 0L534 0L334 301L302 301L302 190L225 190L225 301L182 301z" />
      <glyph unicode="&#x49D;" horiz-adv-x="534" d="M166 0L67 0L67 503L166 503L166 296L200 296L200 380L265 380L265 296L286 296L414 503L530 503L373 257L540 0L424 0L286 218L265 218L265 132L200 132L200 218L166 218z" />
      <glyph unicode="&#x49E;" horiz-adv-x="598" d="M201 0L96 0L96 538L-2 538L-2 628L96 628L96 700L201 700L201 628L277 628L277 538L201 538L201 379L468 700L598 700L309 355L618 0L488 0L201 332z" />
      <glyph unicode="&#x49F;" horiz-adv-x="512" d="M180 0L81 0L81 543L-1 543L-1 628L81 628L81 700L180 700L180 628L295 628L295 543L180 543L180 274L388 503L507 503L282 257L517 0L398 0L180 239z" />
      <glyph unicode="&#x4A0;" horiz-adv-x="618" d="M222 0L117 0L117 603L-2 603L-2 700L222 700L222 379L489 700L618 700L330 355L638 0L509 0L222 333z" />
      <glyph unicode="&#x4A1;" horiz-adv-x="537" d="M205 0L106 0L106 415L0 415L0 503L205 503L205 274L413 503L532 503L307 257L542 0L423 0L205 239z" />
      <glyph unicode="&#x4A2;" horiz-adv-x="741" d="M714 -140L609 -140L609 0L534 0L534 301L182 301L182 0L77 0L77 700L182 700L182 404L534 404L534 700L639 700L639 100L714 100z" />
      <glyph unicode="&#x4A3;" horiz-adv-x="588" d="M570 -120L471 -120L471 0L401 0L401 205L166 205L166 0L67 0L67 503L166 503L166 298L401 298L401 503L500 503L500 93L570 93z" />
      <glyph unicode="&#x4A4;" horiz-adv-x="964" d="M182 0L77 0L77 700L182 700L182 404L514 404L514 700L944 700L944 600L619 600L619 0L514 0L514 301L182 301z" />
      <glyph unicode="&#x4A5;" horiz-adv-x="728" d="M166 0L67 0L67 503L166 503L166 298L388 298L388 503L708 503L708 410L487 410L487 0L388 0L388 205L166 205z" />
      <glyph unicode="&#x4A6;" horiz-adv-x="1035" d="M730 -28C893 37 893 137 828 -28C829 301 732 301 893 237C621 280 593 258 677 301L593 0L488 0L488 600L182 600L182 0L77 0L77 700L593 700L593 364C688 401 743 401 626 385C838 390 876 368 793 401C944 316 966 276 914 346C998 189 998 137 987 236C987 37 965 -3 998 83C911 -73 871 -95 943 -43C784 -128 730 -128 831 -117z" />
      <glyph unicode="&#x4A7;" horiz-adv-x="811" d="M563 -109C687 -55 687 43 643 -107C639 190 565 190 687 136C483 173 465 157 523 190L465 0L366 0L366 410L166 410L166 0L67 0L67 503L465 503L465 253C530 283 576 283 486 267C653 273 685 254 617 283C741 208 759 172 717 235C786 94 786 44 777 136C701 -201 563 -201 786 -109z" />
      <glyph unicode="&#x4A8;" horiz-adv-x="815" d="M377 -10C260 5 210 36 315 -10C120 109 91 164 160 66C47 280 47 350 61 218C61 482 91 537 47 420C159 635 208 665 120 592C308 710 363 710 256 695L363 610C290 597 258 575 325 608C200 522 181 483 226 553C152 399 152 350 161 443C162 255 182 215 152 300C230 145 264 123 202 175C336 90 377 90 298 101C417 92 437 97 397 90C309 258 309 370 355 158C319 476 339 518 309 426C386 592 421 614 359 560C495 648 539 648 455 636C618 636 653 614 580 648C716 559 737 517 688 591C768 425 768 369 757 475C723 160 646 99 768 258C694 90 728 90 667 93L728 -10C593 0 543 23 650 -10C439 -10 377 -10 495 1zM542 134C663 263 663 365 612 176C612 548 539 548 663 483C414 483 414 365 465 548C466 175 542 134 414 263z" />
      <glyph unicode="&#x4A9;" horiz-adv-x="603" d="M290 -10C200 1 162 23 243 -10C93 75 71 115 124 45C38 200 38 252 49 155C48 346 70 386 38 302C119 456 155 478 91 425C230 511 272 513 191 500L272 419C226 410 206 396 248 417C168 362 156 337 185 382C138 283 138 251 144 312C144 188 158 162 138 217C189 116 212 102 171 136C259 81 287 81 234 88C309 82 319 86 298 81C243 194 243 269 273 128C250 341 264 369 243 307C298 419 322 434 278 397C374 457 404 457 346 449C461 449 485 434 434 457C529 397 543 369 509 419C565 307 565 269 557 341C535 130 494 88 565 195C523 81 547 81 506 83L547 -10C446 0 407 20 493 -10C334 -10 290 -10 373 0zM406 122C466 208 466 264 440 155C438 365 404 365 466 329C342 329 342 264 369 365C367 154 406 122 342 208z" />
      <glyph unicode="&#x4AA;" horiz-adv-x="730" d="M383 90C560 150 588 241 484 90L697 241C566 11 430 -7 665 110L430 -140L325 -140L325 -5C224 25 182 57 272 4C107 130 83 181 140 89C47 288 47 350 59 231C62 481 92 536 47 419C162 633 213 664 122 590C321 710 383 710 264 694C484 699 528 677 436 710C607 626 636 589 571 655C685 510 697 464 665 551L588 464C481 610 383 610 558 550C302 599 267 577 341 610C203 525 183 485 231 555C152 400 152 350 162 445C162 254 183 214 152 299C231 144 267 122 203 174C341 90 383 90 302 100z" />
      <glyph unicode="&#x4AB;" horiz-adv-x="551" d="M287 82C400 117 418 176 353 82L518 176C430 10 334 -6 498 81L334 -120L235 -120L235 -5C163 18 133 42 197 2C79 96 63 132 103 66C38 208 38 252 46 168C48 346 70 386 38 302C122 457 160 479 92 426C240 513 287 513 198 501C494 437 518 331 408 513L418 331C353 421 287 421 400 387C234 414 212 400 259 421C171 366 158 340 189 386C138 285 138 252 144 314C144 189 158 163 138 218C189 117 212 103 171 137C259 82 287 82 234 89z" />
      <glyph unicode="&#x4AC;" horiz-adv-x="590" d="M423 -140L318 -140L318 0L243 0L243 600L23 600L23 700L567 700L567 600L348 600L348 100L423 100z" />
      <glyph unicode="&#x4AD;" horiz-adv-x="460" d="M350 -120L251 -120L251 0L181 0L181 411L15 411L15 503L445 503L445 411L280 411L280 93L350 93z" />
      <glyph unicode="&#x4AE;" horiz-adv-x="606" d="M355 0L250 0L250 253L-5 700L110 700L293 375L313 375L496 700L610 700L355 253z" />
      <glyph unicode="&#x4AF;" horiz-adv-x="516" d="M308 -203L209 -203L209 0L188 0L7 503L111 503L249 114L267 114L405 503L509 503L328 0L308 0z" />
      <glyph unicode="&#x4B0;" horiz-adv-x="606" d="M355 0L250 0L250 251L92 251L92 343L200 343L-5 700L110 700L293 375L313 375L496 700L610 700L406 343L514 343L514 251L355 251z" />
      <glyph unicode="&#x4B1;" horiz-adv-x="516" d="M308 -203L209 -203L209 0L88 0L88 86L158 86L7 503L111 503L249 114L267 114L405 503L509 503L358 86L428 86L428 0L308 0z" />
      <glyph unicode="&#x4B2;" horiz-adv-x="638" d="M636 -140L531 -140L531 0L506 0L325 273L305 273L123 0L2 0L244 360L17 700L138 700L305 445L325 445L491 700L612 700L385 360L560 100L636 100z" />
      <glyph unicode="&#x4B3;" horiz-adv-x="506" d="M506 -120L407 -120L407 0L378 0L259 185L239 185L119 0L5 0L175 257L12 503L125 503L239 328L259 328L372 503L486 503L323 257L433 93L506 93z" />
      <glyph unicode="&#x4B4;" horiz-adv-x="854" d="M827 -140L722 -140L722 0L213 0L213 600L20 600L20 700L503 700L503 600L318 600L318 100L647 100L647 700L752 700L752 100L827 100z" />
      <glyph unicode="&#x4B5;" horiz-adv-x="671" d="M653 -120L554 -120L554 0L158 0L158 411L15 411L15 503L386 503L386 411L256 411L256 93L484 93L484 503L583 503L583 93L653 93z" />
      <glyph unicode="&#x4B6;" horiz-adv-x="698" d="M566 -140L566 0L491 0L491 283C380 223 306 223 453 252C63 308 63 475 144 223L63 700L168 700L168 480C218 323 318 323 168 373C459 353 491 385 392 323L491 700L596 700L596 100L671 100L671 -140z" />
      <glyph unicode="&#x4B7;" horiz-adv-x="556" d="M438 -120L438 0L368 0L368 188C285 148 229 148 331 161C48 215 48 341 111 148L48 503L147 503L147 348C183 241 250 241 147 278C334 254 368 281 299 241L368 503L467 503L467 93L537 93L537 -120z" />
      <glyph unicode="&#x4B8;" horiz-adv-x="673" d="M491 700L596 700L596 0L491 0L491 283C419 240 370 230 465 261L370 130L293 130L293 223C63 312 63 476 139 228L63 700L168 700L168 480C209 332 293 324 168 382L293 451L370 451L370 328C468 361 491 385 423 337z" />
      <glyph unicode="&#x4B9;" horiz-adv-x="534" d="M368 503L467 503L467 0L368 0L368 188C320 161 293 155 345 172L293 90L228 90L228 148C48 215 48 341 112 148L48 503L147 503L147 348C176 249 228 243 147 286L228 339L293 339L293 245C344 262 368 281 319 250z" />
      <glyph unicode="&#x4BA;" horiz-adv-x="671" d="M77 0L77 700L182 700L182 417C292 478 367 478 220 447C609 394 609 225 525 478L609 0L504 0L504 220C454 378 356 378 504 325C214 347 182 315 280 378L182 0z" />
      <glyph unicode="&#x4BB;" horiz-adv-x="585" d="M72 0L72 700L171 700L171 451L176 451C254 513 320 513 200 483C393 504 423 486 358 513C477 444 494 412 453 468C520 343 520 302 511 380L520 0L421 0L421 294C368 420 299 420 421 366C254 414 234 403 275 420C199 376 188 357 214 391C171 316 171 294 176 337L171 0z" />
      <glyph unicode="&#x4BC;" horiz-adv-x="854" d="M807 309L255 309C272 229 293 196 259 267C341 136 374 118 314 162C443 90 483 90 407 99C648 139 684 215 571 90L797 215C628 -10 483 -10 751 77C371 3 322 30 425 -10C233 95 203 143 273 57C154 246 149 308 172 191L129 308C0 346 0 428 41 308L0 463L91 463L91 443C106 394 140 394 91 409L149 394C173 509 204 557 155 454C274 642 323 669 234 605C425 710 483 710 371 696C599 695 649 666 544 710C737 597 765 545 698 637C807 435 807 371 793 493zM699 394C687 472 668 505 697 435C623 564 591 582 649 538C523 610 483 610 559 600C407 600 375 582 443 610C315 537 294 505 342 563C260 435 255 394 273 472z" />
      <glyph unicode="&#x4BD;" horiz-adv-x="649" d="M611 267C609 226 606 214 611 243L221 214C293 76 372 76 230 131C471 102 494 144 424 76L596 144C479 -10 371 -10 562 49C289 0 253 18 328 -10C188 63 166 97 217 37C129 170 124 214 143 131L99 214C0 245 0 319 31 214L0 345L78 345L78 334C87 290 115 290 78 300L125 290C144 372 166 406 130 333C217 466 253 485 188 440C328 513 372 513 289 503C457 502 493 481 416 513C558 430 579 393 529 459C611 313 611 267 600 355zM513 290C448 428 372 428 506 370C231 371 221 290 290 428z" />
      <glyph unicode="&#x4BE;" horiz-adv-x="854" d="M807 309L255 309C272 229 293 196 259 267C341 136 374 118 314 162C443 90 483 90 407 99C648 139 684 215 571 90L797 215C658 12 536 -6 758 95L536 -140L431 -140L431 -6C334 19 294 48 380 1C220 113 194 158 253 76C153 253 149 308 168 203L129 308C0 346 0 428 41 308L0 463L91 463L91 443C106 394 140 394 91 409L149 394C173 509 204 557 155 454C274 642 323 669 234 605C425 710 483 710 371 696C599 695 649 666 544 710C737 597 765 545 698 637C807 435 807 371 793 493zM699 394C687 472 668 505 697 435C623 564 591 582 649 538C523 610 483 610 559 600C407 600 375 582 443 610C315 537 294 505 342 563C260 435 255 394 273 472z" />
      <glyph unicode="&#x4BF;" horiz-adv-x="649" d="M611 267C609 226 606 214 611 243L221 214C293 76 372 76 230 131C471 102 494 144 424 76L596 144C504 9 422 -5 568 64L422 -120L323 -120L323 -6C137 99 124 214 216 14L99 214C0 245 0 319 31 214L0 345L78 345L78 334C87 290 115 290 78 300L125 290C144 372 166 406 130 333C217 466 253 485 188 440C328 513 372 513 289 503C457 502 493 481 416 513C558 430 579 393 529 459C611 313 611 267 600 355zM513 290C448 428 372 428 506 370C231 371 221 290 290 428z" />
      <glyph unicode="&#x4C0;" horiz-adv-x="259" d="M182 0L77 0L77 700L182 700z" />
      <glyph unicode="&#x4C1;" horiz-adv-x="825" d="M122 0L-3 0L252 355L17 700L142 700L360 378L360 700L465 700L465 378L683 700L808 700L573 355L828 0L703 0L465 337L465 0L360 0L360 337zM413 776C269 829 264 909 329 776L343 909C374 844 413 844 348 867C476 867 482 909 450 844L561 909C495 776 413 776 555 829z" />
      <glyph unicode="&#x4C2;" horiz-adv-x="677" d="M114 0L-2 0L188 257L12 503L127 503L289 270L289 503L388 503L388 270L549 503L665 503L488 257L678 0L563 0L388 243L388 0L289 0L289 243zM339 582C195 635 190 715 255 582L269 715C300 650 339 650 274 673C402 673 408 715 376 650L487 715C421 582 339 582 481 635z" />
      <glyph unicode="&#x4C3;" horiz-adv-x="629" d="M348 410C437 399 474 377 395 410C539 324 559 284 510 355C590 199 590 149 579 244C579 41 557 0 590 91C504 -73 465 -95 535 -42C380 -128 329 -128 425 -117L329 -28C485 36 485 148 421 -28C421 313 324 313 485 248C211 289 182 263 268 313L182 0L77 0L77 700L182 700L182 378L449 700L577 700L336 410L348 410z" />
      <glyph unicode="&#x4C4;" horiz-adv-x="538" d="M301 294C377 283 409 263 341 293C465 216 483 181 441 243C510 106 510 60 501 146C418 -201 264 -201 510 -106L264 -110C411 -52 411 57 358 -108C358 205 268 205 411 150C182 189 166 175 222 205L166 0L67 0L67 503L166 503L166 276L372 503L491 503z" />
      <glyph unicode="&#x4C5;" horiz-adv-x="708" d="M557 -140L582 0L506 0L506 600L256 600L219 167C152 -5 48 -5 209 49L8 -5L8 98L39 98C110 125 115 179 85 98L159 700L611 700L611 100L711 100L711 84L635 -140z" />
      <glyph unicode="&#x4C6;" horiz-adv-x="574" d="M438 -120L458 0L388 0L388 411L222 411L199 152C141 -6 45 -6 188 46L8 -6L8 90L36 90C98 114 102 162 76 90L131 503L487 503L487 93L577 93L577 76L508 -120z" />
      <glyph unicode="&#x4C7;" horiz-adv-x="716" d="M441 -206L441 -104L458 -104C534 -76 534 -27 508 -104L534 301L182 301L182 0L77 0L77 700L182 700L182 404L534 404L534 700L639 700L639 -36C580 -206 464 -206 639 -149z" />
      <glyph unicode="&#x4C8;" horiz-adv-x="567" d="M316 -204L316 -112L329 -112C401 -88 401 -38 378 -112L401 205L166 205L166 0L67 0L67 503L166 503L166 298L401 298L401 503L500 503L500 -43C445 -204 337 -204 500 -150z" />
      <glyph unicode="&#x4C9;" horiz-adv-x="736" d="M663 -140L585 -140L610 0L534 0L534 301L182 301L182 0L77 0L77 700L182 700L182 404L534 404L534 700L639 700L639 100L739 100L739 84z" />
      <glyph unicode="&#x4CA;" horiz-adv-x="587" d="M521 -120L451 -120L471 0L401 0L401 205L166 205L166 0L67 0L67 503L166 503L166 298L401 298L401 503L500 503L500 93L590 93L590 76z" />
      <glyph unicode="&#x4CB;" horiz-adv-x="673" d="M414 -140L414 87L491 87L491 283C380 223 307 223 453 252C63 307 63 476 144 223L63 700L168 700L168 480C218 323 318 323 168 375C460 353 491 385 392 323L491 700L596 700L596 0L519 0L519 -140z" />
      <glyph unicode="&#x4CC;" horiz-adv-x="534" d="M296 -120L296 77L368 77L368 188C285 148 229 148 331 161C48 215 48 341 111 148L48 503L147 503L147 348C183 241 250 241 147 278C334 254 368 281 299 241L368 503L467 503L467 0L395 0L395 -120z" />
      <glyph unicode="&#x4CD;" horiz-adv-x="929" d="M857 -140L778 -140L803 0L728 0L728 543L708 543L519 0L390 0L202 543L182 543L182 0L77 0L77 700L253 700L445 145L465 145L656 700L833 700L833 100L933 100L933 84z" />
      <glyph unicode="&#x4CE;" horiz-adv-x="749" d="M683 -120L613 -120L633 0L563 0L563 369L543 369L421 0L307 0L186 369L166 369L166 0L67 0L67 503L231 503L354 128L374 128L497 503L662 503L662 93L752 93L752 76z" />
      <glyph unicode="&#x4CF;" horiz-adv-x="243" d="M171 0L72 0L72 700L171 700z" />
      <glyph unicode="&#x4D0;" horiz-adv-x="666" d="M667 0L554 0L494 168L172 168L112 0L-2 0L256 700L410 700zM323 588L206 263L460 263L343 588zM333 776C189 829 184 909 249 776L263 909C294 844 333 844 268 867C396 867 402 909 370 844L481 909C415 776 333 776 475 829z" />
      <glyph unicode="&#x4D1;" horiz-adv-x="540" d="M224 -10C157 -3 130 10 188 -10C81 42 67 66 102 24C45 116 45 146 52 90C113 308 248 308 45 244L376 308L376 321C335 428 270 428 376 386C166 395 160 355 207 428L63 355C74 408 91 432 65 382C131 476 162 491 107 456C228 513 270 513 192 505C475 438 475 321 395 513L475 0L389 0L379 55L374 55C294 -10 224 -10 351 21zM234 75C376 127 376 211 322 75L376 229L255 229C144 196 144 150 180 229C176 75 234 75 144 104zM272 582C128 635 123 715 188 582L202 715C233 650 272 650 207 673C335 673 341 715 309 650L420 715C354 582 272 582 414 635z" />
      <glyph unicode="&#x4D2;" horiz-adv-x="666" d="M667 0L554 0L494 168L172 168L112 0L-2 0L256 700L410 700zM323 588L206 263L460 263L343 588zM292 793L193 793L193 892L292 892zM474 793L375 793L375 892L474 892z" />
      <glyph unicode="&#x4D3;" horiz-adv-x="540" d="M224 -10C157 -3 130 10 188 -10C81 42 67 66 102 24C45 116 45 146 52 90C113 308 248 308 45 244L376 308L376 321C335 428 270 428 376 386C166 395 160 355 207 428L63 355C74 408 91 432 65 382C131 476 162 491 107 456C228 513 270 513 192 505C475 438 475 321 395 513L475 0L389 0L379 55L374 55C294 -10 224 -10 351 21zM234 75C376 127 376 211 322 75L376 229L255 229C144 196 144 150 180 229C176 75 234 75 144 104zM230 599L131 599L131 698L230 698zM412 599L313 599L313 698L412 698z" />
      <glyph unicode="&#x4D6;" horiz-adv-x="590" d="M536 0L77 0L77 700L536 700L536 603L182 603L182 399L516 399L516 304L182 304L182 97L536 97zM312 776C168 829 163 909 228 776L242 909C273 844 312 844 247 867C375 867 381 909 349 844L460 909C394 776 312 776 454 829z" />
      <glyph unicode="&#x4D7;" horiz-adv-x="565" d="M287 -10C198 1 160 23 240 -10C92 76 70 116 122 45C38 201 38 252 48 156C48 346 70 386 38 302C122 457 160 479 92 426C240 513 287 513 198 501C372 502 408 481 331 513C473 430 494 393 444 459C526 313 526 267 515 355C524 226 521 214 526 243L137 214C208 76 287 76 146 132C387 104 409 144 343 76L512 144C401 -10 287 -10 481 54zM428 290C364 428 287 428 421 370C147 370 137 290 207 428zM283 582C139 635 134 715 199 582L213 715C244 650 283 650 218 673C346 673 352 715 320 650L431 715C365 582 283 582 425 635z" />
      <glyph unicode="&#x4D8;" horiz-adv-x="753" d="M372 -10C255 4 205 34 310 -10C117 103 89 155 155 63C47 264 47 328 61 206L47 391L600 391C581 471 560 504 594 433C511 563 478 582 538 537C409 610 370 610 445 600C207 563 170 485 284 610L57 485C227 710 370 710 102 625C488 694 540 664 432 710C632 590 662 536 591 633C707 419 707 350 692 481C692 218 662 164 707 280C591 66 540 36 632 109C433 -10 372 -10 489 5zM372 90C446 99 478 117 410 90C537 161 559 194 510 135C593 264 599 306 580 226L155 306C167 224 187 192 157 262C232 134 264 116 206 159C332 90 372 90 296 98z" />
      <glyph unicode="&#x4D9;" horiz-adv-x="565" d="M278 -10C192 0 156 22 233 -10C90 72 69 110 119 43C38 189 38 236 48 147C39 277 43 289 38 260L428 289C355 427 278 427 418 371C176 400 155 359 222 427L53 359C163 513 278 513 83 449C366 501 404 479 324 513C471 426 493 386 442 457C526 302 526 252 515 346C515 156 493 116 526 201C442 45 404 23 471 76C324 -10 278 -10 366 1zM278 76C417 133 428 213 359 76L137 213C200 76 278 76 143 133z" />
      <glyph unicode="&#x4DA;" horiz-adv-x="753" d="M372 -10C255 4 205 34 310 -10C117 103 89 155 155 63C47 264 47 328 61 206L47 391L600 391C581 471 560 504 594 433C511 563 478 582 538 537C409 610 370 610 445 600C207 563 170 485 284 610L57 485C227 710 370 710 102 625C488 694 540 664 432 710C632 590 662 536 591 633C707 419 707 350 692 481C692 218 662 164 707 280C591 66 540 36 632 109C433 -10 372 -10 489 5zM372 90C446 99 478 117 410 90C537 161 559 194 510 135C593 264 599 306 580 226L155 306C167 224 187 192 157 262C232 134 264 116 206 159C332 90 372 90 296 98zM333 793L234 793L234 892L333 892zM515 793L416 793L416 892L515 892z" />
      <glyph unicode="&#x4DB;" horiz-adv-x="565" d="M278 -10C192 0 156 22 233 -10C90 72 69 110 119 43C38 189 38 236 48 147C39 277 43 289 38 260L428 289C355 427 278 427 418 371C176 400 155 359 222 427L53 359C163 513 278 513 83 449C366 501 404 479 324 513C471 426 493 386 442 457C526 302 526 252 515 346C515 156 493 116 526 201C442 45 404 23 471 76C324 -10 278 -10 366 1zM278 76C417 133 428 213 359 76L137 213C200 76 278 76 143 133zM242 599L143 599L143 698L242 698zM424 599L325 599L325 698L424 698z" />
      <glyph unicode="&#x4DC;" horiz-adv-x="825" d="M122 0L-3 0L252 355L17 700L142 700L360 378L360 700L465 700L465 378L683 700L808 700L573 355L828 0L703 0L465 337L465 0L360 0L360 337zM371 793L272 793L272 892L371 892zM553 793L454 793L454 892L553 892z" />
      <glyph unicode="&#x4DD;" horiz-adv-x="677" d="M114 0L-2 0L188 257L12 503L127 503L289 270L289 503L388 503L388 270L549 503L665 503L488 257L678 0L563 0L388 243L388 0L289 0L289 243zM298 599L199 599L199 698L298 698zM480 599L381 599L381 698L480 698z" />
      <glyph unicode="&#x4DE;" horiz-adv-x="604" d="M296 -10C195 0 155 17 242 -10C85 61 64 93 115 35C33 161 33 201 43 125L138 201C197 88 296 88 138 138C356 93 380 103 328 88C422 127 434 144 404 113C453 178 453 198 446 160C447 235 436 252 453 217C408 282 388 292 424 268C343 307 317 307 367 302L245 307L245 398L315 398C439 444 439 502 388 398C384 612 295 612 439 564C152 562 152 501 208 612L47 501C57 575 77 607 47 539C125 664 163 682 97 639C245 710 296 710 201 700C390 700 428 682 346 710C494 639 514 608 465 664C544 543 544 507 534 577C492 373 439 357 544 428L439 352C558 275 558 193 499 334C547 121 527 90 558 155C476 35 436 17 506 59C350 -10 296 -10 396 -1zM259 793L160 793L160 892L259 892zM441 793L342 793L342 892L441 892z" />
      <glyph unicode="&#x4DF;" horiz-adv-x="480" d="M235 -10C156 -2 125 13 193 -10C69 49 53 75 93 28C28 129 28 161 36 101L127 161C169 76 235 76 127 114C343 104 343 147 308 76C306 216 240 216 343 187L191 216L191 292L240 292C333 321 333 363 300 292C297 429 235 429 333 400C135 394 135 349 173 429L37 349C45 406 61 431 37 379C101 476 131 491 77 456C196 513 235 513 161 505C311 506 341 493 276 513C393 461 409 438 371 479C432 390 432 363 424 415C394 270 356 258 432 309L356 253C442 200 442 142 400 241C434 87 418 64 442 113C378 23 347 10 402 41C278 -10 235 -10 315 -3zM198 599L99 599L99 698L198 698zM380 599L281 599L281 698L380 698z" />
      <glyph unicode="&#x4E0;" horiz-adv-x="596" d="M308 422C400 413 437 396 357 422C503 353 523 321 474 378C554 250 554 207 543 288C543 127 523 95 554 165C473 36 433 18 503 62C346 -10 291 -10 393 0C28 71 28 191 120 -10L133 191C185 88 293 88 133 129C449 138 449 213 389 88C394 334 294 334 449 285L156 334L156 420L388 602L53 602L53 700L533 700L533 609L298 427L298 422z" />
      <glyph unicode="&#x4E1;" horiz-adv-x="502" d="M253 225C331 215 364 198 294 224C422 156 440 124 396 181C468 54 468 10 458 92C458 -72 440 -106 468 -34C396 -165 363 -183 422 -139C290 -210 246 -210 329 -201C162 -200 128 -182 201 -210C68 -139 50 -108 94 -164C23 -43 23 -6 32 -77L122 -6C171 -119 246 -119 122 -72C370 -70 370 11 322 -119C320 143 228 143 370 93L125 143L125 224L324 414L46 414L46 503L453 503L453 420L253 230z" />
      <glyph unicode="&#x4E2;" horiz-adv-x="716" d="M229 0L77 0L77 700L182 700L182 153L202 153L487 700L639 700L639 0L534 0L534 547L514 547zM506 806L211 806L211 881L506 881z" />
      <glyph unicode="&#x4E3;" horiz-adv-x="569" d="M213 0L67 0L67 503L165 503L165 138L185 138L357 503L502 503L502 0L404 0L404 365L384 365zM434 611L139 611L139 686L434 686z" />
      <glyph unicode="&#x4E4;" horiz-adv-x="716" d="M229 0L77 0L77 700L182 700L182 153L202 153L487 700L639 700L639 0L534 0L534 547L514 547zM317 793L218 793L218 892L317 892zM499 793L400 793L400 892L499 892z" />
      <glyph unicode="&#x4E5;" horiz-adv-x="569" d="M213 0L67 0L67 503L165 503L165 138L185 138L357 503L502 503L502 0L404 0L404 365L384 365zM245 599L146 599L146 698L245 698zM427 599L328 599L328 698L427 698z" />
      <glyph unicode="&#x4E6;" horiz-adv-x="767" d="M383 -10C264 5 213 36 321 -10C122 109 92 164 162 66C47 280 47 350 62 218C62 481 92 536 47 419C162 633 213 664 122 590C321 710 383 710 264 694C501 694 553 664 445 710C645 590 675 536 604 633C720 419 720 350 705 481C705 218 675 164 720 280C604 66 553 36 645 109C445 -10 383 -10 501 5zM383 90C464 100 500 122 425 90C563 174 584 214 535 144C615 299 615 350 604 254C604 445 584 485 615 400C535 555 500 577 563 525C425 610 383 610 464 599C302 599 267 577 341 610C203 525 183 485 231 555C152 400 152 350 162 445C162 254 183 214 152 299C231 144 267 122 203 174C341 90 383 90 302 100zM342 793L243 793L243 892L342 892zM524 793L425 793L425 892L524 892z" />
      <glyph unicode="&#x4E7;" horiz-adv-x="574" d="M287 -10C198 1 160 23 240 -10C92 76 70 116 122 45C38 201 38 252 48 156C48 346 70 386 38 302C122 457 160 479 92 426C240 513 287 513 198 501C375 501 413 479 333 513C480 426 502 386 451 457C535 302 535 252 524 346C524 156 502 116 535 201C451 45 413 23 480 76C333 -10 287 -10 375 1zM287 82C339 89 362 103 314 82C403 137 417 163 385 117C437 218 437 252 430 189C430 314 417 340 437 285C385 386 362 400 403 366C314 421 287 421 339 414C234 414 211 400 259 421C170 366 157 340 188 386C137 285 137 252 143 314C143 189 157 163 137 218C188 117 211 103 170 137C259 82 287 82 234 89zM246 599L147 599L147 698L246 698zM428 599L329 599L329 698L428 698z" />
      <glyph unicode="&#x4E8;" horiz-adv-x="767" d="M383 710C501 694 553 664 445 710C645 590 675 536 604 633C720 419 720 350 705 481C705 218 675 164 720 280C604 66 553 36 645 109C445 -10 383 -10 501 5C264 5 213 36 321 -10C122 109 92 164 162 66C47 280 47 350 62 218C62 481 92 536 47 419C162 633 213 664 122 590C321 710 383 710 264 694zM383 610C308 601 276 583 344 610C216 539 195 506 243 565C160 435 155 392 173 473L612 392C593 473 572 506 606 435C523 565 490 583 550 539C421 610 383 610 457 601zM383 90C457 99 490 117 421 90C550 160 572 193 523 135C606 264 612 308 593 226L155 308C173 226 195 193 160 264C243 135 276 117 216 160C344 90 383 90 308 99z" />
      <glyph unicode="&#x4E9;" horiz-adv-x="574" d="M287 513C375 501 413 479 333 513C480 426 502 386 451 457C535 302 535 252 524 346C524 156 502 116 535 201C451 45 413 23 480 76C333 -10 287 -10 375 1C198 1 160 23 240 -10C92 76 70 116 122 45C38 201 38 252 48 156C48 346 70 386 38 302C122 457 160 479 92 426C240 513 287 513 198 501zM287 423C153 370 139 290 213 423L435 290C359 423 287 423 420 370zM287 81C420 133 435 213 359 81L139 213C213 81 287 81 153 133z" />
      <glyph unicode="&#x4EA;" horiz-adv-x="767" d="M383 710C501 694 553 664 445 710C645 590 675 536 604 633C720 419 720 350 705 481C705 218 675 164 720 280C604 66 553 36 645 109C445 -10 383 -10 501 5C264 5 213 36 321 -10C122 109 92 164 162 66C47 280 47 350 62 218C62 481 92 536 47 419C162 633 213 664 122 590C321 710 383 710 264 694zM383 610C308 601 276 583 344 610C216 539 195 506 243 565C160 435 155 392 173 473L612 392C593 473 572 506 606 435C523 565 490 583 550 539C421 610 383 610 457 601zM383 90C457 99 490 117 421 90C550 160 572 193 523 135C606 264 612 308 593 226L155 308C173 226 195 193 160 264C243 135 276 117 216 160C344 90 383 90 308 99zM342 793L243 793L243 892L342 892zM524 793L425 793L425 892L524 892z" />
      <glyph unicode="&#x4EB;" horiz-adv-x="574" d="M287 513C375 501 413 479 333 513C480 426 502 386 451 457C535 302 535 252 524 346C524 156 502 116 535 201C451 45 413 23 480 76C333 -10 287 -10 375 1C198 1 160 23 240 -10C92 76 70 116 122 45C38 201 38 252 48 156C48 346 70 386 38 302C122 457 160 479 92 426C240 513 287 513 198 501zM287 423C153 370 139 290 213 423L435 290C359 423 287 423 420 370zM287 81C420 133 435 213 359 81L139 213C213 81 287 81 153 133zM246 599L147 599L147 698L246 698zM428 599L329 599L329 698L428 698z" />
      <glyph unicode="&#x4EC;" horiz-adv-x="730" d="M347 -10C244 1 200 23 293 -10C119 74 91 112 156 45C43 192 33 238 62 150L142 238C245 90 347 90 170 150C422 99 455 118 386 90C515 162 536 195 488 136C568 264 572 304 556 227L263 304L263 399L572 399C556 474 536 506 568 438C488 563 455 582 515 538C386 610 347 610 422 600C171 550 142 468 248 610L33 468C65 553 94 590 45 512C159 655 203 677 123 626C295 710 347 710 247 699C465 694 516 664 409 710C608 590 638 536 567 633C683 419 683 350 668 481C668 218 638 164 683 280C567 66 516 36 608 109C409 -10 347 -10 465 5zM314 793L215 793L215 892L314 892zM496 793L397 793L397 892L496 892z" />
      <glyph unicode="&#x4ED;" horiz-adv-x="551" d="M264 -10C57 64 33 168 142 -10L131 168C198 78 264 78 148 114C400 130 412 209 340 78L208 209L208 293L412 293C340 425 264 425 400 373C148 390 131 338 200 425L33 338C54 398 75 425 40 369C122 473 154 489 95 451C223 513 264 513 186 505C353 501 391 479 310 513C458 426 480 386 429 457C513 302 513 252 502 346C502 156 480 116 513 201C429 45 391 23 458 76C310 -10 264 -10 353 1zM232 599L133 599L133 698L232 698zM414 599L315 599L315 698L414 698z" />
      <glyph unicode="&#x4EE;" horiz-adv-x="618" d="M503 700L616 700L335 84C272 0 198 0 309 28L98 0L98 97L193 97C234 106 245 130 221 97L262 166L2 700L117 700L305 303L325 303zM462 806L167 806L167 881L462 881z" />
      <glyph unicode="&#x4EF;" horiz-adv-x="513" d="M403 503L508 503L285 -119C236 -200 172 -200 265 -176L63 -200L63 -108L161 -108C189 -99 195 -81 177 -108L212 -34L5 503L110 503L253 120L273 120zM410 611L115 611L115 686L410 686z" />
      <glyph unicode="&#x4F0;" horiz-adv-x="618" d="M503 700L616 700L335 84C272 0 198 0 309 28L98 0L98 97L193 97C234 106 245 130 221 97L262 166L2 700L117 700L305 303L325 303zM273 793L174 793L174 892L273 892zM455 793L356 793L356 892L455 892z" />
      <glyph unicode="&#x4F1;" horiz-adv-x="513" d="M403 503L508 503L285 -119C236 -200 172 -200 265 -176L63 -200L63 -108L161 -108C189 -99 195 -81 177 -108L212 -34L5 503L110 503L253 120L273 120zM221 599L122 599L122 698L221 698zM403 599L304 599L304 698L403 698z" />
      <glyph unicode="&#x4F2;" horiz-adv-x="618" d="M503 700L616 700L335 84C272 0 198 0 309 28L98 0L98 97L193 97C234 106 245 130 221 97L262 166L2 700L117 700L305 303L325 303zM271 770L187 770L284 912L387 912zM440 770L356 770L453 912L557 912z" />
      <glyph unicode="&#x4F3;" horiz-adv-x="513" d="M403 503L508 503L285 -119C236 -200 172 -200 265 -176L63 -200L63 -108L161 -108C189 -99 195 -81 177 -108L212 -34L5 503L110 503L253 120L273 120zM217 579L133 579L230 722L333 722zM386 579L302 579L399 722L503 722z" />
      <glyph unicode="&#x4F4;" horiz-adv-x="673" d="M491 283C380 223 307 223 453 252C63 307 63 476 144 223L63 700L168 700L168 480C218 323 318 323 168 375C460 353 491 385 392 323L491 700L596 700L596 0L491 0zM293 793L194 793L194 892L293 892zM475 793L376 793L376 892L475 892z" />
      <glyph unicode="&#x4F5;" horiz-adv-x="534" d="M368 188C285 148 229 148 331 161C48 215 48 341 111 148L48 503L147 503L147 348C183 241 250 241 147 278C334 254 368 281 299 241L368 503L467 503L467 0L368 0zM222 599L123 599L123 698L222 698zM404 599L305 599L305 698L404 698z" />
      <glyph unicode="&#x4F6;" horiz-adv-x="545" d="M257 -140L152 -140L152 0L77 0L77 700L525 700L525 600L182 600L182 100L257 100z" />
      <glyph unicode="&#x4F7;" horiz-adv-x="423" d="M236 -120L137 -120L137 0L67 0L67 503L403 503L403 410L166 410L166 93L236 93z" />
      <glyph unicode="&#x4F8;" horiz-adv-x="828" d="M77 0L77 700L182 700L182 453L358 453C434 443 467 424 398 453C525 377 543 343 499 404C571 269 571 226 561 308C561 143 543 109 571 182C499 48 467 29 525 75C398 0 358 0 434 9zM751 0L646 0L646 700L751 700zM355 100C466 152 466 226 419 100C419 353 355 353 466 299L182 353L182 100zM375 793L276 793L276 892L375 892zM557 793L458 793L458 892L557 892z" />
      <glyph unicode="&#x4F9;" horiz-adv-x="700" d="M67 0L67 503L166 503L166 340L292 340C356 332 383 318 326 340C430 283 445 257 409 303C467 202 467 170 459 231C459 108 445 82 467 137C409 36 383 22 430 56C326 0 292 0 356 7zM633 0L534 0L534 503L633 503zM283 85C368 120 368 170 332 85C332 255 283 255 368 219L166 255L166 85zM309 599L210 599L210 698L309 698zM491 599L392 599L392 698L491 698z" />
      <glyph unicode="&#x4FA;" horiz-adv-x="566" d="M120 -206L120 -111L139 -111C182 -91 182 -52 167 -111L182 0L107 0L107 304L10 304L10 398L107 398L107 700L546 700L546 603L212 603L212 398L404 398L404 304L212 304L212 100L287 100L287 -45C245 -206 141 -206 287 -161z" />
      <glyph unicode="&#x4FB;" horiz-adv-x="442" d="M422 413L184 413L184 287L354 287L354 203L184 203L184 79L254 79L254 -45C214 -189 121 -189 254 -147L94 -189L94 -99L113 -99C156 -82 156 -40 141 -99L156 0L86 0L86 203L8 203L8 287L86 287L86 503L422 503z" />
      <glyph unicode="&#x4FC;" horiz-adv-x="629" d="M435 -206L435 -105L454 -105C516 -84 516 -56 494 -105C496 17 459 72 516 -20L325 273L305 273L123 0L2 0L244 360L17 700L138 700L305 445L325 445L491 700L612 700L385 360L562 98C628 -23 628 -70 606 32C569 -206 465 -206 628 -152z" />
      <glyph unicode="&#x4FD;" horiz-adv-x="498" d="M303 -204L303 -112L322 -112C390 -92 390 -56 364 -112C371 12 330 75 390 -21L259 185L239 185L119 0L5 0L175 257L12 503L125 503L239 328L259 328L372 503L486 503L323 257L427 102C491 -19 491 -68 469 37C434 -204 329 -204 491 -152z" />
      <glyph unicode="&#x4FE;" horiz-adv-x="629" d="M123 0L2 0L214 316L89 316L89 403L215 403L17 700L138 700L305 445L325 445L491 700L612 700L415 403L540 403L540 316L416 316L627 0L506 0L325 273L305 273z" />
      <glyph unicode="&#x4FF;" horiz-adv-x="498" d="M119 0L5 0L151 219L68 219L68 296L150 296L12 503L125 503L239 328L259 328L372 503L486 503L348 296L429 296L429 219L347 219L493 0L378 0L259 185L239 185z" />
      <glyph unicode="&#x510;" horiz-adv-x="606" d="M313 -10C210 -1 170 17 257 -10C99 59 78 90 130 35C47 155 47 193 57 121C104 334 166 352 47 275L166 357C60 428 60 507 112 374C70 577 90 608 60 543C139 664 177 682 110 639C261 710 313 710 215 700C410 701 448 684 365 710C514 642 534 612 486 666C564 547 564 508 554 582L459 508C409 612 315 612 459 569C165 566 165 502 221 612C215 398 289 398 165 444L359 398L359 307L288 307C236 302 216 292 260 307C180 268 169 252 196 282C152 217 152 198 157 235C158 160 171 143 152 178C202 113 226 103 183 126C279 88 313 88 250 93C376 93 400 103 347 88C442 126 454 142 424 113C473 176 473 194 466 158L578 194C567 122 546 91 578 156C494 35 454 17 524 60C367 -10 313 -10 414 0z" />
      <glyph unicode="&#x511;" horiz-adv-x="479" d="M247 -10C37 52 37 142 117 -10C76 241 123 253 37 196L123 258C47 313 47 363 80 271C54 415 70 438 47 390C109 479 139 493 86 461C205 513 247 513 169 506C321 505 351 491 286 513C405 458 421 434 381 477C446 384 447 357 437 410L349 357C308 429 247 429 347 395C146 402 146 362 184 429C181 292 239 292 146 320L289 292L289 216L239 216C136 187 136 147 172 216C175 76 247 76 136 101C355 106 357 152 313 76L456 152C446 94 430 70 455 122C390 25 359 11 414 45C290 -10 247 -10 327 -2z" />
      <glyph unicode="&#x512;" horiz-adv-x="688" d="M413 -206L413 -104L429 -104C506 -76 506 -27 479 -104L506 600L256 600L219 167C152 -5 48 -5 209 49L8 -5L8 98L39 98C110 125 115 179 85 98L159 700L611 700L611 -36C552 -206 435 -206 611 -149z" />
      <glyph unicode="&#x513;" horiz-adv-x="554" d="M303 -204L303 -112L316 -112C388 -88 388 -38 365 -112L388 411L222 411L199 152C141 -6 45 -6 188 46L8 -6L8 90L36 90C98 114 102 162 76 90L131 503L487 503L487 -43C432 -204 324 -204 487 -150z" />
      <glyph unicode="&#x1E80;" horiz-adv-x="983" d="M344 0L185 0L12 700L125 700L259 144L279 144L424 700L559 700L704 144L724 144L858 700L971 700L798 0L639 0L502 533L482 533zM538 770L450 770L333 912L442 912z" />
      <glyph unicode="&#x1E81;" horiz-adv-x="795" d="M293 0L145 0L12 503L116 503L214 124L234 124L333 503L462 503L561 124L581 124L679 503L783 503L649 0L502 0L408 368L388 368zM447 579L359 579L242 722L351 722z" />
      <glyph unicode="&#x1E82;" horiz-adv-x="983" d="M344 0L185 0L12 700L125 700L259 144L279 144L424 700L559 700L704 144L724 144L858 700L971 700L798 0L639 0L502 533L482 533zM534 770L446 770L542 912L651 912z" />
      <glyph unicode="&#x1E83;" horiz-adv-x="795" d="M293 0L145 0L12 503L116 503L214 124L234 124L333 503L462 503L561 124L581 124L679 503L783 503L649 0L502 0L408 368L388 368zM443 579L355 579L451 722L560 722z" />
      <glyph unicode="&#x1E84;" horiz-adv-x="983" d="M344 0L185 0L12 700L125 700L259 144L279 144L424 700L559 700L704 144L724 144L858 700L971 700L798 0L639 0L502 533L482 533zM450 793L351 793L351 892L450 892zM632 793L533 793L533 892L632 892z" />
      <glyph unicode="&#x1E85;" horiz-adv-x="795" d="M293 0L145 0L12 503L116 503L214 124L234 124L333 503L462 503L561 124L581 124L679 503L783 503L649 0L502 0L408 368L388 368zM356 599L257 599L257 698L356 698zM538 599L439 599L439 698L538 698z" />
      <glyph unicode="&#x1E9E;" horiz-adv-x="681" d="M426 408C501 398 533 382 465 407C590 342 608 312 565 365C636 247 636 207 626 282C626 132 608 100 636 167C562 44 528 26 589 68C454 0 408 0 494 8L308 0L308 95L399 95C531 141 531 208 481 95C481 321 399 321 531 276L308 321L308 415L481 605L283 605C177 564 177 498 217 605L177 0L72 0L72 507C147 700 270 700 72 625L608 700L608 608L426 413z" />
      </font>
</defs>
</svg>
