<svg xmlns="http://www.w3.org/2000/svg">
<defs>
<font id="TT Hoves Pro Regular" horiz-adv-x="586">
      <font-face font-family="TT Hoves Pro" font-weight="400" units-per-em="1000" font-style="normal" ascent="1000" descent="-260" font-stretch="Normal" panose-1="2 11 0 3 2 0 0 2 2 3" cap-height="700" x-height="500" bbox="-443 -340 1438 1010" underline-thickness="70" underline-position="-165" unicode-range="U+0000-0006,U+0008-0009,U+000B-000F" />
      <missing-glyph horiz-adv-x="900" d="M100 0L100 284L145 284L145 145L178 145L178 284L228 284L228 315L100 315L100 441L119 380L142 380L176 486L209 380L232 380L286 550L254 550L220 440L185 550L166 550L131 440L100 543L100 700L800 700L800 550L690 550L690 380L800 380L800 289C772 316 750 316 792 306C690 293 690 267 714 316C710 226 744 217 690 237C778 206 778 194 766 210C768 173 750 173 778 180C722 183 722 198 731 173L689 198C714 143 750 143 689 166C792 153 800 163 772 143L800 0zM311 380L344 380L344 442L368 442L403 380L440 380L400 447C436 475 436 497 424 458C412 550 379 550 436 526L311 550zM469 550L469 380L502 380L502 550zM580 519L580 380L612 380L612 519L662 519L662 550L530 550L530 519zM344 473L344 519L379 519C403 509 403 496 392 519C391 473 379 473 403 480zM800 483L722 483L722 519L800 519zM800 411L722 411L722 452L800 452zM328 143C410 179 410 229 377 143C376 316 328 316 410 278C246 278 246 229 280 316C278 143 328 143 246 179zM585 143C652 171 652 209 623 143L652 315L620 315L620 209C606 174 585 174 620 189C549 190 549 209 562 174L549 315L517 315L517 209C546 143 585 143 517 171zM800 224C774 240 754 246 790 233C724 256 724 267 732 252C735 287 750 287 724 279C776 276 776 262 763 287L800 262zM328 174C277 198 277 229 298 174C297 285 328 285 277 262C379 262 379 229 360 285C357 174 328 174 379 198z" />
      <glyph unicode="
" horiz-adv-x="230" />
      <glyph unicode=" " horiz-adv-x="230" />
      <glyph unicode="!" horiz-adv-x="250" d="M155 160L95 160L85 400L85 700L165 700L165 400zM170 0L80 0L80 90L170 90z" />
      <glyph unicode="&#34;" horiz-adv-x="335" d="M130 490L55 490L55 700L130 700zM280 490L205 490L205 700L280 700z" />
      <glyph unicode="#" horiz-adv-x="685" d="M190 0L115 0L155 185L15 185L30 255L170 255L211 445L70 445L85 515L226 515L265 700L340 700L300 515L455 515L495 700L570 700L530 515L670 515L655 445L515 445L474 255L615 255L600 185L459 185L420 0L345 0L385 185L230 185zM285 445L245 255L400 255L440 445z" />
      <glyph unicode="$" horiz-adv-x="615" d="M565 190C482 0 340 -9 565 79L340 -110L265 -110L265 -7C181 11 148 31 220 -1C89 77 71 107 114 51C45 170 45 205 53 137L125 205C132 156 146 135 125 179C182 96 210 84 160 113C271 65 310 65 238 71C485 115 485 190 428 65C445 290 365 305 485 250L230 330C60 411 60 510 116 351C138 696 265 708 60 618L265 810L340 810L340 708C423 691 456 671 384 703C515 626 533 596 489 651C560 531 560 495 551 565L480 495C472 543 458 565 480 520C423 603 396 616 444 586C337 635 300 635 369 628C140 583 140 510 198 635C177 413 255 400 140 454L365 380C565 295 565 190 503 354z" />
      <glyph unicode="%" horiz-adv-x="765" d="M195 400C141 406 117 420 167 400C75 451 61 475 93 433C40 525 40 555 47 499C47 610 61 634 40 584C93 676 117 690 75 658C167 710 195 710 141 703C248 703 272 690 223 710C315 658 329 634 296 676C350 584 350 555 343 610C343 499 329 475 350 525C296 433 272 420 315 451C223 400 195 400 248 406zM205 0L125 0L560 700L640 700zM195 465C280 501 280 555 241 465C241 645 195 645 280 608C110 608 110 555 148 645C148 465 195 465 110 501zM570 -10C516 -3 492 10 542 -10C450 41 436 65 468 23C415 115 415 145 422 89C422 200 436 224 415 174C468 266 492 280 450 248C542 300 570 300 516 293C623 293 647 280 598 300C690 248 704 224 671 266C725 174 725 145 718 200C718 89 704 65 725 115C671 23 647 10 690 41C598 -10 570 -10 623 -3zM570 55C655 91 655 145 616 55C616 235 570 235 655 198C485 198 485 145 523 235C523 55 570 55 485 91z" />
      <glyph unicode="&#38;" horiz-adv-x="630" d="M260 -10C177 -2 145 14 216 -10C88 51 71 79 113 30C45 136 45 170 53 106C77 288 145 340 45 238L185 370L140 420C80 495 80 545 101 464C87 604 103 629 80 576C139 674 167 688 118 654C225 710 260 710 194 702C324 702 352 687 294 710C401 652 417 626 380 672C440 571 440 540 432 600C408 440 345 395 440 488L290 355L450 185C495 274 495 330 472 215L570 330C538 167 505 130 570 247L630 0L530 0L460 75C340 -10 260 -10 420 31zM295 445C360 502 360 540 335 474C320 635 260 635 360 596C160 595 160 545 201 635C170 493 200 460 160 515L245 410zM260 65C361 86 405 130 321 65L235 315L200 290C125 223 125 175 146 252C177 65 260 65 125 112z" />
      <glyph unicode="&#39;" horiz-adv-x="185" d="M130 490L55 490L55 700L130 700z" />
      <glyph unicode="(" horiz-adv-x="315" d="M210 -200C70 97 70 265 116 -62C116 592 210 730 70 433L290 730C145 434 145 265 192 592C192 -62 290 -200 145 95z" />
      <glyph unicode=")" horiz-adv-x="315" d="M25 -200C170 95 170 265 122 -62C122 592 25 730 170 434L105 730C245 433 245 265 198 592C198 -62 105 -200 245 97z" />
      <glyph unicode="*" horiz-adv-x="460" d="M230 460L145 335L90 380L180 495L40 535L60 600L200 550L195 700L265 700L260 550L400 600L420 535L280 495L370 380L315 335z" />
      <glyph unicode="+" horiz-adv-x="535" d="M305 60L230 60L230 255L50 255L50 325L230 325L230 520L305 520L305 325L485 325L485 255L305 255z" />
      <glyph unicode="," horiz-adv-x="210" d="M110 -80L45 -80L65 90L155 90z" />
      <glyph unicode="-" horiz-adv-x="410" d="M365 250L45 250L45 320L365 320z" />
      <glyph unicode="." horiz-adv-x="210" d="M150 0L60 0L60 90L150 90z" />
      <glyph unicode="/" horiz-adv-x="350" d="M75 -200L0 -200L275 730L350 730z" />
      <glyph unicode="0" horiz-adv-x="650" d="M325 -10C230 4 189 32 275 -10C115 101 91 155 148 60C55 274 55 350 67 209C67 490 91 544 55 425C148 640 189 668 115 598C275 710 325 710 230 696C419 696 460 668 374 710C534 598 558 544 501 640C595 425 595 350 582 490C582 209 558 155 595 274C501 60 460 32 534 101C374 -10 325 -10 419 4zM325 65C390 75 419 97 359 65C471 151 489 194 448 119C515 289 515 350 506 237C506 462 489 505 515 410C448 580 419 602 471 548C359 635 325 635 390 624C259 624 230 602 291 635C178 548 161 505 201 580C135 410 135 350 143 462C143 237 161 194 135 289C201 119 230 97 178 151C291 65 325 65 259 75z" />
      <glyph unicode="1" horiz-adv-x="335" d="M175 0L175 550L25 550L25 620L145 620C175 630 175 650 165 620L175 700L255 700L255 0z" />
      <glyph unicode="2" horiz-adv-x="535" d="M55 0L55 65L340 370C400 448 400 500 382 415C345 635 265 635 400 580C217 628 197 616 240 635C160 585 148 563 176 603C130 514 130 485 136 540L50 485C59 566 77 600 50 527C121 661 154 681 95 634C223 710 265 710 186 700C343 701 376 683 306 710C434 641 452 609 408 665C480 541 480 500 470 577C452 373 395 315 480 421L170 80L170 75L495 75L495 0z" />
      <glyph unicode="3" horiz-adv-x="550" d="M265 -10C179 -1 144 16 219 -10C82 57 63 87 109 34C35 149 35 185 44 117L115 185C173 65 265 65 115 117C415 119 415 190 353 65C354 320 265 320 415 266L220 320L220 395L265 395C405 447 405 518 351 395C399 558 387 576 405 538C359 608 338 619 375 594C292 635 265 635 316 629C215 629 194 619 239 635C155 594 143 576 172 608C125 540 125 520 131 558L45 520C54 584 73 613 45 553C117 665 151 683 91 642C223 710 265 710 185 701C345 701 379 684 307 710C438 644 457 614 412 667C485 552 485 516 475 584C431 380 375 360 485 438L375 355C495 272 495 190 436 335C485 119 465 89 495 153C418 35 383 17 445 59C309 -10 265 -10 348 -1z" />
      <glyph unicode="4" horiz-adv-x="540" d="M425 0L345 0L345 160L20 160L20 220L295 700L425 700L425 230L515 230L515 160L425 160zM120 235L120 230L345 230L345 595L325 595z" />
      <glyph unicode="5" horiz-adv-x="565" d="M275 -10C200 -2 167 13 236 -10C106 50 84 80 133 28C49 144 45 185 62 109L125 185C199 65 275 65 139 110C331 72 356 86 304 65C400 120 414 145 380 100C435 197 435 228 428 169C370 390 280 390 435 324C174 368 145 330 224 390L60 330L100 700L475 700L475 625L167 625L145 420L150 420C234 465 290 465 184 449C367 454 401 434 330 465C463 385 484 349 435 413C515 272 515 228 504 313C504 141 484 105 515 182C434 40 398 20 463 69C321 -10 275 -10 362 0z" />
      <glyph unicode="6" horiz-adv-x="560" d="M280 -10C195 0 159 21 236 -10C93 71 72 107 122 42C40 182 40 225 50 143C58 328 80 360 40 271L300 700L390 700L225 440L230 440C273 450 295 450 252 446C374 440 408 421 336 450C470 374 490 340 442 401C520 267 520 225 510 306C509 143 488 107 520 182C437 42 401 21 466 71C324 -10 280 -10 364 0zM280 65C336 72 361 86 309 65C405 119 419 144 385 100C440 195 440 225 433 168C433 281 419 306 440 254C385 350 361 364 405 330C309 385 280 385 336 378C223 378 199 364 250 385C155 330 141 306 174 350C120 254 120 225 127 281C127 168 141 144 120 195C174 100 199 86 155 119C250 65 280 65 223 72z" />
      <glyph unicode="7" horiz-adv-x="495" d="M215 0L130 0L376 625L25 625L25 700L465 700L465 635z" />
      <glyph unicode="8" horiz-adv-x="560" d="M280 -10C194 0 159 17 234 -10C97 60 78 91 124 35C50 154 50 190 59 121C104 337 160 360 50 272L160 365C65 444 65 515 112 387C74 584 92 614 65 551C136 667 169 684 110 644C239 710 280 710 202 701C357 701 390 684 320 710C449 644 467 614 423 667C495 551 495 515 485 584C448 387 400 365 495 444L400 360C510 272 510 190 456 337C500 122 481 92 510 155C435 36 400 18 462 61C325 -10 280 -10 365 0zM280 395C415 447 415 515 362 395C362 635 280 635 415 583C145 583 145 515 197 635C197 395 280 395 145 447zM280 65C430 120 430 195 365 65C365 325 280 325 430 269C130 269 130 195 194 325C194 65 280 65 130 120z" />
      <glyph unicode="9" horiz-adv-x="560" d="M170 0L335 260L330 260C287 250 265 250 308 253C185 259 151 279 223 250C90 325 70 359 117 298C40 432 40 475 50 393C50 557 72 593 40 517C122 657 159 678 93 629C236 710 280 710 195 699C364 699 401 678 324 710C466 629 488 593 437 657C520 517 520 475 509 557C501 372 480 340 520 428L260 0zM280 315C336 322 361 336 309 315C405 369 419 394 385 350C440 445 440 475 433 418C433 531 419 556 440 504C385 600 361 614 405 580C309 635 280 635 336 628C223 628 199 614 250 635C155 580 141 556 174 600C120 504 120 475 127 531C127 418 141 394 120 445C174 350 199 336 155 369C250 315 280 315 223 322z" />
      <glyph unicode=":" horiz-adv-x="210" d="M150 410L60 410L60 500L150 500zM150 0L60 0L60 90L150 90z" />
      <glyph unicode=";" horiz-adv-x="210" d="M155 410L65 410L65 500L155 500zM110 -80L45 -80L65 90L155 90z" />
      <glyph unicode="&#60;" horiz-adv-x="535" d="M480 145L480 70L55 255L55 325L480 510L480 435L135 290z" />
      <glyph unicode="=" horiz-adv-x="525" d="M455 340L70 340L70 410L455 410zM455 170L70 170L70 240L455 240z" />
      <glyph unicode="&#62;" horiz-adv-x="535" d="M480 255L55 70L55 145L400 290L55 435L55 510L480 325z" />
      <glyph unicode="?" horiz-adv-x="505" d="M200 220C228 340 310 380 200 298C385 447 385 505 360 405C325 635 245 635 385 579C105 581 105 515 162 635L25 515C34 584 53 614 25 551C97 667 131 684 71 644C202 710 245 710 164 701C325 701 359 683 287 710C418 640 437 609 392 665C465 543 465 505 455 577C423 356 350 320 465 418C280 264 280 220 294 292L280 160L200 160zM285 0L195 0L195 90L285 90z" />
      <glyph unicode="@" horiz-adv-x="925" d="M460 -90C311 -73 251 -40 381 -90C143 39 110 98 190 -6C60 222 60 295 76 156C77 438 112 498 60 370C194 605 255 639 146 558C384 690 460 690 315 673C613 673 676 639 541 690C788 558 823 500 739 605C875 376 875 305 857 441C805 80 705 80 875 157C608 111 595 145 649 80L590 145C508 80 444 80 564 111C372 88 342 106 406 80C288 149 271 181 312 124C245 249 245 290 253 213C253 367 271 399 245 330C312 455 342 473 288 431C407 500 445 500 372 491C557 470 575 440 507 500L580 440L590 490L655 490L655 205C674 150 705 150 655 170C800 201 800 305 768 150C785 418 757 466 800 365C689 551 638 579 729 514C527 620 460 620 586 606C341 606 292 578 397 620C204 512 176 463 242 550C135 357 135 295 148 413C148 179 175 131 135 233C240 46 290 20 202 83C396 -20 460 -20 339 -6L665 -20L665 -90zM450 150C580 206 580 290 526 150C526 430 450 430 580 374C320 374 320 290 374 430C374 150 450 150 320 206z" />
      <glyph unicode="A" horiz-adv-x="650" d="M650 0L565 0L498 180L152 180L85 0L0 0L265 700L385 700zM315 615L180 255L470 255L335 615z" />
      <glyph unicode="B" horiz-adv-x="640" d="M80 0L80 700L380 700C446 691 475 674 414 700C527 633 544 603 504 656C570 541 570 505 561 573C532 377 495 355 570 434L495 350C580 272 580 195 539 330C571 126 554 96 580 159C514 43 485 26 537 66C424 0 390 0 456 8zM380 385C490 435 490 505 441 385C441 625 380 625 490 574L160 625L160 385zM390 75C500 125 500 195 451 75C451 315 390 315 500 264L160 315L160 75z" />
      <glyph unicode="C" horiz-adv-x="730" d="M385 -10C267 5 216 35 323 -10C124 108 94 163 164 65C50 280 50 350 64 217C64 482 94 537 50 420C164 634 216 664 124 591C323 710 385 710 267 694C655 620 695 475 535 710L610 475C490 635 385 635 575 575C295 623 256 599 338 635C186 541 164 498 217 575C130 405 130 350 141 454C141 245 164 202 130 294C217 125 256 101 186 158C338 65 385 65 295 77C575 126 610 230 490 65L695 230C535 -10 385 -10 655 80z" />
      <glyph unicode="D" horiz-adv-x="700" d="M80 0L80 700L315 700C436 685 487 655 379 700C578 584 607 531 538 625C650 417 650 350 635 477C635 222 607 169 650 282C538 74 487 44 578 115C379 0 315 0 436 14zM315 75C406 86 445 109 363 75C514 164 536 206 483 132C570 296 570 350 558 248C558 451 536 493 570 404C483 567 445 590 514 535C363 625 315 625 406 613L160 625L160 75z" />
      <glyph unicode="E" horiz-adv-x="585" d="M530 0L80 0L80 700L530 700L530 625L160 625L160 390L510 390L510 315L160 315L160 75L530 75z" />
      <glyph unicode="F" horiz-adv-x="565" d="M160 0L80 0L80 700L520 700L520 625L160 625L160 390L500 390L500 315L160 315z" />
      <glyph unicode="G" horiz-adv-x="770" d="M410 360L700 360L700 0L635 0L625 100L620 100C485 -10 385 -10 576 44C267 5 216 35 323 -10C124 108 94 163 164 65C50 280 50 350 64 217C64 482 94 537 50 420C164 634 216 664 124 591C323 710 385 710 267 694C651 623 695 490 526 710L610 490C481 635 385 635 570 579C295 623 256 599 338 635C186 541 164 498 217 575C130 405 130 350 141 454C141 245 164 202 130 294C217 125 256 101 186 158C338 65 385 65 295 77C464 75 500 95 425 65C565 142 587 176 536 115C620 244 620 280 609 209L620 290L410 290z" />
      <glyph unicode="H" horiz-adv-x="710" d="M160 0L80 0L80 700L160 700L160 390L550 390L550 700L630 700L630 0L550 0L550 315L160 315z" />
      <glyph unicode="I" horiz-adv-x="240" d="M160 0L80 0L80 700L160 700z" />
      <glyph unicode="J" horiz-adv-x="385" d="M10 0L10 75L180 75C230 95 230 125 210 75L230 700L310 700L310 115C268 0 190 0 310 43z" />
      <glyph unicode="K" horiz-adv-x="555" d="M160 0L80 0L80 700L160 700L160 370L455 700L555 700L245 355L575 0L474 0L160 340z" />
      <glyph unicode="L" horiz-adv-x="530" d="M510 0L80 0L80 700L160 700L160 75L510 75z" />
      <glyph unicode="M" horiz-adv-x="900" d="M160 0L80 0L80 700L225 700L440 90L460 90L675 700L820 700L820 0L740 0L740 595L720 595L510 0L390 0L180 595L160 595z" />
      <glyph unicode="N" horiz-adv-x="710" d="M160 0L80 0L80 700L215 700L530 95L550 95L550 700L630 700L630 0L495 0L180 605L160 605z" />
      <glyph unicode="O" horiz-adv-x="770" d="M385 -10C267 5 216 35 323 -10C124 108 94 163 164 65C50 280 50 350 64 217C64 482 94 537 50 420C164 634 216 664 124 591C323 710 385 710 267 694C502 694 554 664 446 710C645 591 675 537 605 634C720 420 720 350 705 482C705 217 675 163 720 280C605 65 554 35 645 108C446 -10 385 -10 502 5zM385 65C474 77 513 101 431 65C583 158 606 202 552 125C640 294 640 350 628 245C628 454 606 498 640 405C552 575 513 599 583 541C431 635 385 635 474 623C295 623 256 599 338 635C186 541 164 498 217 575C130 405 130 350 141 454C141 245 164 202 130 294C217 125 256 101 186 158C338 65 385 65 295 77z" />
      <glyph unicode="P" horiz-adv-x="635" d="M80 0L80 700L385 700C455 690 485 672 421 700C540 627 558 595 515 653C585 525 585 485 576 562C576 407 558 375 585 444C515 316 485 298 540 342C421 270 385 270 455 279L160 270L160 0zM385 345C505 402 505 485 451 345C451 625 385 625 505 567L160 625L160 345z" />
      <glyph unicode="Q" horiz-adv-x="770" d="M720 350C683 151 619 86 720 243L720 -10L620 -10L565 42C450 -10 385 -10 510 7C267 5 216 35 323 -10C124 108 94 163 164 65C50 280 50 350 64 217C64 482 94 537 50 420C164 634 216 664 124 591C323 710 385 710 267 694C502 694 554 664 446 710C645 591 675 537 605 634C720 420 720 350 705 482zM130 350C141 245 164 202 130 294C217 125 256 101 186 158C338 65 385 65 295 77C470 75 507 97 429 65L340 260L440 260L562 141C640 264 640 350 611 193C628 454 606 498 640 405C552 575 513 599 583 541C431 635 385 635 474 623C295 623 256 599 338 635C186 541 164 498 217 575C130 405 130 350 141 454z" />
      <glyph unicode="R" horiz-adv-x="640" d="M319 270L600 0L500 0L220 270L160 270L160 0L80 0L80 700L385 700C455 690 485 672 421 700C540 627 558 595 515 653C585 525 585 485 576 562C576 407 558 375 585 444C515 316 485 298 540 342C421 270 385 270 455 279zM160 345L385 345C505 402 505 485 451 345C451 625 385 625 505 567L160 625z" />
      <glyph unicode="S" horiz-adv-x="615" d="M310 -10C210 0 170 19 256 -10C99 65 77 98 130 39C45 166 45 205 55 130L125 205C132 156 146 135 125 179C182 96 210 84 160 113C271 65 310 65 238 71C485 115 485 190 428 65C445 290 365 305 485 250L230 330C60 411 60 510 116 351C69 583 89 613 60 548C136 666 172 684 108 643C251 710 300 710 208 701C397 700 437 681 352 710C506 636 528 604 476 662C560 535 560 495 549 571L480 495C472 543 458 565 480 520C423 603 396 616 444 586C337 635 300 635 369 628C140 583 140 510 198 635C177 413 255 400 140 454L365 380C565 295 565 190 503 354C555 116 535 86 565 151C486 32 448 15 515 56C363 -10 310 -10 409 -1z" />
      <glyph unicode="T" horiz-adv-x="590" d="M335 0L255 0L255 625L25 625L25 700L565 700L565 625L335 625z" />
      <glyph unicode="U" horiz-adv-x="690" d="M345 -10C247 2 205 26 293 -10C130 83 106 127 163 50C70 219 70 275 82 170L70 700L150 700L150 275C158 198 175 166 150 234C215 109 245 91 192 134C308 65 345 65 275 73C414 73 444 91 381 65C497 134 514 166 474 109C540 234 540 275 531 198L540 700L620 700L620 275C608 170 584 127 620 219C527 50 485 26 560 83C396 -10 345 -10 443 2z" />
      <glyph unicode="V" horiz-adv-x="650" d="M385 0L265 0L10 700L95 700L315 85L335 85L555 700L640 700z" />
      <glyph unicode="W" horiz-adv-x="980" d="M328 0L190 0L15 700L100 700L250 85L270 85L430 700L550 700L710 85L730 85L880 700L965 700L790 0L652 0L500 585L480 585z" />
      <glyph unicode="X" horiz-adv-x="620" d="M101 0L10 0L255 360L25 700L115 700L300 425L320 425L505 700L595 700L365 360L610 0L519 0L320 295L300 295z" />
      <glyph unicode="Y" horiz-adv-x="590" d="M335 0L255 0L255 265L0 700L85 700L285 355L305 355L505 700L590 700L335 265z" />
      <glyph unicode="Z" horiz-adv-x="575" d="M540 0L35 0L35 65L435 625L40 625L40 700L535 700L535 635L135 75L540 75z" />
      <glyph unicode="[" horiz-adv-x="315" d="M280 -200L80 -200L80 730L280 730L280 660L155 660L155 -130L280 -130z" />
      <glyph unicode="\" horiz-adv-x="350" d="M350 -200L275 -200L0 730L75 730z" />
      <glyph unicode="]" horiz-adv-x="315" d="M235 -200L35 -200L35 -130L160 -130L160 660L35 660L35 730L235 730z" />
      <glyph unicode="^" horiz-adv-x="405" d="M125 430L55 430L165 700L240 700L350 430L280 430L205 625L200 625z" />
      <glyph unicode="_" horiz-adv-x="360" d="M380 -170L-20 -170L-20 -100L380 -100z" />
      <glyph unicode="`" horiz-adv-x="245" d="M215 580L145 580L30 720L120 720z" />
      <glyph unicode="a" horiz-adv-x="530" d="M225 -10C50 54 50 145 121 -10C115 305 250 305 50 245L385 305L385 320C339 440 265 440 385 394C145 403 140 355 193 440L65 355C76 407 92 431 67 382C130 474 160 488 108 455C225 510 265 510 190 502C460 438 460 320 386 510L460 0L395 0L385 60L380 60C298 -10 225 -10 357 24zM225 60C385 119 385 215 325 60L385 235L250 235C125 198 125 145 164 235C161 60 225 60 125 94z" />
      <glyph unicode="b" horiz-adv-x="585" d="M315 -10C196 18 155 70 247 -10L150 70L140 0L75 0L75 700L150 700L150 430L155 430C247 510 315 510 196 482C397 499 432 477 358 510C495 424 515 385 467 455C545 300 545 250 535 345C535 154 515 115 545 199C467 45 432 23 495 75C358 -10 315 -10 397 1zM310 60C365 68 389 84 338 60C433 122 448 151 413 100C470 212 470 250 462 179C462 320 448 349 470 287C413 400 389 416 433 377C338 440 310 440 365 432C254 432 230 416 281 440C186 377 172 349 206 400C150 287 150 250 157 320C157 179 172 151 150 212C206 100 230 84 186 122C281 60 310 60 254 68z" />
      <glyph unicode="c" horiz-adv-x="535" d="M280 -10C194 1 158 23 235 -10C92 75 71 115 121 45C40 199 40 250 50 154C50 345 71 385 40 300C121 455 158 477 92 424C235 510 280 510 194 499C474 445 500 340 390 510L425 340C350 440 280 440 405 404C222 432 197 416 250 440C151 378 137 349 171 400C115 287 115 250 122 320C122 179 137 150 115 212C171 99 197 83 151 121C250 60 280 60 222 67C405 97 425 165 352 60L500 165C390 -10 280 -10 474 55z" />
      <glyph unicode="d" horiz-adv-x="585" d="M270 -10C187 1 152 23 226 -10C90 75 70 115 117 45C40 199 40 250 50 154C50 345 70 385 40 300C117 455 152 477 90 424C226 510 270 510 187 499C388 482 430 430 338 510L435 430L435 700L510 700L510 0L445 0L435 70L430 70C338 -10 270 -10 388 18zM275 60C330 68 354 84 303 60C398 122 413 151 378 100C435 212 435 250 427 179C427 320 413 349 435 287C378 400 354 416 398 377C303 440 275 440 330 432C219 432 195 416 246 440C151 377 137 349 171 400C115 287 115 250 122 320C122 179 137 151 115 212C171 100 195 84 151 122C246 60 275 60 219 68z" />
      <glyph unicode="e" horiz-adv-x="550" d="M280 -10C194 1 158 23 235 -10C92 75 71 115 121 45C40 199 40 250 50 154C50 345 71 385 40 300C121 455 158 477 92 424C235 510 280 510 194 499C361 499 397 479 322 510C460 429 480 393 432 458C510 316 510 270 500 357C508 225 505 215 510 243L115 215C194 60 280 60 124 121C389 89 415 140 340 60L495 140C384 -10 280 -10 460 44zM435 285C365 440 280 440 429 375C125 375 115 285 190 440z" />
      <glyph unicode="f" horiz-adv-x="310" d="M105 0L105 430L25 430L25 500L105 500L105 595C140 680 195 680 105 645L285 680L285 610L210 610C180 600 180 580 190 610L180 500L285 500L285 430L180 430L180 0z" />
      <glyph unicode="g" horiz-adv-x="580" d="M285 -210C201 -202 168 -186 240 -210C108 -149 90 -123 134 -170C62 -69 60 -40 72 -97L135 -40C195 -140 285 -140 140 -94C435 -85 435 0 375 -140L435 90L430 90C334 20 270 20 390 44C187 30 152 51 226 20C90 100 70 138 117 71C40 217 40 265 50 175C50 354 70 392 40 312C117 458 152 479 90 429C226 510 270 510 187 499C394 480 430 435 334 510L435 435L445 500L510 500L510 0C501 -77 483 -109 510 -41C439 -165 405 -183 465 -141C331 -210 285 -210 371 -201zM275 90C332 97 356 112 305 90C400 147 414 174 380 126C435 231 435 265 428 200C428 329 414 356 435 299C380 403 356 418 400 382C305 440 275 440 332 432C217 432 193 418 245 440C150 382 136 356 169 403C115 299 115 265 122 329C122 200 136 174 115 231C169 126 193 112 150 147C245 90 275 90 217 97z" />
      <glyph unicode="h" horiz-adv-x="575" d="M75 0L75 700L150 700L150 445L155 445C238 510 305 510 181 478C377 501 407 483 343 510C461 441 479 409 437 465C505 340 505 300 496 377L505 0L430 0L430 300C424 349 412 371 430 326C383 409 363 421 400 392C319 440 295 440 342 433C244 433 222 420 269 440C182 390 169 369 200 407C150 324 150 300 156 347L150 0z" />
      <glyph unicode="i" horiz-adv-x="215" d="M145 0L70 0L70 500L145 500zM151 605L66 605L66 690L151 690z" />
      <glyph unicode="j" horiz-adv-x="215" d="M-35 -200L-35 -130L40 -130C70 -120 70 -100 60 -130L70 500L145 500L145 -115C109 -200 55 -200 145 -165zM151 605L66 605L66 690L151 690z" />
      <glyph unicode="k" horiz-adv-x="480" d="M150 0L75 0L75 700L150 700L150 270L374 500L470 500L230 255L480 0L384 0L150 240z" />
      <glyph unicode="l" horiz-adv-x="225" d="M150 0L75 0L75 700L150 700z" />
      <glyph unicode="m" horiz-adv-x="845" d="M70 0L70 500L135 500L145 445L150 445C226 510 280 510 176 478C405 469 425 425 350 510L430 425C521 510 595 510 458 469C660 501 688 485 629 510C736 445 752 416 715 468C775 353 775 315 767 386L775 0L700 0L700 315C654 440 585 440 700 389C543 434 524 423 563 440C489 397 477 378 504 412C460 337 460 315 465 358L460 0L385 0L385 315C339 440 270 440 385 389C228 434 209 423 248 440C174 397 162 378 189 412C145 337 145 315 150 358L145 0z" />
      <glyph unicode="n" horiz-adv-x="570" d="M70 0L70 500L135 500L145 445L150 445C233 510 300 510 176 478C372 501 402 483 338 510C456 441 474 409 432 465C500 340 500 300 491 377L500 0L425 0L425 300C419 349 407 371 425 326C378 409 358 421 395 392C314 440 290 440 337 433C239 433 217 420 264 440C177 390 164 369 195 407C145 324 145 300 151 347L145 0z" />
      <glyph unicode="o" horiz-adv-x="560" d="M280 -10C194 1 158 23 235 -10C92 75 71 115 121 45C40 199 40 250 50 154C50 345 71 385 40 300C121 455 158 477 92 424C235 510 280 510 194 499C365 499 402 477 324 510C467 424 488 385 438 455C520 300 520 250 509 345C509 154 488 115 520 199C438 45 402 23 467 75C324 -10 280 -10 365 1zM280 60C337 67 363 83 310 60C408 121 423 150 388 99C445 212 445 250 437 179C437 320 423 349 445 287C388 400 363 416 408 378C310 440 280 440 337 432C222 432 197 416 250 440C151 378 137 349 171 400C115 287 115 250 122 320C122 179 137 150 115 212C171 99 197 83 151 121C250 60 280 60 222 67z" />
      <glyph unicode="p" horiz-adv-x="580" d="M70 -200L70 500L135 500L145 430L150 430C242 510 310 510 191 482C392 499 427 477 353 510C490 424 510 385 462 455C540 300 540 250 530 345C530 154 510 115 540 199C462 45 427 23 490 75C353 -10 310 -10 392 1C191 18 150 70 242 -10L145 70L145 -200zM305 60C360 68 384 84 333 60C428 122 443 151 408 100C465 212 465 250 457 179C457 320 443 349 465 287C408 400 384 416 428 377C333 440 305 440 360 432C249 432 225 416 276 440C181 377 167 349 201 400C145 287 145 250 152 320C152 179 167 151 145 212C201 100 225 84 181 122C276 60 305 60 249 68z" />
      <glyph unicode="q" horiz-adv-x="580" d="M435 -200L435 70L430 70C338 -10 270 -10 388 18C187 1 152 23 226 -10C90 75 70 115 117 45C40 199 40 250 50 154C50 345 70 385 40 300C117 455 152 477 90 424C226 510 270 510 187 499C388 482 430 430 338 510L435 430L445 500L510 500L510 -200zM275 60C330 68 354 84 303 60C398 122 413 151 378 100C435 212 435 250 427 179C427 320 413 349 435 287C378 400 354 416 398 377C303 440 275 440 330 432C219 432 195 416 246 440C151 377 137 349 171 400C115 287 115 250 122 320C122 179 137 151 115 212C171 100 195 84 151 122C246 60 275 60 219 68z" />
      <glyph unicode="r" horiz-adv-x="340" d="M70 0L70 500L135 500L145 450L150 450C194 500 245 500 172 484L330 500L330 430L255 430C145 390 145 320 185 430L145 0z" />
      <glyph unicode="s" horiz-adv-x="460" d="M230 -10C154 -2 124 11 190 -10C70 44 54 68 94 25C30 117 30 145 38 92L105 145C152 60 230 60 105 98C350 92 350 135 306 60C323 199 265 210 350 175L180 225C40 287 40 365 86 241C105 510 225 510 40 449C297 502 327 488 263 510C380 455 396 431 357 474C420 381 420 355 412 407L345 355C297 440 225 440 345 401C115 407 115 365 154 440C137 305 195 295 115 327L280 280C425 215 425 135 380 262C355 -10 230 -10 425 51z" />
      <glyph unicode="t" horiz-adv-x="340" d="M195 0C105 34 105 85 140 0L105 430L25 430L25 500L105 500L105 640L180 640L180 500L295 500L295 430L180 430L180 100C190 70 210 70 180 80L295 70L295 0z" />
      <glyph unicode="u" horiz-adv-x="570" d="M270 -10C197 -1 167 16 232 -10C113 59 96 91 137 34C70 159 70 200 78 123L70 500L145 500L145 200C151 150 163 129 145 174C191 90 212 78 175 107C255 60 280 60 232 66C330 66 352 79 306 60C392 109 405 131 374 92C425 175 425 200 418 152L425 500L500 500L500 0L435 0L425 55L420 55C336 -10 270 -10 392 20z" />
      <glyph unicode="v" horiz-adv-x="500" d="M310 0L190 0L10 500L90 500L240 80L260 80L410 500L490 500z" />
      <glyph unicode="w" horiz-adv-x="790" d="M280 0L150 0L15 500L95 500L205 80L225 80L335 500L455 500L565 80L585 80L695 500L775 500L640 0L510 0L405 405L385 405z" />
      <glyph unicode="x" horiz-adv-x="480" d="M100 0L10 0L180 255L15 500L105 500L230 310L250 310L375 500L465 500L300 255L470 0L380 0L250 200L230 200z" />
      <glyph unicode="y" horiz-adv-x="495" d="M405 500L485 500L260 -130C218 -200 165 -200 242 -178L65 -200L65 -130L160 -130C188 -120 195 -100 176 -130L215 -40L10 500L90 500L245 85L265 85z" />
      <glyph unicode="z" horiz-adv-x="430" d="M405 0L25 0L25 65L305 430L30 430L30 500L400 500L400 435L120 70L405 70z" />
      <glyph unicode="{" horiz-adv-x="315" d="M230 -200C120 -155 120 -90 164 -200L120 170C93 225 55 225 120 200L55 305C120 329 120 360 93 305L120 620C164 730 230 730 120 685L280 730L280 665L240 665C195 650 195 620 210 665L195 360C155 277 115 275 195 306L115 255C195 223 195 170 155 252L195 -90C210 -135 240 -135 195 -120L280 -135L280 -200z" />
      <glyph unicode="|" horiz-adv-x="315" d="M195 -200L120 -200L120 730L195 730z" />
      <glyph unicode="}" horiz-adv-x="315" d="M35 -200L35 -135L75 -135C120 -120 120 -90 105 -135L120 170C160 252 200 255 120 223L200 275C120 306 120 360 160 277L120 620C105 665 75 665 120 650L35 665L35 730L85 730C195 685 195 620 150 730L195 360C221 305 260 305 195 329L260 225C195 200 195 170 221 225L195 -90C150 -200 85 -200 195 -155z" />
      <glyph unicode="~" horiz-adv-x="565" d="M45 195C99 360 190 360 45 299C266 338 305 301 236 360C351 260 375 260 337 271C445 291 445 355 421 260L520 355C465 190 375 190 520 251C298 211 260 249 328 190C214 290 190 290 228 278C120 258 120 195 143 290z" />
      <glyph unicode="&#xA0;" horiz-adv-x="230" />
      <glyph unicode="&#xA1;" horiz-adv-x="250" d="M170 410L80 410L80 500L170 500zM165 -200L85 -200L85 100L95 340L155 340L165 100z" />
      <glyph unicode="&#xA2;" horiz-adv-x="535" d="M240 -5C166 16 136 39 201 1C82 91 65 127 106 61C40 204 40 250 48 163C48 336 65 372 40 295C106 438 136 461 82 408C201 498 240 505 166 483L240 610L315 610L315 505C474 434 500 340 411 490L425 340C350 440 280 440 405 404C222 432 197 416 250 440C151 378 137 349 171 400C115 287 115 250 122 320C122 179 137 150 115 212C171 99 197 83 151 121C250 60 280 60 222 67C405 97 425 165 352 60L500 165C413 10 315 -5 475 67L315 -110L240 -110z" />
      <glyph unicode="&#xA3;" horiz-adv-x="590" d="M35 0L35 75L60 75C120 95 120 135 100 75L120 300L35 300L35 370L120 370L120 505C129 577 147 609 120 543C190 665 222 683 165 640C292 710 335 710 254 701C415 701 447 684 377 710C505 644 523 614 479 667C550 551 550 515 541 584L470 515C417 635 335 635 470 583C200 581 200 505 255 635L200 370L395 370L395 300L200 300L200 135C184 79 170 75 200 101L565 75L565 0z" />
      <glyph unicode="&#xA4;" horiz-adv-x="580" d="M135 140L80 190L135 255C110 310 110 350 121 272C121 427 135 445 110 390L80 510L135 560L190 500C250 530 290 530 210 514C370 514 390 500 330 530L445 560L500 510L445 445C470 390 470 350 458 427C458 272 445 255 470 310L500 190L445 140L390 200C330 170 290 170 370 185C210 185 190 200 250 170zM290 240C400 290 400 350 350 240C350 460 290 460 400 410C180 410 180 350 230 460C230 240 290 240 180 290z" />
      <glyph unicode="&#xA5;" horiz-adv-x="580" d="M330 0L250 0L250 140L80 140L80 210L250 210L250 290L80 290L80 360L200 360L10 700L95 700L280 360L300 360L485 700L570 700L380 360L500 360L500 290L330 290L330 210L500 210L500 140L330 140z" />
      <glyph unicode="&#xA6;" horiz-adv-x="315" d="M195 360L120 360L120 730L195 730zM195 -200L120 -200L120 170L195 170z" />
      <glyph unicode="&#xA7;" horiz-adv-x="620" d="M315 -170C223 -161 187 -143 266 -170C123 -100 104 -69 151 -125C75 -3 75 35 84 -38L155 35C212 -95 315 -95 155 -42C460 -53 460 5 411 -95C425 96 355 110 460 61L255 130C65 213 65 305 128 155C94 407 125 430 65 358C85 488 85 535 105 447C165 710 305 710 85 639C393 701 429 683 352 710C491 640 511 609 464 665C540 543 540 505 530 578L460 505C402 635 305 635 460 582C165 593 165 535 214 635C190 459 265 445 165 484L365 425C555 344 555 250 495 398C525 142 495 120 555 192C540 58 540 5 517 102C531 -56 513 -83 540 -27C470 -130 436 -146 495 -109C361 -170 315 -170 402 -162zM435 160C475 207 475 250 455 173C438 335 365 350 475 302L265 370C201 384 190 390 226 378C145 345 145 305 167 376C181 219 255 205 145 253L355 185C417 169 435 160 391 177z" />
      <glyph unicode="&#xA8;" horiz-adv-x="320" d="M115 605L30 605L30 690L115 690zM290 605L205 605L205 690L290 690z" />
      <glyph unicode="&#xA9;" horiz-adv-x="840" d="M420 -10C291 5 236 37 352 -10C138 111 107 166 181 68C60 282 60 350 75 221C75 478 107 533 60 417C181 631 236 663 138 588C352 710 420 710 291 694C548 694 603 663 487 710C701 588 733 533 658 631C780 417 780 350 764 478C764 221 733 166 780 282C658 68 603 37 701 111C487 -10 420 -10 548 5zM420 55C521 67 565 93 472 55C645 154 671 199 609 119C710 294 710 350 697 244C697 455 671 500 710 405C609 580 565 606 645 545C472 645 420 645 521 632C318 632 274 606 367 645C195 545 169 500 230 580C130 405 130 350 143 455C143 244 169 199 130 294C230 119 274 93 195 154C367 55 420 55 318 67zM425 160C359 168 332 184 390 160C283 223 268 252 304 200C245 314 245 350 252 281C253 418 269 447 245 386C306 499 334 515 285 476C391 540 425 540 361 531C570 489 590 415 505 540L525 415C477 480 425 480 510 458C310 428 310 350 358 480C358 220 425 220 310 271C511 243 525 290 477 220L590 290C505 160 425 160 570 210z" />
      <glyph unicode="&#xAA;" horiz-adv-x="335" d="M145 390C35 430 35 490 79 390C77 585 155 585 35 547L235 585L235 595C207 655 170 655 235 633C115 641 105 615 137 655L45 615C102 710 170 710 55 671C290 664 290 595 240 710L290 395L250 395L240 435L235 435C187 390 145 390 219 408zM150 445C235 475 235 530 204 445L235 535L155 535C95 519 95 490 119 535C118 445 150 445 95 460z" />
      <glyph unicode="&#xAB;" horiz-adv-x="495" d="M265 55L185 55L45 250L185 445L265 445L125 250zM450 55L370 55L230 250L370 445L450 445L310 250z" />
      <glyph unicode="&#xAC;" horiz-adv-x="525" d="M450 165L375 165L375 295L70 295L70 365L450 365z" />
      <glyph unicode="&#xAD;" horiz-adv-x="410" d="M365 250L45 250L45 320L365 320z" />
      <glyph unicode="&#xAE;" horiz-adv-x="840" d="M420 710C548 694 603 663 487 710C701 588 733 533 658 631C780 417 780 350 764 478C764 221 733 166 780 282C658 68 603 37 701 111C487 -10 420 -10 548 5C291 5 236 37 352 -10C138 111 107 166 181 68C60 282 60 350 75 221C75 478 107 533 60 417C181 631 236 663 138 588C352 710 420 710 291 694zM420 55C521 67 565 93 472 55C645 154 671 199 609 119C710 294 710 350 697 244C697 455 671 500 710 405C609 580 565 606 645 545C472 645 420 645 521 632C318 632 274 606 367 645C195 545 169 500 230 580C130 405 130 350 143 455C143 244 169 199 130 294C230 119 274 93 195 154C367 55 420 55 318 67zM575 415C525 294 460 290 575 345L585 165L505 165L380 290L350 290L350 165L285 165L285 540L450 540C575 485 575 415 520 540zM350 350L450 350C510 375 510 415 486 350C486 480 450 480 510 455L350 480z" />
      <glyph unicode="&#xAF;" horiz-adv-x="340" d="M310 618L30 618L30 678L310 678z" />
      <glyph unicode="&#xB0;" horiz-adv-x="370" d="M185 450C55 505 55 580 110 450C110 710 185 710 55 654C315 654 315 580 259 710C259 450 185 450 315 505zM185 510C255 540 255 580 225 510C225 650 185 650 255 620C115 620 115 580 145 650C145 510 185 510 115 540z" />
      <glyph unicode="&#xB1;" horiz-adv-x="535" d="M305 140L230 140L230 325L50 325L50 395L230 395L230 580L305 580L305 395L485 395L485 325L305 325zM480 0L55 0L55 70L480 70z" />
      <glyph unicode="&#xB2;" horiz-adv-x="335" d="M55 440L55 490L195 635C225 671 225 695 216 656C203 750 170 750 225 725C110 728 110 690 134 750L50 690C100 805 170 805 50 755C285 760 285 695 239 805C271 632 235 595 285 653L145 500L145 495L290 495L290 440z" />
      <glyph unicode="&#xB3;" horiz-adv-x="335" d="M165 435C45 480 45 540 95 435L105 540C131 490 165 490 105 514C225 510 225 545 201 490C200 600 160 600 225 579L135 600L135 655L160 655C220 674 220 705 198 655C198 750 165 750 220 730C110 730 110 705 131 750L50 705C97 805 165 805 50 761C280 761 280 705 233 805C260 644 230 630 280 675L230 625C285 583 285 545 262 614C238 435 165 435 285 482z" />
      <glyph unicode="&#xB4;" horiz-adv-x="245" d="M100 580L30 580L125 720L215 720z" />
      <glyph unicode="&#xB5;" horiz-adv-x="570" d="M70 -200L70 500L145 500L145 200C151 150 163 129 145 174C191 90 212 78 175 107C255 60 280 60 232 66C330 66 352 79 306 60C392 109 405 131 374 92C425 175 425 200 418 152L425 500L500 500L500 0L435 0L425 55L420 55C337 -10 275 -10 396 21C165 17 145 45 215 -10L145 -200z" />
      <glyph unicode="&#xB6;" horiz-adv-x="525" d="M205 360C147 367 123 381 175 360C80 416 66 442 99 395C45 497 45 530 52 468C52 592 66 618 45 562C99 664 123 678 80 644C175 700 205 700 147 692L445 700L445 -100L370 -100L370 630L280 630L280 -100L205 -100z" />
      <glyph unicode="&#xB7;" horiz-adv-x="230" d="M160 220L70 220L70 310L160 310z" />
      <glyph unicode="&#xB8;" horiz-adv-x="205" d="M30 -200L30 -150L70 -150C115 -136 115 -115 99 -150C99 -80 70 -80 115 -93L45 -80L45 -45L72 15L125 0L105 -45C175 -84 175 -120 143 -50C138 -200 80 -200 175 -166z" />
      <glyph unicode="&#xB9;" horiz-adv-x="255" d="M120 440L120 700L35 700L35 755L90 755C120 765 120 785 110 755L120 800L180 800L180 440z" />
      <glyph unicode="&#xBA;" horiz-adv-x="370" d="M185 390C40 455 40 550 99 390C99 710 185 710 40 644C330 644 330 550 270 710C270 390 185 390 330 455zM185 445C270 487 270 550 231 445C231 655 185 655 270 612C100 612 100 550 138 655C138 445 185 445 100 487z" />
      <glyph unicode="&#xBB;" horiz-adv-x="495" d="M125 55L45 55L185 250L45 445L125 445L265 250zM310 55L230 55L370 250L230 445L310 445L450 250z" />
      <glyph unicode="&#xBC;" horiz-adv-x="680" d="M120 340L120 600L35 600L35 655L90 655C120 665 120 685 110 655L120 700L180 700L180 340zM135 0L65 0L500 700L570 700zM605 0L545 0L545 75L380 75L380 125L515 360L605 360L605 130L655 130L655 75L605 75zM455 135L455 130L545 130L545 280L535 280z" />
      <glyph unicode="&#xBD;" horiz-adv-x="695" d="M120 340L120 600L35 600L35 655L90 655C120 665 120 685 110 655L120 700L180 700L180 340zM135 0L65 0L500 700L570 700zM415 0L415 50L555 195C585 231 585 255 576 216C563 310 530 310 585 285C470 288 470 250 494 310L410 250C460 365 530 365 410 315C645 320 645 255 599 365C631 192 595 155 645 213L505 60L505 55L650 55L650 0z" />
      <glyph unicode="&#xBE;" horiz-adv-x="740" d="M165 335C45 380 45 440 95 335L105 440C131 390 165 390 105 414C225 410 225 445 201 390C200 500 160 500 225 479L135 500L135 555L160 555C220 574 220 605 198 555C198 650 165 650 220 630C110 630 110 605 131 650L50 605C97 705 165 705 50 661C280 661 280 605 233 705C260 544 230 530 280 575L230 525C285 483 285 445 262 514C238 335 165 335 285 382zM195 0L125 0L560 700L630 700zM665 0L605 0L605 75L440 75L440 125L575 360L665 360L665 130L715 130L715 75L665 75zM515 135L515 130L605 130L605 280L595 280z" />
      <glyph unicode="&#xBF;" horiz-adv-x="505" d="M310 410L220 410L220 500L310 500zM260 -210C179 -201 146 -183 217 -210C86 -140 68 -109 112 -165C40 -43 40 -5 49 -77C81 144 155 180 40 81C225 236 225 280 211 208L225 340L305 340L305 280C276 160 195 120 305 201C120 53 120 -5 145 95C180 -135 260 -135 120 -79C400 -81 400 -15 342 -135L480 -15C470 -84 452 -114 480 -51C407 -167 374 -184 433 -144C302 -210 260 -210 340 -201z" />
      <glyph unicode="&#xC0;" horiz-adv-x="650" d="M650 0L565 0L498 180L152 180L85 0L0 0L265 700L385 700zM315 615L180 255L470 255L335 615zM360 770L290 770L175 910L265 910z" />
      <glyph unicode="&#xC1;" horiz-adv-x="650" d="M650 0L565 0L498 180L152 180L85 0L0 0L265 700L385 700zM315 615L180 255L470 255L335 615zM359 770L289 770L384 910L474 910z" />
      <glyph unicode="&#xC2;" horiz-adv-x="650" d="M650 0L565 0L498 180L152 180L85 0L0 0L265 700L385 700zM315 615L180 255L470 255L335 615zM250 770L170 770L285 905L365 905L480 770L400 770L325 860z" />
      <glyph unicode="&#xC3;" horiz-adv-x="650" d="M650 0L565 0L498 180L152 180L85 0L0 0L265 700L385 700zM315 615L180 255L470 255L335 615zM168 790C212 890 268 890 168 848C310 881 336 865 292 890C371 845 383 845 355 851C423 862 423 890 404 845L483 890C439 790 383 790 483 831C340 799 315 815 359 790C280 835 268 835 295 828C228 818 228 790 246 835z" />
      <glyph unicode="&#xC4;" horiz-adv-x="650" d="M650 0L565 0L498 180L152 180L85 0L0 0L265 700L385 700zM315 615L180 255L470 255L335 615zM280 800L195 800L195 885L280 885zM455 800L370 800L370 885L455 885z" />
      <glyph unicode="&#xC5;" horiz-adv-x="650" d="M650 0L565 0L498 180L152 180L85 0L0 0L265 700L385 700zM315 615L180 255L470 255L335 615zM325 760C235 800 235 850 274 760C274 940 325 940 235 900C415 900 415 850 374 940C374 760 325 760 415 800zM325 810C365 826 365 850 346 810C346 890 325 890 365 874C285 874 285 850 303 890C303 810 325 810 285 826z" />
      <glyph unicode="&#xC6;" horiz-adv-x="925" d="M870 700L870 625L500 625L500 390L850 390L850 315L500 315L500 75L870 75L870 0L420 0L420 175L151 175L75 0L-10 0L295 700zM345 625L183 250L420 250L420 625z" />
      <glyph unicode="&#xC7;" horiz-adv-x="730" d="M385 65C575 126 610 230 490 65L695 230C547 -1 406 -9 657 88L390 -45C460 -84 460 -120 428 -50C423 -200 365 -200 460 -166L315 -200L315 -150L355 -150C400 -136 400 -115 384 -150C384 -80 355 -80 400 -93L330 -80L330 -45L347 -8C240 17 195 49 291 -1C115 122 89 174 150 80C50 284 50 350 63 226C64 482 94 537 50 420C164 634 216 664 124 591C323 710 385 710 267 694C655 620 695 475 535 710L610 475C490 635 385 635 575 575C295 623 256 599 338 635C186 541 164 498 217 575C130 405 130 350 141 454C141 245 164 202 130 294C217 125 256 101 186 158C338 65 385 65 295 77z" />
      <glyph unicode="&#xC8;" horiz-adv-x="585" d="M530 0L80 0L80 700L530 700L530 625L160 625L160 390L510 390L510 315L160 315L160 75L530 75zM345 770L275 770L160 910L250 910z" />
      <glyph unicode="&#xC9;" horiz-adv-x="585" d="M530 0L80 0L80 700L530 700L530 625L160 625L160 390L510 390L510 315L160 315L160 75L530 75zM344 770L274 770L369 910L459 910z" />
      <glyph unicode="&#xCA;" horiz-adv-x="585" d="M530 0L80 0L80 700L530 700L530 625L160 625L160 390L510 390L510 315L160 315L160 75L530 75zM235 770L155 770L270 905L350 905L465 770L385 770L310 860z" />
      <glyph unicode="&#xCB;" horiz-adv-x="585" d="M530 0L80 0L80 700L530 700L530 625L160 625L160 390L510 390L510 315L160 315L160 75L530 75zM265 800L180 800L180 885L265 885zM440 800L355 800L355 885L440 885z" />
      <glyph unicode="&#xCC;" horiz-adv-x="240" d="M160 0L80 0L80 700L160 700zM155 770L85 770L-30 910L60 910z" />
      <glyph unicode="&#xCD;" horiz-adv-x="240" d="M160 0L80 0L80 700L160 700zM154 770L84 770L179 910L269 910z" />
      <glyph unicode="&#xCE;" horiz-adv-x="240" d="M160 0L80 0L80 700L160 700zM45 770L-35 770L80 905L160 905L275 770L195 770L120 860z" />
      <glyph unicode="&#xCF;" horiz-adv-x="240" d="M160 0L80 0L80 700L160 700zM75 800L-10 800L-10 885L75 885zM250 800L165 800L165 885L250 885z" />
      <glyph unicode="&#xD0;" horiz-adv-x="740" d="M355 700C476 685 527 655 419 700C618 584 647 531 578 625C690 417 690 350 675 477C675 222 647 169 690 282C578 74 527 44 618 115C419 0 355 0 476 14L120 0L120 315L25 315L25 390L120 390L120 700zM355 75C446 86 485 109 403 75C554 164 576 206 523 132C610 296 610 350 598 248C598 451 576 493 610 404C523 567 485 590 554 535C403 625 355 625 446 613L200 625L200 390L385 390L385 315L200 315L200 75z" />
      <glyph unicode="&#xD1;" horiz-adv-x="710" d="M160 0L80 0L80 700L215 700L530 95L550 95L550 700L630 700L630 0L495 0L180 605L160 605zM198 790C242 890 298 890 198 848C340 881 366 865 322 890C401 845 413 845 385 851C453 862 453 890 434 845L513 890C469 790 413 790 513 831C370 799 345 815 389 790C310 835 298 835 325 828C258 818 258 790 276 835z" />
      <glyph unicode="&#xD2;" horiz-adv-x="770" d="M385 -10C267 5 216 35 323 -10C124 108 94 163 164 65C50 280 50 350 64 217C64 482 94 537 50 420C164 634 216 664 124 591C323 710 385 710 267 694C502 694 554 664 446 710C645 591 675 537 605 634C720 420 720 350 705 482C705 217 675 163 720 280C605 65 554 35 645 108C446 -10 385 -10 502 5zM385 65C474 77 513 101 431 65C583 158 606 202 552 125C640 294 640 350 628 245C628 454 606 498 640 405C552 575 513 599 583 541C431 635 385 635 474 623C295 623 256 599 338 635C186 541 164 498 217 575C130 405 130 350 141 454C141 245 164 202 130 294C217 125 256 101 186 158C338 65 385 65 295 77zM420 770L350 770L235 910L325 910z" />
      <glyph unicode="&#xD3;" horiz-adv-x="770" d="M385 -10C267 5 216 35 323 -10C124 108 94 163 164 65C50 280 50 350 64 217C64 482 94 537 50 420C164 634 216 664 124 591C323 710 385 710 267 694C502 694 554 664 446 710C645 591 675 537 605 634C720 420 720 350 705 482C705 217 675 163 720 280C605 65 554 35 645 108C446 -10 385 -10 502 5zM385 65C474 77 513 101 431 65C583 158 606 202 552 125C640 294 640 350 628 245C628 454 606 498 640 405C552 575 513 599 583 541C431 635 385 635 474 623C295 623 256 599 338 635C186 541 164 498 217 575C130 405 130 350 141 454C141 245 164 202 130 294C217 125 256 101 186 158C338 65 385 65 295 77zM419 770L349 770L444 910L534 910z" />
      <glyph unicode="&#xD4;" horiz-adv-x="770" d="M385 -10C267 5 216 35 323 -10C124 108 94 163 164 65C50 280 50 350 64 217C64 482 94 537 50 420C164 634 216 664 124 591C323 710 385 710 267 694C502 694 554 664 446 710C645 591 675 537 605 634C720 420 720 350 705 482C705 217 675 163 720 280C605 65 554 35 645 108C446 -10 385 -10 502 5zM385 65C474 77 513 101 431 65C583 158 606 202 552 125C640 294 640 350 628 245C628 454 606 498 640 405C552 575 513 599 583 541C431 635 385 635 474 623C295 623 256 599 338 635C186 541 164 498 217 575C130 405 130 350 141 454C141 245 164 202 130 294C217 125 256 101 186 158C338 65 385 65 295 77zM310 770L230 770L345 905L425 905L540 770L460 770L385 860z" />
      <glyph unicode="&#xD5;" horiz-adv-x="770" d="M385 -10C267 5 216 35 323 -10C124 108 94 163 164 65C50 280 50 350 64 217C64 482 94 537 50 420C164 634 216 664 124 591C323 710 385 710 267 694C502 694 554 664 446 710C645 591 675 537 605 634C720 420 720 350 705 482C705 217 675 163 720 280C605 65 554 35 645 108C446 -10 385 -10 502 5zM385 65C474 77 513 101 431 65C583 158 606 202 552 125C640 294 640 350 628 245C628 454 606 498 640 405C552 575 513 599 583 541C431 635 385 635 474 623C295 623 256 599 338 635C186 541 164 498 217 575C130 405 130 350 141 454C141 245 164 202 130 294C217 125 256 101 186 158C338 65 385 65 295 77zM228 790C272 890 328 890 228 848C370 881 396 865 352 890C431 845 443 845 415 851C483 862 483 890 464 845L543 890C499 790 443 790 543 831C400 799 375 815 419 790C340 835 328 835 355 828C288 818 288 790 306 835z" />
      <glyph unicode="&#xD6;" horiz-adv-x="770" d="M385 -10C267 5 216 35 323 -10C124 108 94 163 164 65C50 280 50 350 64 217C64 482 94 537 50 420C164 634 216 664 124 591C323 710 385 710 267 694C502 694 554 664 446 710C645 591 675 537 605 634C720 420 720 350 705 482C705 217 675 163 720 280C605 65 554 35 645 108C446 -10 385 -10 502 5zM385 65C474 77 513 101 431 65C583 158 606 202 552 125C640 294 640 350 628 245C628 454 606 498 640 405C552 575 513 599 583 541C431 635 385 635 474 623C295 623 256 599 338 635C186 541 164 498 217 575C130 405 130 350 141 454C141 245 164 202 130 294C217 125 256 101 186 158C338 65 385 65 295 77zM340 800L255 800L255 885L340 885zM515 800L430 800L430 885L515 885z" />
      <glyph unicode="&#xD7;" horiz-adv-x="530" d="M265 245L125 105L75 155L215 295L75 435L125 485L265 345L405 485L455 435L315 295L455 155L405 105z" />
      <glyph unicode="&#xD8;" horiz-adv-x="770" d="M583 645C720 476 720 350 668 581C705 217 675 163 720 280C605 65 554 35 645 108C446 -10 385 -10 502 5C293 -1 252 17 337 -10L225 -35L140 -35L187 55C50 223 50 350 101 119C64 482 94 537 50 420C164 634 216 664 124 591C323 710 385 710 267 694C476 701 518 683 432 710L545 735L630 735zM130 350C165 177 224 125 130 256L482 615C419 635 385 635 451 628C295 623 256 599 338 635C186 541 164 498 217 575C130 405 130 350 141 454zM385 65C474 77 513 101 431 65C583 158 606 202 552 125C640 294 640 350 628 245C604 523 546 575 640 443L288 85C351 65 385 65 318 71z" />
      <glyph unicode="&#xD9;" horiz-adv-x="690" d="M345 -10C247 2 205 26 293 -10C130 83 106 127 163 50C70 219 70 275 82 170L70 700L150 700L150 275C158 198 175 166 150 234C215 109 245 91 192 134C308 65 345 65 275 73C414 73 444 91 381 65C497 134 514 166 474 109C540 234 540 275 531 198L540 700L620 700L620 275C608 170 584 127 620 219C527 50 485 26 560 83C396 -10 345 -10 443 2zM380 770L310 770L195 910L285 910z" />
      <glyph unicode="&#xDA;" horiz-adv-x="690" d="M345 -10C247 2 205 26 293 -10C130 83 106 127 163 50C70 219 70 275 82 170L70 700L150 700L150 275C158 198 175 166 150 234C215 109 245 91 192 134C308 65 345 65 275 73C414 73 444 91 381 65C497 134 514 166 474 109C540 234 540 275 531 198L540 700L620 700L620 275C608 170 584 127 620 219C527 50 485 26 560 83C396 -10 345 -10 443 2zM379 770L309 770L404 910L494 910z" />
      <glyph unicode="&#xDB;" horiz-adv-x="690" d="M345 -10C247 2 205 26 293 -10C130 83 106 127 163 50C70 219 70 275 82 170L70 700L150 700L150 275C158 198 175 166 150 234C215 109 245 91 192 134C308 65 345 65 275 73C414 73 444 91 381 65C497 134 514 166 474 109C540 234 540 275 531 198L540 700L620 700L620 275C608 170 584 127 620 219C527 50 485 26 560 83C396 -10 345 -10 443 2zM270 770L190 770L305 905L385 905L500 770L420 770L345 860z" />
      <glyph unicode="&#xDC;" horiz-adv-x="690" d="M345 -10C247 2 205 26 293 -10C130 83 106 127 163 50C70 219 70 275 82 170L70 700L150 700L150 275C158 198 175 166 150 234C215 109 245 91 192 134C308 65 345 65 275 73C414 73 444 91 381 65C497 134 514 166 474 109C540 234 540 275 531 198L540 700L620 700L620 275C608 170 584 127 620 219C527 50 485 26 560 83C396 -10 345 -10 443 2zM300 800L215 800L215 885L300 885zM475 800L390 800L390 885L475 885z" />
      <glyph unicode="&#xDD;" horiz-adv-x="590" d="M335 0L255 0L255 265L0 700L85 700L285 355L305 355L505 700L590 700L335 265zM329 770L259 770L354 910L444 910z" />
      <glyph unicode="&#xDE;" horiz-adv-x="695" d="M80 0L80 700L160 700L160 550L450 550C522 541 552 524 488 550C606 482 624 452 582 506C650 388 650 350 641 422C641 277 624 247 650 312C582 193 552 176 606 217C488 150 450 150 522 158L160 150L160 0zM450 225C570 275 570 350 520 225C520 475 450 475 570 424L160 475L160 225z" />
      <glyph unicode="&#xDF;" horiz-adv-x="550" d="M70 515C78 586 95 616 70 553C135 669 166 685 111 646C233 710 275 710 197 701C354 701 386 684 317 710C442 644 459 614 418 667C485 551 485 515 476 584C438 377 390 360 485 435L390 355C510 277 510 195 451 337C500 125 482 95 510 158C437 42 403 25 464 65C327 0 280 0 368 8L245 0L245 70L280 70C435 123 435 195 377 70C377 320 280 320 435 267L245 320L245 390L280 390C410 443 410 515 358 390C353 640 275 640 410 585C145 585 145 515 200 640L145 0L70 0z" />
      <glyph unicode="&#xE0;" horiz-adv-x="530" d="M225 -10C50 54 50 145 121 -10C115 305 250 305 50 245L385 305L385 320C339 440 265 440 385 394C145 403 140 355 193 440L65 355C76 407 92 431 67 382C130 474 160 488 108 455C225 510 265 510 190 502C460 438 460 320 386 510L460 0L395 0L385 60L380 60C298 -10 225 -10 357 24zM225 60C385 119 385 215 325 60L385 235L250 235C125 198 125 145 164 235C161 60 225 60 125 94zM305 580L235 580L120 720L210 720z" />
      <glyph unicode="&#xE1;" horiz-adv-x="530" d="M225 -10C50 54 50 145 121 -10C115 305 250 305 50 245L385 305L385 320C339 440 265 440 385 394C145 403 140 355 193 440L65 355C76 407 92 431 67 382C130 474 160 488 108 455C225 510 265 510 190 502C460 438 460 320 386 510L460 0L395 0L385 60L380 60C298 -10 225 -10 357 24zM225 60C385 119 385 215 325 60L385 235L250 235C125 198 125 145 164 235C161 60 225 60 125 94zM300 580L230 580L325 720L415 720z" />
      <glyph unicode="&#xE2;" horiz-adv-x="530" d="M225 -10C50 54 50 145 121 -10C115 305 250 305 50 245L385 305L385 320C339 440 265 440 385 394C145 403 140 355 193 440L65 355C76 407 92 431 67 382C130 474 160 488 108 455C225 510 265 510 190 502C460 438 460 320 386 510L460 0L395 0L385 60L380 60C298 -10 225 -10 357 24zM225 60C385 119 385 215 325 60L385 235L250 235C125 198 125 145 164 235C161 60 225 60 125 94zM190 580L110 580L225 715L305 715L420 580L340 580L265 670z" />
      <glyph unicode="&#xE3;" horiz-adv-x="530" d="M225 -10C50 54 50 145 121 -10C115 305 250 305 50 245L385 305L385 320C339 440 265 440 385 394C145 403 140 355 193 440L65 355C76 407 92 431 67 382C130 474 160 488 108 455C225 510 265 510 190 502C460 438 460 320 386 510L460 0L395 0L385 60L380 60C298 -10 225 -10 357 24zM225 60C385 119 385 215 325 60L385 235L250 235C125 198 125 145 164 235C161 60 225 60 125 94zM108 600C152 700 208 700 108 658C250 691 276 675 232 700C311 655 323 655 295 661C363 672 363 700 344 655L423 700C379 600 323 600 423 641C280 609 255 625 299 600C220 645 208 645 235 638C168 628 168 600 186 645z" />
      <glyph unicode="&#xE4;" horiz-adv-x="530" d="M225 -10C50 54 50 145 121 -10C115 305 250 305 50 245L385 305L385 320C339 440 265 440 385 394C145 403 140 355 193 440L65 355C76 407 92 431 67 382C130 474 160 488 108 455C225 510 265 510 190 502C460 438 460 320 386 510L460 0L395 0L385 60L380 60C298 -10 225 -10 357 24zM225 60C385 119 385 215 325 60L385 235L250 235C125 198 125 145 164 235C161 60 225 60 125 94zM220 605L135 605L135 690L220 690zM395 605L310 605L310 690L395 690z" />
      <glyph unicode="&#xE5;" horiz-adv-x="530" d="M225 -10C50 54 50 145 121 -10C115 305 250 305 50 245L385 305L385 320C339 440 265 440 385 394C145 403 140 355 193 440L65 355C76 407 92 431 67 382C130 474 160 488 108 455C225 510 265 510 190 502C460 438 460 320 386 510L460 0L395 0L385 60L380 60C298 -10 225 -10 357 24zM225 60C385 119 385 215 325 60L385 235L250 235C125 198 125 145 164 235C161 60 225 60 125 94zM265 570C175 610 175 660 214 570C214 750 265 750 175 710C355 710 355 660 314 750C314 570 265 570 355 610zM265 620C305 636 305 660 286 620C286 700 265 700 305 684C225 684 225 660 243 700C243 620 265 620 225 636z" />
      <glyph unicode="&#xE6;" horiz-adv-x="885" d="M845 270C843 233 840 220 845 250L460 220C534 60 620 60 470 125C724 89 750 140 678 60L830 140C722 -10 620 -10 794 42C459 36 425 100 541 -10C309 -10 225 -10 391 36C160 -3 134 9 191 -10C86 40 72 63 107 22C50 112 50 140 57 86C115 295 250 295 50 234L385 295L385 320C339 440 265 440 385 394C145 403 140 355 193 440L65 355C76 407 92 431 67 382C130 474 160 488 108 455C225 510 265 510 190 502C408 467 435 405 346 510C534 510 620 510 472 469C702 500 736 480 663 510C796 431 816 395 770 460C845 317 845 270 835 359zM770 290C702 440 620 440 764 382C469 383 460 290 533 440zM225 60C385 119 385 215 325 60L385 225L250 225C125 192 125 140 167 225C162 60 225 60 125 93z" />
      <glyph unicode="&#xE7;" horiz-adv-x="535" d="M280 60C405 97 425 165 352 60L500 165C404 1 306 -9 477 65L290 -45C360 -84 360 -120 328 -50C323 -200 265 -200 360 -166L215 -200L215 -150L255 -150C300 -136 300 -115 284 -150C284 -80 255 -80 300 -93L230 -80L230 -45L247 -8C172 11 140 34 207 -2C84 87 66 124 108 57C40 203 40 250 48 161C50 345 71 385 40 300C121 455 158 477 92 424C235 510 280 510 194 499C474 445 500 340 390 510L425 340C350 440 280 440 405 404C222 432 197 416 250 440C151 378 137 349 171 400C115 287 115 250 122 320C122 179 137 150 115 212C171 99 197 83 151 121C250 60 280 60 222 67z" />
      <glyph unicode="&#xE8;" horiz-adv-x="550" d="M280 -10C194 1 158 23 235 -10C92 75 71 115 121 45C40 199 40 250 50 154C50 345 71 385 40 300C121 455 158 477 92 424C235 510 280 510 194 499C361 499 397 479 322 510C460 429 480 393 432 458C510 316 510 270 500 357C508 225 505 215 510 243L115 215C194 60 280 60 124 121C389 89 415 140 340 60L495 140C384 -10 280 -10 460 44zM435 285C365 440 280 440 429 375C125 375 115 285 190 440zM315 580L245 580L130 720L220 720z" />
      <glyph unicode="&#xE9;" horiz-adv-x="550" d="M280 -10C194 1 158 23 235 -10C92 75 71 115 121 45C40 199 40 250 50 154C50 345 71 385 40 300C121 455 158 477 92 424C235 510 280 510 194 499C361 499 397 479 322 510C460 429 480 393 432 458C510 316 510 270 500 357C508 225 505 215 510 243L115 215C194 60 280 60 124 121C389 89 415 140 340 60L495 140C384 -10 280 -10 460 44zM435 285C365 440 280 440 429 375C125 375 115 285 190 440zM310 580L240 580L335 720L425 720z" />
      <glyph unicode="&#xEA;" horiz-adv-x="550" d="M280 -10C194 1 158 23 235 -10C92 75 71 115 121 45C40 199 40 250 50 154C50 345 71 385 40 300C121 455 158 477 92 424C235 510 280 510 194 499C361 499 397 479 322 510C460 429 480 393 432 458C510 316 510 270 500 357C508 225 505 215 510 243L115 215C194 60 280 60 124 121C389 89 415 140 340 60L495 140C384 -10 280 -10 460 44zM435 285C365 440 280 440 429 375C125 375 115 285 190 440zM200 580L120 580L235 715L315 715L430 580L350 580L275 670z" />
      <glyph unicode="&#xEB;" horiz-adv-x="550" d="M280 -10C194 1 158 23 235 -10C92 75 71 115 121 45C40 199 40 250 50 154C50 345 71 385 40 300C121 455 158 477 92 424C235 510 280 510 194 499C361 499 397 479 322 510C460 429 480 393 432 458C510 316 510 270 500 357C508 225 505 215 510 243L115 215C194 60 280 60 124 121C389 89 415 140 340 60L495 140C384 -10 280 -10 460 44zM435 285C365 440 280 440 429 375C125 375 115 285 190 440zM230 605L145 605L145 690L230 690zM405 605L320 605L320 690L405 690z" />
      <glyph unicode="&#xEC;" horiz-adv-x="215" d="M145 0L70 0L70 500L145 500zM148 580L78 580L-37 720L53 720z" />
      <glyph unicode="&#xED;" horiz-adv-x="215" d="M145 0L70 0L70 500L145 500zM143 580L73 580L168 720L258 720z" />
      <glyph unicode="&#xEE;" horiz-adv-x="215" d="M145 0L70 0L70 500L145 500zM33 580L-47 580L68 715L148 715L263 580L183 580L108 670z" />
      <glyph unicode="&#xEF;" horiz-adv-x="215" d="M145 0L70 0L70 500L145 500zM73 605L-12 605L-12 690L73 690zM228 605L143 605L143 690L228 690z" />
      <glyph unicode="&#xF0;" horiz-adv-x="545" d="M270 -10C187 0 152 19 226 -10C90 66 70 102 117 39C40 179 40 225 50 138C50 311 70 347 40 271C117 410 152 430 90 383C226 460 270 460 187 450C360 445 395 415 318 460L400 415C345 514 295 565 380 464L170 500L140 555L245 610C175 662 135 685 211 637L195 720C274 666 305 640 227 701L420 700L450 645L350 595C500 372 500 245 450 489C490 147 470 109 500 193C422 40 387 20 450 70C313 -10 270 -10 352 0zM270 60C425 126 425 225 360 60C360 390 270 390 425 323C115 323 115 225 179 390C179 60 270 60 115 126z" />
      <glyph unicode="&#xF1;" horiz-adv-x="570" d="M70 0L70 500L135 500L145 445L150 445C233 510 300 510 176 478C372 501 402 483 338 510C456 441 474 409 432 465C500 340 500 300 491 377L500 0L425 0L425 300C419 349 407 371 425 326C378 409 358 421 395 392C314 440 290 440 337 433C239 433 217 420 264 440C177 390 164 369 195 407C145 324 145 300 151 347L145 0zM138 600C182 700 238 700 138 658C280 691 306 675 262 700C341 655 353 655 325 661C393 672 393 700 374 655L453 700C409 600 353 600 453 641C310 609 285 625 329 600C250 645 238 645 265 638C198 628 198 600 216 645z" />
      <glyph unicode="&#xF2;" horiz-adv-x="560" d="M280 -10C194 1 158 23 235 -10C92 75 71 115 121 45C40 199 40 250 50 154C50 345 71 385 40 300C121 455 158 477 92 424C235 510 280 510 194 499C365 499 402 477 324 510C467 424 488 385 438 455C520 300 520 250 509 345C509 154 488 115 520 199C438 45 402 23 467 75C324 -10 280 -10 365 1zM280 60C337 67 363 83 310 60C408 121 423 150 388 99C445 212 445 250 437 179C437 320 423 349 445 287C388 400 363 416 408 378C310 440 280 440 337 432C222 432 197 416 250 440C151 378 137 349 171 400C115 287 115 250 122 320C122 179 137 150 115 212C171 99 197 83 151 121C250 60 280 60 222 67zM320 580L250 580L135 720L225 720z" />
      <glyph unicode="&#xF3;" horiz-adv-x="560" d="M280 -10C194 1 158 23 235 -10C92 75 71 115 121 45C40 199 40 250 50 154C50 345 71 385 40 300C121 455 158 477 92 424C235 510 280 510 194 499C365 499 402 477 324 510C467 424 488 385 438 455C520 300 520 250 509 345C509 154 488 115 520 199C438 45 402 23 467 75C324 -10 280 -10 365 1zM280 60C337 67 363 83 310 60C408 121 423 150 388 99C445 212 445 250 437 179C437 320 423 349 445 287C388 400 363 416 408 378C310 440 280 440 337 432C222 432 197 416 250 440C151 378 137 349 171 400C115 287 115 250 122 320C122 179 137 150 115 212C171 99 197 83 151 121C250 60 280 60 222 67zM315 580L245 580L340 720L430 720z" />
      <glyph unicode="&#xF4;" horiz-adv-x="560" d="M280 -10C194 1 158 23 235 -10C92 75 71 115 121 45C40 199 40 250 50 154C50 345 71 385 40 300C121 455 158 477 92 424C235 510 280 510 194 499C365 499 402 477 324 510C467 424 488 385 438 455C520 300 520 250 509 345C509 154 488 115 520 199C438 45 402 23 467 75C324 -10 280 -10 365 1zM280 60C337 67 363 83 310 60C408 121 423 150 388 99C445 212 445 250 437 179C437 320 423 349 445 287C388 400 363 416 408 378C310 440 280 440 337 432C222 432 197 416 250 440C151 378 137 349 171 400C115 287 115 250 122 320C122 179 137 150 115 212C171 99 197 83 151 121C250 60 280 60 222 67zM205 580L125 580L240 715L320 715L435 580L355 580L280 670z" />
      <glyph unicode="&#xF5;" horiz-adv-x="560" d="M280 -10C194 1 158 23 235 -10C92 75 71 115 121 45C40 199 40 250 50 154C50 345 71 385 40 300C121 455 158 477 92 424C235 510 280 510 194 499C365 499 402 477 324 510C467 424 488 385 438 455C520 300 520 250 509 345C509 154 488 115 520 199C438 45 402 23 467 75C324 -10 280 -10 365 1zM280 60C337 67 363 83 310 60C408 121 423 150 388 99C445 212 445 250 437 179C437 320 423 349 445 287C388 400 363 416 408 378C310 440 280 440 337 432C222 432 197 416 250 440C151 378 137 349 171 400C115 287 115 250 122 320C122 179 137 150 115 212C171 99 197 83 151 121C250 60 280 60 222 67zM123 600C167 700 223 700 123 658C265 691 291 675 247 700C326 655 338 655 310 661C378 672 378 700 359 655L438 700C394 600 338 600 438 641C295 609 270 625 314 600C235 645 223 645 250 638C183 628 183 600 201 645z" />
      <glyph unicode="&#xF6;" horiz-adv-x="560" d="M280 -10C194 1 158 23 235 -10C92 75 71 115 121 45C40 199 40 250 50 154C50 345 71 385 40 300C121 455 158 477 92 424C235 510 280 510 194 499C365 499 402 477 324 510C467 424 488 385 438 455C520 300 520 250 509 345C509 154 488 115 520 199C438 45 402 23 467 75C324 -10 280 -10 365 1zM280 60C337 67 363 83 310 60C408 121 423 150 388 99C445 212 445 250 437 179C437 320 423 349 445 287C388 400 363 416 408 378C310 440 280 440 337 432C222 432 197 416 250 440C151 378 137 349 171 400C115 287 115 250 122 320C122 179 137 150 115 212C171 99 197 83 151 121C250 60 280 60 222 67zM235 605L150 605L150 690L235 690zM410 605L325 605L325 690L410 690z" />
      <glyph unicode="&#xF7;" horiz-adv-x="530" d="M265 405C220 424 220 450 239 405C239 495 265 495 220 475C310 475 310 450 290 495C290 405 265 405 310 424zM465 255L65 255L65 325L465 325zM265 85C220 104 220 130 239 85C239 175 265 175 220 155C310 155 310 130 290 175C290 85 265 85 310 104z" />
      <glyph unicode="&#xF8;" horiz-adv-x="560" d="M429 458C520 338 520 250 486 412C509 154 488 115 520 199C438 45 402 23 467 75C324 -10 280 -10 365 1C216 -4 188 8 246 -10L165 -35L90 -35L131 42C40 162 40 250 73 87C50 345 71 385 40 300C121 455 158 477 92 424C235 510 280 510 194 499C344 504 372 492 313 510L395 535L470 535zM115 250C133 142 167 109 115 192L338 429C300 440 280 440 319 436C222 432 197 416 250 440C151 378 137 349 171 400C115 287 115 250 122 320zM280 60C337 67 363 83 310 60C408 121 423 150 388 99C445 212 445 250 437 179C426 357 393 391 445 307L222 71C260 60 280 60 240 63z" />
      <glyph unicode="&#xF9;" horiz-adv-x="570" d="M270 -10C197 -1 167 16 232 -10C113 59 96 91 137 34C70 159 70 200 78 123L70 500L145 500L145 200C151 150 163 129 145 174C191 90 212 78 175 107C255 60 280 60 232 66C330 66 352 79 306 60C392 109 405 131 374 92C425 175 425 200 418 152L425 500L500 500L500 0L435 0L425 55L420 55C336 -10 270 -10 392 20zM325 580L255 580L140 720L230 720z" />
      <glyph unicode="&#xFA;" horiz-adv-x="570" d="M270 -10C197 -1 167 16 232 -10C113 59 96 91 137 34C70 159 70 200 78 123L70 500L145 500L145 200C151 150 163 129 145 174C191 90 212 78 175 107C255 60 280 60 232 66C330 66 352 79 306 60C392 109 405 131 374 92C425 175 425 200 418 152L425 500L500 500L500 0L435 0L425 55L420 55C336 -10 270 -10 392 20zM320 580L250 580L345 720L435 720z" />
      <glyph unicode="&#xFB;" horiz-adv-x="570" d="M270 -10C197 -1 167 16 232 -10C113 59 96 91 137 34C70 159 70 200 78 123L70 500L145 500L145 200C151 150 163 129 145 174C191 90 212 78 175 107C255 60 280 60 232 66C330 66 352 79 306 60C392 109 405 131 374 92C425 175 425 200 418 152L425 500L500 500L500 0L435 0L425 55L420 55C336 -10 270 -10 392 20zM210 580L130 580L245 715L325 715L440 580L360 580L285 670z" />
      <glyph unicode="&#xFC;" horiz-adv-x="570" d="M270 -10C197 -1 167 16 232 -10C113 59 96 91 137 34C70 159 70 200 78 123L70 500L145 500L145 200C151 150 163 129 145 174C191 90 212 78 175 107C255 60 280 60 232 66C330 66 352 79 306 60C392 109 405 131 374 92C425 175 425 200 418 152L425 500L500 500L500 0L435 0L425 55L420 55C336 -10 270 -10 392 20zM240 605L155 605L155 690L240 690zM415 605L330 605L330 690L415 690z" />
      <glyph unicode="&#xFD;" horiz-adv-x="495" d="M405 500L485 500L260 -130C218 -200 165 -200 242 -178L65 -200L65 -130L160 -130C188 -120 195 -100 176 -130L215 -40L10 500L90 500L245 85L265 85zM290 580L220 580L315 720L405 720z" />
      <glyph unicode="&#xFE;" horiz-adv-x="585" d="M75 -200L75 700L150 700L150 430L155 430C247 510 315 510 196 482C397 499 432 477 358 510C495 424 515 385 467 455C545 300 545 250 535 345C535 154 515 115 545 199C467 45 432 23 495 75C358 -10 315 -10 397 1C196 18 155 70 247 -10L150 70L150 -200zM310 60C365 68 389 84 338 60C433 122 448 151 413 100C470 212 470 250 462 179C462 320 448 349 470 287C413 400 389 416 433 377C338 440 310 440 365 432C254 432 230 416 281 440C186 377 172 349 206 400C150 287 150 250 157 320C157 179 172 151 150 212C206 100 230 84 186 122C281 60 310 60 254 68z" />
      <glyph unicode="&#xFF;" horiz-adv-x="495" d="M405 500L485 500L260 -130C218 -200 165 -200 242 -178L65 -200L65 -130L160 -130C188 -120 195 -100 176 -130L215 -40L10 500L90 500L245 85L265 85zM210 605L125 605L125 690L210 690zM385 605L300 605L300 690L385 690z" />
      <glyph unicode="&#x100;" horiz-adv-x="650" d="M650 0L565 0L498 180L152 180L85 0L0 0L265 700L385 700zM315 615L180 255L470 255L335 615zM465 813L185 813L185 873L465 873z" />
      <glyph unicode="&#x101;" horiz-adv-x="530" d="M225 -10C50 54 50 145 121 -10C115 305 250 305 50 245L385 305L385 320C339 440 265 440 385 394C145 403 140 355 193 440L65 355C76 407 92 431 67 382C130 474 160 488 108 455C225 510 265 510 190 502C460 438 460 320 386 510L460 0L395 0L385 60L380 60C298 -10 225 -10 357 24zM225 60C385 119 385 215 325 60L385 235L250 235C125 198 125 145 164 235C161 60 225 60 125 94zM405 618L125 618L125 678L405 678z" />
      <glyph unicode="&#x102;" horiz-adv-x="650" d="M650 0L565 0L498 180L152 180L85 0L0 0L265 700L385 700zM315 615L180 255L470 255L335 615zM325 780C190 830 185 905 249 780L250 905C283 835 325 835 255 861C394 861 400 905 366 835L465 905C401 780 325 780 459 830z" />
      <glyph unicode="&#x103;" horiz-adv-x="530" d="M225 -10C50 54 50 145 121 -10C115 305 250 305 50 245L385 305L385 320C339 440 265 440 385 394C145 403 140 355 193 440L65 355C76 407 92 431 67 382C130 474 160 488 108 455C225 510 265 510 190 502C460 438 460 320 386 510L460 0L395 0L385 60L380 60C298 -10 225 -10 357 24zM225 60C385 119 385 215 325 60L385 235L250 235C125 198 125 145 164 235C161 60 225 60 125 94zM265 585C130 635 125 710 189 585L190 710C223 640 265 640 195 666C334 666 340 710 306 640L405 710C341 585 265 585 399 635z" />
      <glyph unicode="&#x104;" horiz-adv-x="650" d="M590 -70C607 -110 635 -110 590 -91L650 -110L650 -165L630 -165C530 -130 530 -80 566 -165C557 -10 585 0 530 -42L565 0L498 180L152 180L85 0L0 0L265 700L385 700L650 0C590 -44 590 -70 610 -20zM315 615L180 255L470 255L335 615z" />
      <glyph unicode="&#x105;" horiz-adv-x="530" d="M460 0C400 -44 400 -70 420 -20C417 -110 445 -110 400 -91L460 -110L460 -165L440 -165C340 -130 340 -80 376 -165C367 -10 395 0 340 -42L385 60L380 60C298 -10 225 -10 357 24C50 54 50 145 121 -10C115 305 250 305 50 245L385 305L385 320C339 440 265 440 385 394C145 403 140 355 193 440L65 355C76 407 92 431 67 382C130 474 160 488 108 455C225 510 265 510 190 502C460 438 460 320 386 510zM385 235L250 235C125 198 125 145 164 235C161 60 225 60 125 94C385 119 385 215 325 60z" />
      <glyph unicode="&#x106;" horiz-adv-x="730" d="M385 -10C267 5 216 35 323 -10C124 108 94 163 164 65C50 280 50 350 64 217C64 482 94 537 50 420C164 634 216 664 124 591C323 710 385 710 267 694C655 620 695 475 535 710L610 475C490 635 385 635 575 575C295 623 256 599 338 635C186 541 164 498 217 575C130 405 130 350 141 454C141 245 164 202 130 294C217 125 256 101 186 158C338 65 385 65 295 77C575 126 610 230 490 65L695 230C535 -10 385 -10 655 80zM410 770L340 770L435 910L525 910z" />
      <glyph unicode="&#x107;" horiz-adv-x="535" d="M280 -10C194 1 158 23 235 -10C92 75 71 115 121 45C40 199 40 250 50 154C50 345 71 385 40 300C121 455 158 477 92 424C235 510 280 510 194 499C474 445 500 340 390 510L425 340C350 440 280 440 405 404C222 432 197 416 250 440C151 378 137 349 171 400C115 287 115 250 122 320C122 179 137 150 115 212C171 99 197 83 151 121C250 60 280 60 222 67C405 97 425 165 352 60L500 165C390 -10 280 -10 474 55zM315 580L245 580L340 720L430 720z" />
      <glyph unicode="&#x108;" horiz-adv-x="730" d="M385 -10C267 5 216 35 323 -10C124 108 94 163 164 65C50 280 50 350 64 217C64 482 94 537 50 420C164 634 216 664 124 591C323 710 385 710 267 694C655 620 695 475 535 710L610 475C490 635 385 635 575 575C295 623 256 599 338 635C186 541 164 498 217 575C130 405 130 350 141 454C141 245 164 202 130 294C217 125 256 101 186 158C338 65 385 65 295 77C575 126 610 230 490 65L695 230C535 -10 385 -10 655 80zM301 770L221 770L336 905L416 905L531 770L451 770L376 860z" />
      <glyph unicode="&#x109;" horiz-adv-x="535" d="M280 -10C194 1 158 23 235 -10C92 75 71 115 121 45C40 199 40 250 50 154C50 345 71 385 40 300C121 455 158 477 92 424C235 510 280 510 194 499C474 445 500 340 390 510L425 340C350 440 280 440 405 404C222 432 197 416 250 440C151 378 137 349 171 400C115 287 115 250 122 320C122 179 137 150 115 212C171 99 197 83 151 121C250 60 280 60 222 67C405 97 425 165 352 60L500 165C390 -10 280 -10 474 55zM205 580L125 580L240 715L320 715L435 580L355 580L280 670z" />
      <glyph unicode="&#x10A;" horiz-adv-x="730" d="M385 -10C267 5 216 35 323 -10C124 108 94 163 164 65C50 280 50 350 64 217C64 482 94 537 50 420C164 634 216 664 124 591C323 710 385 710 267 694C655 620 695 475 535 710L610 475C490 635 385 635 575 575C295 623 256 599 338 635C186 541 164 498 217 575C130 405 130 350 141 454C141 245 164 202 130 294C217 125 256 101 186 158C338 65 385 65 295 77C575 126 610 230 490 65L695 230C535 -10 385 -10 655 80zM419 800L334 800L334 885L419 885z" />
      <glyph unicode="&#x10B;" horiz-adv-x="535" d="M280 -10C194 1 158 23 235 -10C92 75 71 115 121 45C40 199 40 250 50 154C50 345 71 385 40 300C121 455 158 477 92 424C235 510 280 510 194 499C474 445 500 340 390 510L425 340C350 440 280 440 405 404C222 432 197 416 250 440C151 378 137 349 171 400C115 287 115 250 122 320C122 179 137 150 115 212C171 99 197 83 151 121C250 60 280 60 222 67C405 97 425 165 352 60L500 165C390 -10 280 -10 474 55zM323 605L238 605L238 690L323 690z" />
      <glyph unicode="&#x10C;" horiz-adv-x="730" d="M385 -10C267 5 216 35 323 -10C124 108 94 163 164 65C50 280 50 350 64 217C64 482 94 537 50 420C164 634 216 664 124 591C323 710 385 710 267 694C655 620 695 475 535 710L610 475C490 635 385 635 575 575C295 623 256 599 338 635C186 541 164 498 217 575C130 405 130 350 141 454C141 245 164 202 130 294C217 125 256 101 186 158C338 65 385 65 295 77C575 126 610 230 490 65L695 230C535 -10 385 -10 655 80zM416 770L336 770L221 905L301 905L376 815L451 905L531 905z" />
      <glyph unicode="&#x10D;" horiz-adv-x="535" d="M280 -10C194 1 158 23 235 -10C92 75 71 115 121 45C40 199 40 250 50 154C50 345 71 385 40 300C121 455 158 477 92 424C235 510 280 510 194 499C474 445 500 340 390 510L425 340C350 440 280 440 405 404C222 432 197 416 250 440C151 378 137 349 171 400C115 287 115 250 122 320C122 179 137 150 115 212C171 99 197 83 151 121C250 60 280 60 222 67C405 97 425 165 352 60L500 165C390 -10 280 -10 474 55zM320 580L240 580L125 715L205 715L280 625L355 715L435 715z" />
      <glyph unicode="&#x10E;" horiz-adv-x="700" d="M80 0L80 700L315 700C436 685 487 655 379 700C578 584 607 531 538 625C650 417 650 350 635 477C635 222 607 169 650 282C538 74 487 44 578 115C379 0 315 0 436 14zM315 75C406 86 445 109 363 75C514 164 536 206 483 132C570 296 570 350 558 248C558 451 536 493 570 404C483 567 445 590 514 535C363 625 315 625 406 613L160 625L160 75zM385 770L305 770L190 905L270 905L345 815L420 905L500 905z" />
      <glyph unicode="&#x10F;" horiz-adv-x="585" d="M270 -10C187 1 152 23 226 -10C90 75 70 115 117 45C40 199 40 250 50 154C50 345 70 385 40 300C117 455 152 477 90 424C226 510 270 510 187 499C388 482 430 430 338 510L435 430L435 700L510 700L510 0L445 0L435 70L430 70C338 -10 270 -10 388 18zM275 60C330 68 354 84 303 60C398 122 413 151 378 100C435 212 435 250 427 179C427 320 413 349 435 287C378 400 354 416 398 377C303 440 275 440 330 432C219 432 195 416 246 440C151 377 137 349 171 400C115 287 115 250 122 320C122 179 137 151 115 212C171 100 195 84 151 122C246 60 275 60 219 68zM635 540L575 540L593 700L678 700z" />
      <glyph unicode="&#x110;" horiz-adv-x="740" d="M355 700C476 685 527 655 419 700C618 584 647 531 578 625C690 417 690 350 675 477C675 222 647 169 690 282C578 74 527 44 618 115C419 0 355 0 476 14L120 0L120 315L25 315L25 390L120 390L120 700zM355 75C446 86 485 109 403 75C554 164 576 206 523 132C610 296 610 350 598 248C598 451 576 493 610 404C523 567 485 590 554 535C403 625 355 625 446 613L200 625L200 390L385 390L385 315L200 315L200 75z" />
      <glyph unicode="&#x111;" horiz-adv-x="585" d="M265 -10C185 0 151 19 223 -10C90 67 70 103 117 39C40 179 40 225 50 139C50 311 70 347 40 270C117 410 151 430 90 383C223 460 265 460 185 450C378 436 420 390 333 460L425 390L425 550L265 550L265 620L425 620L425 700L500 700L500 620L585 620L585 550L500 550L500 0L435 0L425 60L420 60C333 -10 265 -10 378 13zM270 60C425 126 425 225 360 60C360 390 270 390 425 323C115 323 115 225 179 390C179 60 270 60 115 126z" />
      <glyph unicode="&#x112;" horiz-adv-x="585" d="M530 0L80 0L80 700L530 700L530 625L160 625L160 390L510 390L510 315L160 315L160 75L530 75zM450 813L170 813L170 873L450 873z" />
      <glyph unicode="&#x113;" horiz-adv-x="550" d="M280 -10C194 1 158 23 235 -10C92 75 71 115 121 45C40 199 40 250 50 154C50 345 71 385 40 300C121 455 158 477 92 424C235 510 280 510 194 499C361 499 397 479 322 510C460 429 480 393 432 458C510 316 510 270 500 357C508 225 505 215 510 243L115 215C194 60 280 60 124 121C389 89 415 140 340 60L495 140C384 -10 280 -10 460 44zM435 285C365 440 280 440 429 375C125 375 115 285 190 440zM415 618L135 618L135 678L415 678z" />
      <glyph unicode="&#x114;" horiz-adv-x="585" d="M530 0L80 0L80 700L530 700L530 625L160 625L160 390L510 390L510 315L160 315L160 75L530 75zM310 780C175 830 170 905 234 780L235 905C268 835 310 835 240 861C379 861 385 905 351 835L450 905C386 780 310 780 444 830z" />
      <glyph unicode="&#x115;" horiz-adv-x="550" d="M280 -10C194 1 158 23 235 -10C92 75 71 115 121 45C40 199 40 250 50 154C50 345 71 385 40 300C121 455 158 477 92 424C235 510 280 510 194 499C361 499 397 479 322 510C460 429 480 393 432 458C510 316 510 270 500 357C508 225 505 215 510 243L115 215C194 60 280 60 124 121C389 89 415 140 340 60L495 140C384 -10 280 -10 460 44zM435 285C365 440 280 440 429 375C125 375 115 285 190 440zM275 585C140 635 135 710 199 585L200 710C233 640 275 640 205 666C344 666 350 710 316 640L415 710C351 585 275 585 409 635z" />
      <glyph unicode="&#x116;" horiz-adv-x="585" d="M530 0L80 0L80 700L530 700L530 625L160 625L160 390L510 390L510 315L160 315L160 75L530 75zM353 800L268 800L268 885L353 885z" />
      <glyph unicode="&#x117;" horiz-adv-x="550" d="M280 -10C194 1 158 23 235 -10C92 75 71 115 121 45C40 199 40 250 50 154C50 345 71 385 40 300C121 455 158 477 92 424C235 510 280 510 194 499C361 499 397 479 322 510C460 429 480 393 432 458C510 316 510 270 500 357C508 225 505 215 510 243L115 215C194 60 280 60 124 121C389 89 415 140 340 60L495 140C384 -10 280 -10 460 44zM435 285C365 440 280 440 429 375C125 375 115 285 190 440zM318 605L233 605L233 690L318 690z" />
      <glyph unicode="&#x118;" horiz-adv-x="585" d="M530 625L160 625L160 390L510 390L510 315L160 315L160 75L530 75L530 0C470 -44 470 -70 490 -20C487 -110 515 -110 470 -91L530 -110L530 -165L510 -165C410 -130 410 -80 446 -165C437 -10 465 0 410 -42L80 0L80 700L530 700z" />
      <glyph unicode="&#x119;" horiz-adv-x="550" d="M510 270C508 225 505 215 510 243L115 215C194 60 280 60 124 121C389 89 415 140 340 60L495 140C456 64 424 35 479 99C350 -34 350 -70 369 -13C367 -110 395 -110 350 -91L410 -110L410 -165L390 -165C290 -130 290 -80 326 -165C304 -24 324 -6 290 -50C296 -10 280 -10 311 -8C194 1 158 23 235 -10C92 75 71 115 121 45C40 199 40 250 50 154C50 345 71 385 40 300C121 455 158 477 92 424C235 510 280 510 194 499C361 499 397 479 322 510C460 429 480 393 432 458C510 316 510 270 500 357zM435 285C365 440 280 440 429 375C125 375 115 285 190 440z" />
      <glyph unicode="&#x11A;" horiz-adv-x="585" d="M530 0L80 0L80 700L530 700L530 625L160 625L160 390L510 390L510 315L160 315L160 75L530 75zM350 770L270 770L155 905L235 905L310 815L385 905L465 905z" />
      <glyph unicode="&#x11B;" horiz-adv-x="550" d="M280 -10C194 1 158 23 235 -10C92 75 71 115 121 45C40 199 40 250 50 154C50 345 71 385 40 300C121 455 158 477 92 424C235 510 280 510 194 499C361 499 397 479 322 510C460 429 480 393 432 458C510 316 510 270 500 357C508 225 505 215 510 243L115 215C194 60 280 60 124 121C389 89 415 140 340 60L495 140C384 -10 280 -10 460 44zM435 285C365 440 280 440 429 375C125 375 115 285 190 440zM315 580L235 580L120 715L200 715L275 625L350 715L430 715z" />
      <glyph unicode="&#x11C;" horiz-adv-x="770" d="M410 360L700 360L700 0L635 0L625 100L620 100C485 -10 385 -10 576 44C267 5 216 35 323 -10C124 108 94 163 164 65C50 280 50 350 64 217C64 482 94 537 50 420C164 634 216 664 124 591C323 710 385 710 267 694C651 623 695 490 526 710L610 490C481 635 385 635 570 579C295 623 256 599 338 635C186 541 164 498 217 575C130 405 130 350 141 454C141 245 164 202 130 294C217 125 256 101 186 158C338 65 385 65 295 77C464 75 500 95 425 65C565 142 587 176 536 115C620 244 620 280 609 209L620 290L410 290zM307 770L227 770L342 905L422 905L537 770L457 770L382 860z" />
      <glyph unicode="&#x11D;" horiz-adv-x="580" d="M285 -210C201 -202 168 -186 240 -210C108 -149 90 -123 134 -170C62 -69 60 -40 72 -97L135 -40C195 -140 285 -140 140 -94C435 -85 435 0 375 -140L435 90L430 90C334 20 270 20 390 44C187 30 152 51 226 20C90 100 70 138 117 71C40 217 40 265 50 175C50 354 70 392 40 312C117 458 152 479 90 429C226 510 270 510 187 499C394 480 430 435 334 510L435 435L445 500L510 500L510 0C501 -77 483 -109 510 -41C439 -165 405 -183 465 -141C331 -210 285 -210 371 -201zM275 90C332 97 356 112 305 90C400 147 414 174 380 126C435 231 435 265 428 200C428 329 414 356 435 299C380 403 356 418 400 382C305 440 275 440 332 432C217 432 193 418 245 440C150 382 136 356 169 403C115 299 115 265 122 329C122 200 136 174 115 231C169 126 193 112 150 147C245 90 275 90 217 97zM215 580L135 580L250 715L330 715L445 580L365 580L290 670z" />
      <glyph unicode="&#x11E;" horiz-adv-x="770" d="M410 360L700 360L700 0L635 0L625 100L620 100C485 -10 385 -10 576 44C267 5 216 35 323 -10C124 108 94 163 164 65C50 280 50 350 64 217C64 482 94 537 50 420C164 634 216 664 124 591C323 710 385 710 267 694C651 623 695 490 526 710L610 490C481 635 385 635 570 579C295 623 256 599 338 635C186 541 164 498 217 575C130 405 130 350 141 454C141 245 164 202 130 294C217 125 256 101 186 158C338 65 385 65 295 77C464 75 500 95 425 65C565 142 587 176 536 115C620 244 620 280 609 209L620 290L410 290zM382 780C247 830 242 905 306 780L307 905C340 835 382 835 312 861C451 861 457 905 423 835L522 905C458 780 382 780 516 830z" />
      <glyph unicode="&#x11F;" horiz-adv-x="580" d="M285 -210C201 -202 168 -186 240 -210C108 -149 90 -123 134 -170C62 -69 60 -40 72 -97L135 -40C195 -140 285 -140 140 -94C435 -85 435 0 375 -140L435 90L430 90C334 20 270 20 390 44C187 30 152 51 226 20C90 100 70 138 117 71C40 217 40 265 50 175C50 354 70 392 40 312C117 458 152 479 90 429C226 510 270 510 187 499C394 480 430 435 334 510L435 435L445 500L510 500L510 0C501 -77 483 -109 510 -41C439 -165 405 -183 465 -141C331 -210 285 -210 371 -201zM275 90C332 97 356 112 305 90C400 147 414 174 380 126C435 231 435 265 428 200C428 329 414 356 435 299C380 403 356 418 400 382C305 440 275 440 332 432C217 432 193 418 245 440C150 382 136 356 169 403C115 299 115 265 122 329C122 200 136 174 115 231C169 126 193 112 150 147C245 90 275 90 217 97zM290 585C155 635 150 710 214 585L215 710C248 640 290 640 220 666C359 666 365 710 331 640L430 710C366 585 290 585 424 635z" />
      <glyph unicode="&#x120;" horiz-adv-x="770" d="M410 360L700 360L700 0L635 0L625 100L620 100C485 -10 385 -10 576 44C267 5 216 35 323 -10C124 108 94 163 164 65C50 280 50 350 64 217C64 482 94 537 50 420C164 634 216 664 124 591C323 710 385 710 267 694C651 623 695 490 526 710L610 490C481 635 385 635 570 579C295 623 256 599 338 635C186 541 164 498 217 575C130 405 130 350 141 454C141 245 164 202 130 294C217 125 256 101 186 158C338 65 385 65 295 77C464 75 500 95 425 65C565 142 587 176 536 115C620 244 620 280 609 209L620 290L410 290zM425 800L340 800L340 885L425 885z" />
      <glyph unicode="&#x121;" horiz-adv-x="580" d="M285 -210C201 -202 168 -186 240 -210C108 -149 90 -123 134 -170C62 -69 60 -40 72 -97L135 -40C195 -140 285 -140 140 -94C435 -85 435 0 375 -140L435 90L430 90C334 20 270 20 390 44C187 30 152 51 226 20C90 100 70 138 117 71C40 217 40 265 50 175C50 354 70 392 40 312C117 458 152 479 90 429C226 510 270 510 187 499C394 480 430 435 334 510L435 435L445 500L510 500L510 0C501 -77 483 -109 510 -41C439 -165 405 -183 465 -141C331 -210 285 -210 371 -201zM275 90C332 97 356 112 305 90C400 147 414 174 380 126C435 231 435 265 428 200C428 329 414 356 435 299C380 403 356 418 400 382C305 440 275 440 332 432C217 432 193 418 245 440C150 382 136 356 169 403C115 299 115 265 122 329C122 200 136 174 115 231C169 126 193 112 150 147C245 90 275 90 217 97zM333 605L248 605L248 690L333 690z" />
      <glyph unicode="&#x122;" horiz-adv-x="770" d="M410 360L700 360L700 0L635 0L625 100L620 100C485 -10 385 -10 576 44C267 5 216 35 323 -10C124 108 94 163 164 65C50 280 50 350 64 217C64 482 94 537 50 420C164 634 216 664 124 591C323 710 385 710 267 694C651 623 695 490 526 710L610 490C481 635 385 635 570 579C295 623 256 599 338 635C186 541 164 498 217 575C130 405 130 350 141 454C141 245 164 202 130 294C217 125 256 101 186 158C338 65 385 65 295 77C464 75 500 95 425 65C565 142 587 176 536 115C620 244 620 280 609 209L620 290L410 290zM375 -245L315 -245L345 -85L430 -85z" />
      <glyph unicode="&#x123;" horiz-adv-x="580" d="M285 -210C201 -202 168 -186 240 -210C108 -149 90 -123 134 -170C62 -69 60 -40 72 -97L135 -40C195 -140 285 -140 140 -94C435 -85 435 0 375 -140L435 90L430 90C334 20 270 20 390 44C187 30 152 51 226 20C90 100 70 138 117 71C40 217 40 265 50 175C50 354 70 392 40 312C117 458 152 479 90 429C226 510 270 510 187 499C394 480 430 435 334 510L435 435L445 500L510 500L510 0C501 -77 483 -109 510 -41C439 -165 405 -183 465 -141C331 -210 285 -210 371 -201zM275 90C332 97 356 112 305 90C400 147 414 174 380 126C435 231 435 265 428 200C428 329 414 356 435 299C380 403 356 418 400 382C305 440 275 440 332 432C217 432 193 418 245 440C150 382 136 356 169 403C115 299 115 265 122 329C122 200 136 174 115 231C169 126 193 112 150 147C245 90 275 90 217 97zM325 580L240 580L304 750L369 750z" />
      <glyph unicode="&#x124;" horiz-adv-x="710" d="M160 0L80 0L80 700L160 700L160 390L550 390L550 700L630 700L630 0L550 0L550 315L160 315zM280 770L200 770L315 905L395 905L510 770L430 770L355 860z" />
      <glyph unicode="&#x125;" horiz-adv-x="575" d="M75 0L75 700L150 700L150 445L155 445C238 510 305 510 181 478C377 501 407 483 343 510C461 441 479 409 437 465C505 340 505 300 496 377L505 0L430 0L430 300C424 349 412 371 430 326C383 409 363 421 400 392C319 440 295 440 342 433C244 433 222 420 269 440C182 390 169 369 200 407C150 324 150 300 156 347L150 0zM225 770L145 770L260 905L340 905L455 770L375 770L300 860z" />
      <glyph unicode="&#x126;" horiz-adv-x="760" d="M655 581L750 581L750 506L655 506L655 0L575 0L575 315L185 315L185 0L105 0L105 506L10 506L10 581L105 581L105 700L185 700L185 581L575 581L575 700L655 700zM185 390L575 390L575 506L185 506z" />
      <glyph unicode="&#x127;" horiz-adv-x="585" d="M85 0L85 550L0 550L0 620L85 620L85 700L160 700L160 620L320 620L320 550L160 550L160 395L165 395C248 460 315 460 191 428C387 451 417 433 353 460C471 391 489 359 447 415C515 290 515 250 506 327L515 0L440 0L440 250C434 299 422 321 440 276C393 359 373 371 410 342C329 390 305 390 352 383C254 383 232 370 279 390C192 340 179 319 210 357C160 274 160 250 166 297L160 0z" />
      <glyph unicode="&#x128;" horiz-adv-x="240" d="M160 0L80 0L80 700L160 700zM-38 790C6 890 62 890 -38 848C104 881 130 865 86 890C165 845 177 845 149 851C217 862 217 890 198 845L277 890C233 790 177 790 277 831C134 799 109 815 153 790C74 835 62 835 89 828C22 818 22 790 40 835z" />
      <glyph unicode="&#x129;" horiz-adv-x="215" d="M145 0L70 0L70 500L145 500zM-50 600C-6 700 50 700 -50 658C92 691 118 675 74 700C153 655 165 655 137 661C205 672 205 700 186 655L265 700C221 600 165 600 265 641C122 609 97 625 141 600C62 645 50 645 77 638C10 628 10 600 28 645z" />
      <glyph unicode="&#x12A;" horiz-adv-x="240" d="M160 0L80 0L80 700L160 700zM260 813L-20 813L-20 873L260 873z" />
      <glyph unicode="&#x12B;" horiz-adv-x="215" d="M145 0L70 0L70 500L145 500zM248 618L-32 618L-32 678L248 678z" />
      <glyph unicode="&#x12C;" horiz-adv-x="240" d="M160 0L80 0L80 700L160 700zM120 780C-14 830 -20 905 44 780L45 905C78 835 120 835 50 861C189 861 195 905 161 835L260 905C196 780 120 780 254 830z" />
      <glyph unicode="&#x12D;" horiz-adv-x="215" d="M145 0L70 0L70 500L145 500zM108 585C-26 635 -32 710 32 585L33 710C66 640 108 640 38 666C177 666 183 710 149 640L248 710C184 585 108 585 242 635z" />
      <glyph unicode="&#x12E;" horiz-adv-x="240" d="M80 700L160 700L160 0L145 0C85 -44 85 -70 105 -20C102 -110 130 -110 85 -91L145 -110L145 -165L125 -165C25 -130 25 -80 61 -165C52 -10 80 0 25 -42z" />
      <glyph unicode="&#x12F;" horiz-adv-x="215" d="M66 605L66 690L151 690L151 605zM70 500L145 500L145 0L135 0C75 -44 75 -70 95 -20C92 -110 120 -110 75 -91L135 -110L135 -165L115 -165C15 -130 15 -80 51 -165C42 -10 70 0 15 -42z" />
      <glyph unicode="&#x130;" horiz-adv-x="240" d="M160 0L80 0L80 700L160 700zM163 800L78 800L78 885L163 885z" />
      <glyph unicode="&#x131;" horiz-adv-x="215" d="M145 0L70 0L70 500L145 500z" />
      <glyph unicode="&#x132;" horiz-adv-x="625" d="M160 0L80 0L80 700L160 700zM250 0L250 75L420 75C470 95 470 125 450 75L470 700L550 700L550 115C508 0 430 0 550 43z" />
      <glyph unicode="&#x133;" horiz-adv-x="430" d="M145 0L70 0L70 500L145 500zM151 605L66 605L66 690L151 690zM180 -200L180 -130L255 -130C285 -120 285 -100 275 -130L285 500L360 500L360 -115C324 -200 270 -200 360 -165zM366 605L281 605L281 690L366 690z" />
      <glyph unicode="&#x134;" horiz-adv-x="385" d="M10 0L10 75L180 75C230 95 230 125 210 75L230 700L310 700L310 115C268 0 190 0 310 43zM195 770L115 770L230 905L310 905L425 770L345 770L270 860z" />
      <glyph unicode="&#x135;" horiz-adv-x="215" d="M-35 -200L-35 -130L40 -130C70 -120 70 -100 60 -130L70 500L145 500L145 -115C109 -200 55 -200 145 -165zM33 580L-47 580L68 715L148 715L263 580L183 580L108 670z" />
      <glyph unicode="&#x136;" horiz-adv-x="555" d="M160 0L80 0L80 700L160 700L160 370L455 700L555 700L245 355L575 0L474 0L160 340zM295 -245L235 -245L265 -85L350 -85z" />
      <glyph unicode="&#x137;" horiz-adv-x="480" d="M150 0L75 0L75 700L150 700L150 270L374 500L470 500L230 255L480 0L384 0L150 240zM250 -245L190 -245L220 -85L305 -85z" />
      <glyph unicode="&#x139;" horiz-adv-x="530" d="M510 0L80 0L80 700L160 700L160 75L510 75zM154 770L84 770L179 910L269 910z" />
      <glyph unicode="&#x13A;" horiz-adv-x="225" d="M150 0L75 0L75 700L150 700zM147 770L77 770L172 910L262 910z" />
      <glyph unicode="&#x13B;" horiz-adv-x="530" d="M510 0L80 0L80 700L160 700L160 75L510 75zM285 -245L225 -245L255 -85L340 -85z" />
      <glyph unicode="&#x13C;" horiz-adv-x="225" d="M150 0L75 0L75 700L150 700zM100 -245L40 -245L70 -85L155 -85z" />
      <glyph unicode="&#x13D;" horiz-adv-x="530" d="M510 0L80 0L80 700L160 700L160 75L510 75zM285 540L225 540L243 700L328 700z" />
      <glyph unicode="&#x13E;" horiz-adv-x="225" d="M150 0L75 0L75 700L150 700zM275 540L215 540L233 700L318 700z" />
      <glyph unicode="&#x13F;" horiz-adv-x="530" d="M510 0L80 0L80 700L160 700L160 75L510 75zM430 335L340 335L340 425L430 425z" />
      <glyph unicode="&#x140;" horiz-adv-x="369" d="M150 0L75 0L75 700L150 700zM342 315L252 315L252 405L342 405z" />
      <glyph unicode="&#x141;" horiz-adv-x="550" d="M180 320L180 75L530 75L530 0L100 0L100 290L20 260L20 335L100 365L100 700L180 700L180 395L340 455L340 380z" />
      <glyph unicode="&#x142;" horiz-adv-x="265" d="M170 405L245 435L245 365L170 335L170 0L95 0L95 305L20 275L20 345L95 375L95 700L170 700z" />
      <glyph unicode="&#x143;" horiz-adv-x="710" d="M160 0L80 0L80 700L215 700L530 95L550 95L550 700L630 700L630 0L495 0L180 605L160 605zM389 770L319 770L414 910L504 910z" />
      <glyph unicode="&#x144;" horiz-adv-x="570" d="M70 0L70 500L135 500L145 445L150 445C233 510 300 510 176 478C372 501 402 483 338 510C456 441 474 409 432 465C500 340 500 300 491 377L500 0L425 0L425 300C419 349 407 371 425 326C378 409 358 421 395 392C314 440 290 440 337 433C239 433 217 420 264 440C177 390 164 369 195 407C145 324 145 300 151 347L145 0zM330 580L260 580L355 720L445 720z" />
      <glyph unicode="&#x145;" horiz-adv-x="710" d="M160 0L80 0L80 700L215 700L530 95L550 95L550 700L630 700L630 0L495 0L180 605L160 605zM345 -245L285 -245L315 -85L400 -85z" />
      <glyph unicode="&#x146;" horiz-adv-x="570" d="M70 0L70 500L135 500L145 445L150 445C233 510 300 510 176 478C372 501 402 483 338 510C456 441 474 409 432 465C500 340 500 300 491 377L500 0L425 0L425 300C419 349 407 371 425 326C378 409 358 421 395 392C314 440 290 440 337 433C239 433 217 420 264 440C177 390 164 369 195 407C145 324 145 300 151 347L145 0zM275 -245L215 -245L245 -85L330 -85z" />
      <glyph unicode="&#x147;" horiz-adv-x="710" d="M160 0L80 0L80 700L215 700L530 95L550 95L550 700L630 700L630 0L495 0L180 605L160 605zM395 770L315 770L200 905L280 905L355 815L430 905L510 905z" />
      <glyph unicode="&#x148;" horiz-adv-x="570" d="M70 0L70 500L135 500L145 445L150 445C233 510 300 510 176 478C372 501 402 483 338 510C456 441 474 409 432 465C500 340 500 300 491 377L500 0L425 0L425 300C419 349 407 371 425 326C378 409 358 421 395 392C314 440 290 440 337 433C239 433 217 420 264 440C177 390 164 369 195 407C145 324 145 300 151 347L145 0zM335 580L255 580L140 715L220 715L295 625L370 715L450 715z" />
      <glyph unicode="&#x149;" horiz-adv-x="580" d="M80 0L80 500L145 500L155 445L160 445C243 510 310 510 186 478C382 501 412 483 348 510C466 441 484 409 442 465C510 340 510 300 501 377L510 0L435 0L435 300C429 349 417 371 435 326C388 409 368 421 405 392C324 440 300 440 347 433C249 433 227 420 274 440C187 390 174 369 205 407C155 324 155 300 161 347L155 0zM70 540L10 540L40 700L125 700z" />
      <glyph unicode="&#x14A;" horiz-adv-x="710" d="M410 -200L410 -125L500 -125C550 -105 550 -75 530 -125L550 0L495 0L180 605L160 605L160 0L80 0L80 700L215 700L530 95L550 95L550 700L630 700L630 -85C588 -200 510 -200 630 -157z" />
      <glyph unicode="&#x14B;" horiz-adv-x="570" d="M305 -200L305 -125L375 -125C425 -105 425 -75 405 -125L425 300C419 349 407 371 425 326C378 409 358 421 395 392C314 440 290 440 337 433C239 433 217 420 264 440C177 390 164 369 195 407C145 324 145 300 151 347L145 0L70 0L70 500L135 500L145 445L150 445C233 510 300 510 176 478C372 501 402 483 338 510C456 441 474 409 432 465C500 340 500 300 491 377L500 -90C459 -200 385 -200 500 -160z" />
      <glyph unicode="&#x14C;" horiz-adv-x="770" d="M385 -10C267 5 216 35 323 -10C124 108 94 163 164 65C50 280 50 350 64 217C64 482 94 537 50 420C164 634 216 664 124 591C323 710 385 710 267 694C502 694 554 664 446 710C645 591 675 537 605 634C720 420 720 350 705 482C705 217 675 163 720 280C605 65 554 35 645 108C446 -10 385 -10 502 5zM385 65C474 77 513 101 431 65C583 158 606 202 552 125C640 294 640 350 628 245C628 454 606 498 640 405C552 575 513 599 583 541C431 635 385 635 474 623C295 623 256 599 338 635C186 541 164 498 217 575C130 405 130 350 141 454C141 245 164 202 130 294C217 125 256 101 186 158C338 65 385 65 295 77zM525 813L245 813L245 873L525 873z" />
      <glyph unicode="&#x14D;" horiz-adv-x="560" d="M280 -10C194 1 158 23 235 -10C92 75 71 115 121 45C40 199 40 250 50 154C50 345 71 385 40 300C121 455 158 477 92 424C235 510 280 510 194 499C365 499 402 477 324 510C467 424 488 385 438 455C520 300 520 250 509 345C509 154 488 115 520 199C438 45 402 23 467 75C324 -10 280 -10 365 1zM280 60C337 67 363 83 310 60C408 121 423 150 388 99C445 212 445 250 437 179C437 320 423 349 445 287C388 400 363 416 408 378C310 440 280 440 337 432C222 432 197 416 250 440C151 378 137 349 171 400C115 287 115 250 122 320C122 179 137 150 115 212C171 99 197 83 151 121C250 60 280 60 222 67zM420 618L140 618L140 678L420 678z" />
      <glyph unicode="&#x14E;" horiz-adv-x="770" d="M385 -10C267 5 216 35 323 -10C124 108 94 163 164 65C50 280 50 350 64 217C64 482 94 537 50 420C164 634 216 664 124 591C323 710 385 710 267 694C502 694 554 664 446 710C645 591 675 537 605 634C720 420 720 350 705 482C705 217 675 163 720 280C605 65 554 35 645 108C446 -10 385 -10 502 5zM385 65C474 77 513 101 431 65C583 158 606 202 552 125C640 294 640 350 628 245C628 454 606 498 640 405C552 575 513 599 583 541C431 635 385 635 474 623C295 623 256 599 338 635C186 541 164 498 217 575C130 405 130 350 141 454C141 245 164 202 130 294C217 125 256 101 186 158C338 65 385 65 295 77zM385 780C250 830 245 905 309 780L310 905C343 835 385 835 315 861C454 861 460 905 426 835L525 905C461 780 385 780 519 830z" />
      <glyph unicode="&#x14F;" horiz-adv-x="560" d="M280 -10C194 1 158 23 235 -10C92 75 71 115 121 45C40 199 40 250 50 154C50 345 71 385 40 300C121 455 158 477 92 424C235 510 280 510 194 499C365 499 402 477 324 510C467 424 488 385 438 455C520 300 520 250 509 345C509 154 488 115 520 199C438 45 402 23 467 75C324 -10 280 -10 365 1zM280 60C337 67 363 83 310 60C408 121 423 150 388 99C445 212 445 250 437 179C437 320 423 349 445 287C388 400 363 416 408 378C310 440 280 440 337 432C222 432 197 416 250 440C151 378 137 349 171 400C115 287 115 250 122 320C122 179 137 150 115 212C171 99 197 83 151 121C250 60 280 60 222 67zM280 585C145 635 140 710 204 585L205 710C238 640 280 640 210 666C349 666 355 710 321 640L420 710C356 585 280 585 414 635z" />
      <glyph unicode="&#x150;" horiz-adv-x="770" d="M385 -10C267 5 216 35 323 -10C124 108 94 163 164 65C50 280 50 350 64 217C64 482 94 537 50 420C164 634 216 664 124 591C323 710 385 710 267 694C502 694 554 664 446 710C645 591 675 537 605 634C720 420 720 350 705 482C705 217 675 163 720 280C605 65 554 35 645 108C446 -10 385 -10 502 5zM385 65C474 77 513 101 431 65C583 158 606 202 552 125C640 294 640 350 628 245C628 454 606 498 640 405C552 575 513 599 583 541C431 635 385 635 474 623C295 623 256 599 338 635C186 541 164 498 217 575C130 405 130 350 141 454C141 245 164 202 130 294C217 125 256 101 186 158C338 65 385 65 295 77zM340 770L270 770L365 910L455 910zM500 770L430 770L525 910L615 910z" />
      <glyph unicode="&#x151;" horiz-adv-x="560" d="M280 -10C194 1 158 23 235 -10C92 75 71 115 121 45C40 199 40 250 50 154C50 345 71 385 40 300C121 455 158 477 92 424C235 510 280 510 194 499C365 499 402 477 324 510C467 424 488 385 438 455C520 300 520 250 509 345C509 154 488 115 520 199C438 45 402 23 467 75C324 -10 280 -10 365 1zM280 60C337 67 363 83 310 60C408 121 423 150 388 99C445 212 445 250 437 179C437 320 423 349 445 287C388 400 363 416 408 378C310 440 280 440 337 432C222 432 197 416 250 440C151 378 137 349 171 400C115 287 115 250 122 320C122 179 137 150 115 212C171 99 197 83 151 121C250 60 280 60 222 67zM230 580L160 580L255 720L345 720zM390 580L320 580L415 720L505 720z" />
      <glyph unicode="&#x152;" horiz-adv-x="1100" d="M365 -10C254 5 206 35 307 -10C120 108 92 163 158 65C50 280 50 350 64 217C64 482 92 537 50 420C158 634 206 664 120 591C307 710 365 710 254 694C543 663 590 590 462 710L595 590L595 700L1045 700L1045 625L675 625L675 390L1025 390L1025 315L675 315L675 75L1045 75L1045 0L595 0L595 110L590 110C462 -10 365 -10 543 36zM365 65C447 76 482 100 408 65C545 156 565 199 517 123C595 292 595 350 585 242C585 457 565 500 595 407C517 576 482 600 545 543C408 635 365 635 447 623C282 623 246 600 321 635C181 543 161 500 210 576C130 406 130 350 140 456C140 243 161 200 130 293C210 123 246 100 181 156C321 65 365 65 282 76z" />
      <glyph unicode="&#x153;" horiz-adv-x="930" d="M270 -10C187 1 152 23 226 -10C90 75 70 115 117 45C40 199 40 250 50 154C50 345 70 385 40 300C117 455 152 477 90 424C226 510 270 510 187 499C425 466 465 390 354 510C579 510 665 510 505 464C748 499 782 478 709 510C843 428 862 392 816 457C890 314 890 270 880 355C888 230 885 215 890 248L505 215C579 60 665 60 514 120C769 89 795 140 723 60L875 140C767 -10 665 -10 839 42C505 34 465 105 581 -10C354 -10 270 -10 423 33zM270 60C324 67 348 83 298 60C390 121 404 150 371 99C425 212 425 250 418 179C418 320 404 349 425 287C371 400 348 416 390 378C298 440 270 440 324 432C215 432 192 416 241 440C150 378 136 349 168 400C115 287 115 250 122 320C122 179 136 150 115 212C168 99 192 83 150 121C241 60 270 60 215 67zM815 285C746 440 665 440 809 378C514 379 505 285 579 440z" />
      <glyph unicode="&#x154;" horiz-adv-x="640" d="M319 270L600 0L500 0L220 270L160 270L160 0L80 0L80 700L385 700C455 690 485 672 421 700C540 627 558 595 515 653C585 525 585 485 576 562C576 407 558 375 585 444C515 316 485 298 540 342C421 270 385 270 455 279zM160 345L385 345C505 402 505 485 451 345C451 625 385 625 505 567L160 625zM354 770L284 770L379 910L469 910z" />
      <glyph unicode="&#x155;" horiz-adv-x="340" d="M70 0L70 500L135 500L145 450L150 450C194 500 245 500 172 484L330 500L330 430L255 430C145 390 145 320 185 430L145 0zM245 580L175 580L270 720L360 720z" />
      <glyph unicode="&#x156;" horiz-adv-x="640" d="M319 270L600 0L500 0L220 270L160 270L160 0L80 0L80 700L385 700C455 690 485 672 421 700C540 627 558 595 515 653C585 525 585 485 576 562C576 407 558 375 585 444C515 316 485 298 540 342C421 270 385 270 455 279zM160 345L385 345C505 402 505 485 451 345C451 625 385 625 505 567L160 625zM310 -245L250 -245L280 -85L365 -85z" />
      <glyph unicode="&#x157;" horiz-adv-x="340" d="M70 0L70 500L135 500L145 450L150 450C194 500 245 500 172 484L330 500L330 430L255 430C145 390 145 320 185 430L145 0zM98 -245L38 -245L68 -85L153 -85z" />
      <glyph unicode="&#x158;" horiz-adv-x="640" d="M319 270L600 0L500 0L220 270L160 270L160 0L80 0L80 700L385 700C455 690 485 672 421 700C540 627 558 595 515 653C585 525 585 485 576 562C576 407 558 375 585 444C515 316 485 298 540 342C421 270 385 270 455 279zM160 345L385 345C505 402 505 485 451 345C451 625 385 625 505 567L160 625zM360 770L280 770L165 905L245 905L320 815L395 905L475 905z" />
      <glyph unicode="&#x159;" horiz-adv-x="340" d="M70 0L70 500L135 500L145 450L150 450C194 500 245 500 172 484L330 500L330 430L255 430C145 390 145 320 185 430L145 0zM250 580L170 580L55 715L135 715L210 625L285 715L365 715z" />
      <glyph unicode="&#x15A;" horiz-adv-x="615" d="M310 -10C210 0 170 19 256 -10C99 65 77 98 130 39C45 166 45 205 55 130L125 205C132 156 146 135 125 179C182 96 210 84 160 113C271 65 310 65 238 71C485 115 485 190 428 65C445 290 365 305 485 250L230 330C60 411 60 510 116 351C69 583 89 613 60 548C136 666 172 684 108 643C251 710 300 710 208 701C397 700 437 681 352 710C506 636 528 604 476 662C560 535 560 495 549 571L480 495C472 543 458 565 480 520C423 603 396 616 444 586C337 635 300 635 369 628C140 583 140 510 198 635C177 413 255 400 140 454L365 380C565 295 565 190 503 354C555 116 535 86 565 151C486 32 448 15 515 56C363 -10 310 -10 409 -1zM339 770L269 770L364 910L454 910z" />
      <glyph unicode="&#x15B;" horiz-adv-x="460" d="M230 -10C154 -2 124 11 190 -10C70 44 54 68 94 25C30 117 30 145 38 92L105 145C152 60 230 60 105 98C350 92 350 135 306 60C323 199 265 210 350 175L180 225C40 287 40 365 86 241C105 510 225 510 40 449C297 502 327 488 263 510C380 455 396 431 357 474C420 381 420 355 412 407L345 355C297 440 225 440 345 401C115 407 115 365 154 440C137 305 195 295 115 327L280 280C425 215 425 135 380 262C355 -10 230 -10 425 51zM265 580L195 580L290 720L380 720z" />
      <glyph unicode="&#x15C;" horiz-adv-x="615" d="M310 -10C210 0 170 19 256 -10C99 65 77 98 130 39C45 166 45 205 55 130L125 205C132 156 146 135 125 179C182 96 210 84 160 113C271 65 310 65 238 71C485 115 485 190 428 65C445 290 365 305 485 250L230 330C60 411 60 510 116 351C69 583 89 613 60 548C136 666 172 684 108 643C251 710 300 710 208 701C397 700 437 681 352 710C506 636 528 604 476 662C560 535 560 495 549 571L480 495C472 543 458 565 480 520C423 603 396 616 444 586C337 635 300 635 369 628C140 583 140 510 198 635C177 413 255 400 140 454L365 380C565 295 565 190 503 354C555 116 535 86 565 151C486 32 448 15 515 56C363 -10 310 -10 409 -1zM230 770L150 770L265 905L345 905L460 770L380 770L305 860z" />
      <glyph unicode="&#x15D;" horiz-adv-x="460" d="M230 -10C154 -2 124 11 190 -10C70 44 54 68 94 25C30 117 30 145 38 92L105 145C152 60 230 60 105 98C350 92 350 135 306 60C323 199 265 210 350 175L180 225C40 287 40 365 86 241C105 510 225 510 40 449C297 502 327 488 263 510C380 455 396 431 357 474C420 381 420 355 412 407L345 355C297 440 225 440 345 401C115 407 115 365 154 440C137 305 195 295 115 327L280 280C425 215 425 135 380 262C355 -10 230 -10 425 51zM155 580L75 580L190 715L270 715L385 580L305 580L230 670z" />
      <glyph unicode="&#x15E;" horiz-adv-x="615" d="M565 190C479 -3 331 -10 565 76L315 -45C385 -84 385 -120 353 -50C348 -200 290 -200 385 -166L240 -200L240 -150L280 -150C325 -136 325 -115 309 -150C309 -80 280 -80 325 -93L255 -80L255 -45L272 -8C185 9 151 29 226 -3C90 74 72 105 117 49C45 169 45 205 54 136L125 205C132 156 146 135 125 179C182 96 210 84 160 113C271 65 310 65 238 71C485 115 485 190 428 65C445 290 365 305 485 250L230 330C60 411 60 510 116 351C69 583 89 613 60 548C136 666 172 684 108 643C251 710 300 710 208 701C397 700 437 681 352 710C506 636 528 604 476 662C560 535 560 495 549 571L480 495C472 543 458 565 480 520C423 603 396 616 444 586C337 635 300 635 369 628C140 583 140 510 198 635C177 413 255 400 140 454L365 380C565 295 565 190 503 354z" />
      <glyph unicode="&#x15F;" horiz-adv-x="460" d="M425 135C365 -1 256 -9 425 57L240 -45C310 -84 310 -120 278 -50C273 -200 215 -200 310 -166L165 -200L165 -150L205 -150C250 -136 250 -115 234 -150C234 -80 205 -80 250 -93L180 -80L180 -45L197 -8C30 69 30 145 95 4L105 145C152 60 230 60 105 98C350 92 350 135 306 60C323 199 265 210 350 175L180 225C40 287 40 365 86 241C105 510 225 510 40 449C297 502 327 488 263 510C380 455 396 431 357 474C420 381 420 355 412 407L345 355C297 440 225 440 345 401C115 407 115 365 154 440C137 305 195 295 115 327L280 280C425 215 425 135 380 262z" />
      <glyph unicode="&#x160;" horiz-adv-x="615" d="M310 -10C210 0 170 19 256 -10C99 65 77 98 130 39C45 166 45 205 55 130L125 205C132 156 146 135 125 179C182 96 210 84 160 113C271 65 310 65 238 71C485 115 485 190 428 65C445 290 365 305 485 250L230 330C60 411 60 510 116 351C69 583 89 613 60 548C136 666 172 684 108 643C251 710 300 710 208 701C397 700 437 681 352 710C506 636 528 604 476 662C560 535 560 495 549 571L480 495C472 543 458 565 480 520C423 603 396 616 444 586C337 635 300 635 369 628C140 583 140 510 198 635C177 413 255 400 140 454L365 380C565 295 565 190 503 354C555 116 535 86 565 151C486 32 448 15 515 56C363 -10 310 -10 409 -1zM345 770L265 770L150 905L230 905L305 815L380 905L460 905z" />
      <glyph unicode="&#x161;" horiz-adv-x="460" d="M230 -10C154 -2 124 11 190 -10C70 44 54 68 94 25C30 117 30 145 38 92L105 145C152 60 230 60 105 98C350 92 350 135 306 60C323 199 265 210 350 175L180 225C40 287 40 365 86 241C105 510 225 510 40 449C297 502 327 488 263 510C380 455 396 431 357 474C420 381 420 355 412 407L345 355C297 440 225 440 345 401C115 407 115 365 154 440C137 305 195 295 115 327L280 280C425 215 425 135 380 262C355 -10 230 -10 425 51zM270 580L190 580L75 715L155 715L230 625L305 715L385 715z" />
      <glyph unicode="&#x162;" horiz-adv-x="590" d="M335 0L325 0L305 -45C375 -84 375 -120 343 -50C338 -200 280 -200 375 -166L230 -200L230 -150L270 -150C315 -136 315 -115 299 -150C299 -80 270 -80 315 -93L245 -80L245 -45L265 0L255 0L255 625L25 625L25 700L565 700L565 625L335 625z" />
      <glyph unicode="&#x163;" horiz-adv-x="340" d="M295 430L180 430L180 100C190 70 210 70 180 80L295 70L295 0L230 0L210 -45C280 -84 280 -120 248 -50C243 -200 185 -200 280 -166L135 -200L135 -150L175 -150C220 -136 220 -115 204 -150C204 -80 175 -80 220 -93L150 -80L150 -45L171 2C105 42 105 85 129 11L105 430L25 430L25 500L105 500L105 640L180 640L180 500L295 500z" />
      <glyph unicode="&#x164;" horiz-adv-x="590" d="M335 0L255 0L255 625L25 625L25 700L565 700L565 625L335 625zM335 770L255 770L140 905L220 905L295 815L370 905L450 905z" />
      <glyph unicode="&#x165;" horiz-adv-x="340" d="M195 0C105 34 105 85 140 0L105 430L25 430L25 500L105 500L105 640L180 640L180 500L295 500L295 430L180 430L180 100C190 70 210 70 180 80L295 70L295 0zM305 540L245 540L263 700L348 700z" />
      <glyph unicode="&#x166;" horiz-adv-x="590" d="M565 700L565 625L335 625L335 395L490 395L490 320L335 320L335 0L255 0L255 320L100 320L100 395L255 395L255 625L25 625L25 700z" />
      <glyph unicode="&#x167;" horiz-adv-x="340" d="M295 430L180 430L180 315L285 315L285 245L180 245L180 100C190 70 210 70 180 80L295 70L295 0L195 0C105 34 105 85 140 0L105 245L35 245L35 315L105 315L105 430L25 430L25 500L105 500L105 640L180 640L180 500L295 500z" />
      <glyph unicode="&#x168;" horiz-adv-x="690" d="M345 -10C247 2 205 26 293 -10C130 83 106 127 163 50C70 219 70 275 82 170L70 700L150 700L150 275C158 198 175 166 150 234C215 109 245 91 192 134C308 65 345 65 275 73C414 73 444 91 381 65C497 134 514 166 474 109C540 234 540 275 531 198L540 700L620 700L620 275C608 170 584 127 620 219C527 50 485 26 560 83C396 -10 345 -10 443 2zM188 790C232 890 288 890 188 848C330 881 356 865 312 890C391 845 403 845 375 851C443 862 443 890 424 845L503 890C459 790 403 790 503 831C360 799 335 815 379 790C300 835 288 835 315 828C248 818 248 790 266 835z" />
      <glyph unicode="&#x169;" horiz-adv-x="570" d="M270 -10C197 -1 167 16 232 -10C113 59 96 91 137 34C70 159 70 200 78 123L70 500L145 500L145 200C151 150 163 129 145 174C191 90 212 78 175 107C255 60 280 60 232 66C330 66 352 79 306 60C392 109 405 131 374 92C425 175 425 200 418 152L425 500L500 500L500 0L435 0L425 55L420 55C336 -10 270 -10 392 20zM128 600C172 700 228 700 128 658C270 691 296 675 252 700C331 655 343 655 315 661C383 672 383 700 364 655L443 700C399 600 343 600 443 641C300 609 275 625 319 600C240 645 228 645 255 638C188 628 188 600 206 645z" />
      <glyph unicode="&#x16A;" horiz-adv-x="690" d="M345 -10C247 2 205 26 293 -10C130 83 106 127 163 50C70 219 70 275 82 170L70 700L150 700L150 275C158 198 175 166 150 234C215 109 245 91 192 134C308 65 345 65 275 73C414 73 444 91 381 65C497 134 514 166 474 109C540 234 540 275 531 198L540 700L620 700L620 275C608 170 584 127 620 219C527 50 485 26 560 83C396 -10 345 -10 443 2zM485 813L205 813L205 873L485 873z" />
      <glyph unicode="&#x16B;" horiz-adv-x="570" d="M270 -10C197 -1 167 16 232 -10C113 59 96 91 137 34C70 159 70 200 78 123L70 500L145 500L145 200C151 150 163 129 145 174C191 90 212 78 175 107C255 60 280 60 232 66C330 66 352 79 306 60C392 109 405 131 374 92C425 175 425 200 418 152L425 500L500 500L500 0L435 0L425 55L420 55C336 -10 270 -10 392 20zM425 618L145 618L145 678L425 678z" />
      <glyph unicode="&#x16C;" horiz-adv-x="690" d="M345 -10C247 2 205 26 293 -10C130 83 106 127 163 50C70 219 70 275 82 170L70 700L150 700L150 275C158 198 175 166 150 234C215 109 245 91 192 134C308 65 345 65 275 73C414 73 444 91 381 65C497 134 514 166 474 109C540 234 540 275 531 198L540 700L620 700L620 275C608 170 584 127 620 219C527 50 485 26 560 83C396 -10 345 -10 443 2zM345 780C210 830 205 905 269 780L270 905C303 835 345 835 275 861C414 861 420 905 386 835L485 905C421 780 345 780 479 830z" />
      <glyph unicode="&#x16D;" horiz-adv-x="570" d="M270 -10C197 -1 167 16 232 -10C113 59 96 91 137 34C70 159 70 200 78 123L70 500L145 500L145 200C151 150 163 129 145 174C191 90 212 78 175 107C255 60 280 60 232 66C330 66 352 79 306 60C392 109 405 131 374 92C425 175 425 200 418 152L425 500L500 500L500 0L435 0L425 55L420 55C336 -10 270 -10 392 20zM285 585C150 635 145 710 209 585L210 710C243 640 285 640 215 666C354 666 360 710 326 640L425 710C361 585 285 585 419 635z" />
      <glyph unicode="&#x16E;" horiz-adv-x="690" d="M345 -10C247 2 205 26 293 -10C130 83 106 127 163 50C70 219 70 275 82 170L70 700L150 700L150 275C158 198 175 166 150 234C215 109 245 91 192 134C308 65 345 65 275 73C414 73 444 91 381 65C497 134 514 166 474 109C540 234 540 275 531 198L540 700L620 700L620 275C608 170 584 127 620 219C527 50 485 26 560 83C396 -10 345 -10 443 2zM345 760C255 800 255 850 294 760C294 940 345 940 255 900C435 900 435 850 394 940C394 760 345 760 435 800zM345 810C385 826 385 850 366 810C366 890 345 890 385 874C305 874 305 850 323 890C323 810 345 810 305 826z" />
      <glyph unicode="&#x16F;" horiz-adv-x="570" d="M270 -10C197 -1 167 16 232 -10C113 59 96 91 137 34C70 159 70 200 78 123L70 500L145 500L145 200C151 150 163 129 145 174C191 90 212 78 175 107C255 60 280 60 232 66C330 66 352 79 306 60C392 109 405 131 374 92C425 175 425 200 418 152L425 500L500 500L500 0L435 0L425 55L420 55C336 -10 270 -10 392 20zM285 570C195 610 195 660 234 570C234 750 285 750 195 710C375 710 375 660 334 750C334 570 285 570 375 610zM285 620C325 636 325 660 306 620C306 700 285 700 325 684C245 684 245 660 263 700C263 620 285 620 245 636z" />
      <glyph unicode="&#x170;" horiz-adv-x="690" d="M345 -10C247 2 205 26 293 -10C130 83 106 127 163 50C70 219 70 275 82 170L70 700L150 700L150 275C158 198 175 166 150 234C215 109 245 91 192 134C308 65 345 65 275 73C414 73 444 91 381 65C497 134 514 166 474 109C540 234 540 275 531 198L540 700L620 700L620 275C608 170 584 127 620 219C527 50 485 26 560 83C396 -10 345 -10 443 2zM300 770L230 770L325 910L415 910zM460 770L390 770L485 910L575 910z" />
      <glyph unicode="&#x171;" horiz-adv-x="570" d="M270 -10C197 -1 167 16 232 -10C113 59 96 91 137 34C70 159 70 200 78 123L70 500L145 500L145 200C151 150 163 129 145 174C191 90 212 78 175 107C255 60 280 60 232 66C330 66 352 79 306 60C392 109 405 131 374 92C425 175 425 200 418 152L425 500L500 500L500 0L435 0L425 55L420 55C336 -10 270 -10 392 20zM235 580L165 580L260 720L350 720zM395 580L325 580L420 720L510 720z" />
      <glyph unicode="&#x172;" horiz-adv-x="690" d="M540 700L620 700L620 275C546 42 445 8 620 143C361 -37 361 -70 389 -11C378 -110 406 -110 361 -91L421 -110L421 -165L401 -165C301 -130 301 -80 337 -165C313 -28 338 -10 301 -52C242 3 201 27 288 -9C128 85 105 128 160 51C70 219 70 275 81 170L70 700L150 700L150 275C158 198 175 166 150 234C215 109 245 91 192 134C308 65 345 65 275 73C414 73 444 91 381 65C497 134 514 166 474 109C540 234 540 275 531 198z" />
      <glyph unicode="&#x173;" horiz-adv-x="570" d="M500 0C440 -44 440 -70 460 -20C457 -110 485 -110 440 -91L500 -110L500 -165L480 -165C380 -130 380 -80 416 -165C407 -10 435 0 380 -42L425 55L420 55C336 -10 270 -10 392 20C197 -1 167 16 232 -10C113 59 96 91 137 34C70 159 70 200 78 123L70 500L145 500L145 200C151 150 163 129 145 174C191 90 212 78 175 107C255 60 280 60 232 66C330 66 352 79 306 60C392 109 405 131 374 92C425 175 425 200 418 152L425 500L500 500z" />
      <glyph unicode="&#x174;" horiz-adv-x="980" d="M328 0L190 0L15 700L100 700L250 85L270 85L430 700L550 700L710 85L730 85L880 700L965 700L790 0L652 0L500 585L480 585zM415 770L335 770L450 905L530 905L645 770L565 770L490 860z" />
      <glyph unicode="&#x175;" horiz-adv-x="790" d="M280 0L150 0L15 500L95 500L205 80L225 80L335 500L455 500L565 80L585 80L695 500L775 500L640 0L510 0L405 405L385 405zM320 580L240 580L355 715L435 715L550 580L470 580L395 670z" />
      <glyph unicode="&#x176;" horiz-adv-x="590" d="M335 0L255 0L255 265L0 700L85 700L285 355L305 355L505 700L590 700L335 265zM220 770L140 770L255 905L335 905L450 770L370 770L295 860z" />
      <glyph unicode="&#x177;" horiz-adv-x="495" d="M405 500L485 500L260 -130C218 -200 165 -200 242 -178L65 -200L65 -130L160 -130C188 -120 195 -100 176 -130L215 -40L10 500L90 500L245 85L265 85zM180 580L100 580L215 715L295 715L410 580L330 580L255 670z" />
      <glyph unicode="&#x178;" horiz-adv-x="590" d="M335 0L255 0L255 265L0 700L85 700L285 355L305 355L505 700L590 700L335 265zM250 800L165 800L165 885L250 885zM425 800L340 800L340 885L425 885z" />
      <glyph unicode="&#x179;" horiz-adv-x="575" d="M540 0L35 0L35 65L435 625L40 625L40 700L535 700L535 635L135 75L540 75zM321 770L251 770L346 910L436 910z" />
      <glyph unicode="&#x17A;" horiz-adv-x="430" d="M405 0L25 0L25 65L305 430L30 430L30 500L400 500L400 435L120 70L405 70zM250 580L180 580L275 720L365 720z" />
      <glyph unicode="&#x17B;" horiz-adv-x="575" d="M540 0L35 0L35 65L435 625L40 625L40 700L535 700L535 635L135 75L540 75zM330 800L245 800L245 885L330 885z" />
      <glyph unicode="&#x17C;" horiz-adv-x="430" d="M405 0L25 0L25 65L305 430L30 430L30 500L400 500L400 435L120 70L405 70zM258 605L173 605L173 690L258 690z" />
      <glyph unicode="&#x17D;" horiz-adv-x="575" d="M540 0L35 0L35 65L435 625L40 625L40 700L535 700L535 635L135 75L540 75zM327 770L247 770L132 905L212 905L287 815L362 905L442 905z" />
      <glyph unicode="&#x17E;" horiz-adv-x="430" d="M405 0L25 0L25 65L305 430L30 430L30 500L400 500L400 435L120 70L405 70zM255 580L175 580L60 715L140 715L215 625L290 715L370 715z" />
      <glyph unicode="&#x18F;" horiz-adv-x="755" d="M370 -10C253 4 205 32 308 -10C118 99 91 150 156 60C50 259 50 325 63 201L50 385L625 385C606 476 583 514 620 433C529 581 492 603 559 552C414 635 370 635 455 624C185 579 145 490 274 635L60 490C228 710 370 710 104 623C487 694 539 664 431 710C630 591 660 537 590 634C705 420 705 350 690 482C690 217 660 163 705 280C590 65 539 35 630 108C431 -10 370 -10 487 5zM370 65C455 75 492 97 414 65C559 148 583 186 529 118C620 267 625 315 606 224L130 315C140 222 160 184 130 265C209 117 246 96 180 146C324 65 370 65 282 75z" />
      <glyph unicode="&#x192;" horiz-adv-x="375" d="M-70 -200L-55 -130L5 -130C49 -111 55 -85 33 -130L150 350L55 350L70 420L165 420L200 580C257 680 325 680 213 641L400 680L385 610L325 610C280 591 275 565 297 610L245 420L345 420L330 350L230 350L130 -100C73 -200 5 -200 116 -161z" />
      <glyph unicode="&#x1A0;" horiz-adv-x="770" d="M596 635C720 471 720 350 673 571C705 217 675 163 720 280C605 65 554 35 645 108C446 -10 385 -10 502 5C267 5 216 35 323 -10C124 108 94 163 164 65C50 280 50 350 64 217C64 482 94 537 50 420C164 634 216 664 124 591C323 710 385 710 267 694C460 703 497 691 423 710L555 691C605 706 605 738 588 691C600 770 592 790 605 753L662 790C675 748 675 724 670 770C645 639 596 635 675 673zM385 65C474 77 513 101 431 65C583 158 606 202 552 125C640 294 640 350 628 245C628 454 606 498 640 405C552 575 513 599 583 541C431 635 385 635 474 623C295 623 256 599 338 635C186 541 164 498 217 575C130 405 130 350 141 454C141 245 164 202 130 294C217 125 256 101 186 158C338 65 385 65 295 77z" />
      <glyph unicode="&#x1A1;" horiz-adv-x="560" d="M448 441C520 328 520 250 493 394C509 154 488 115 520 199C438 45 402 23 467 75C324 -10 280 -10 365 1C194 1 158 23 235 -10C92 75 71 115 121 45C40 199 40 250 50 154C50 345 71 385 40 300C121 455 158 477 92 424C235 510 280 510 194 499C339 505 365 495 310 510L403 495C440 509 440 533 427 495C435 575 427 595 440 555L497 595C510 555 510 533 505 575C486 451 448 441 510 485zM280 60C337 67 363 83 310 60C408 121 423 150 388 99C445 212 445 250 437 179C437 320 423 349 445 287C388 400 363 416 408 378C310 440 280 440 337 432C222 432 197 416 250 440C151 378 137 349 171 400C115 287 115 250 122 320C122 179 137 150 115 212C171 99 197 83 151 121C250 60 280 60 222 67z" />
      <glyph unicode="&#x1AF;" horiz-adv-x="700" d="M712 800C725 760 725 738 720 780C691 643 635 643 725 678L620 643L620 275C608 170 584 127 620 219C527 50 485 26 560 83C396 -10 345 -10 443 2C247 2 205 26 293 -10C130 83 106 127 163 50C70 219 70 275 82 170L70 700L150 700L150 275C158 198 175 166 150 234C215 109 245 91 192 134C308 65 345 65 275 73C414 73 444 91 381 65C497 134 514 166 474 109C540 234 540 275 531 198L540 700L618 700C655 714 655 738 642 700C650 780 642 800 655 760z" />
      <glyph unicode="&#x1B0;" horiz-adv-x="585" d="M592 600C605 560 605 538 600 580C571 443 515 443 605 478L500 443L500 0L435 0L425 55L420 55C336 -10 270 -10 392 20C197 -1 167 16 232 -10C113 59 96 91 137 34C70 159 70 200 78 123L70 500L145 500L145 200C151 150 163 129 145 174C191 90 212 78 175 107C255 60 280 60 232 66C330 66 352 79 306 60C392 109 405 131 374 92C425 175 425 200 418 152L425 500L498 500C535 514 535 538 522 500C530 580 522 600 535 560z" />
      <glyph unicode="&#x1F4;" horiz-adv-x="770" d="M410 360L700 360L700 0L635 0L625 100L620 100C485 -10 385 -10 576 44C267 5 216 35 323 -10C124 108 94 163 164 65C50 280 50 350 64 217C64 482 94 537 50 420C164 634 216 664 124 591C323 710 385 710 267 694C651 623 695 490 526 710L610 490C481 635 385 635 570 579C295 623 256 599 338 635C186 541 164 498 217 575C130 405 130 350 141 454C141 245 164 202 130 294C217 125 256 101 186 158C338 65 385 65 295 77C464 75 500 95 425 65C565 142 587 176 536 115C620 244 620 280 609 209L620 290L410 290zM416 770L346 770L441 910L531 910z" />
      <glyph unicode="&#x1F5;" horiz-adv-x="580" d="M285 -210C201 -202 168 -186 240 -210C108 -149 90 -123 134 -170C62 -69 60 -40 72 -97L135 -40C195 -140 285 -140 140 -94C435 -85 435 0 375 -140L435 90L430 90C334 20 270 20 390 44C187 30 152 51 226 20C90 100 70 138 117 71C40 217 40 265 50 175C50 354 70 392 40 312C117 458 152 479 90 429C226 510 270 510 187 499C394 480 430 435 334 510L435 435L445 500L510 500L510 0C501 -77 483 -109 510 -41C439 -165 405 -183 465 -141C331 -210 285 -210 371 -201zM275 90C332 97 356 112 305 90C400 147 414 174 380 126C435 231 435 265 428 200C428 329 414 356 435 299C380 403 356 418 400 382C305 440 275 440 332 432C217 432 193 418 245 440C150 382 136 356 169 403C115 299 115 265 122 329C122 200 136 174 115 231C169 126 193 112 150 147C245 90 275 90 217 97zM325 580L255 580L350 720L440 720z" />
      <glyph unicode="&#x1FA;" horiz-adv-x="650" d="M650 0L565 0L498 180L152 180L85 0L0 0L265 700L385 700zM315 615L180 255L470 255L335 615zM325 750C235 790 235 840 274 750C268 924 315 930 235 889L345 980L415 980L370 920C415 875 415 840 400 902C374 750 325 750 415 790zM325 800C365 816 365 840 346 800C346 880 325 880 365 864C285 864 285 840 303 880C303 800 325 800 285 816z" />
      <glyph unicode="&#x1FB;" horiz-adv-x="530" d="M225 -10C50 54 50 145 121 -10C115 305 250 305 50 245L385 305L385 320C339 440 265 440 385 394C145 403 140 355 193 440L65 355C76 407 92 431 67 382C130 474 160 488 108 455C225 510 265 510 190 502C460 438 460 320 386 510L460 0L395 0L385 60L380 60C298 -10 225 -10 357 24zM225 60C385 119 385 215 325 60L385 235L250 235C125 198 125 145 164 235C161 60 225 60 125 94zM265 550C175 590 175 640 214 550C208 724 255 730 175 689L285 780L355 780L310 720C355 675 355 640 340 702C314 550 265 550 355 590zM265 600C305 616 305 640 286 600C286 680 265 680 305 664C225 664 225 640 243 680C243 600 265 600 225 616z" />
      <glyph unicode="&#x1FC;" horiz-adv-x="925" d="M870 700L870 625L500 625L500 390L850 390L850 315L500 315L500 75L870 75L870 0L420 0L420 175L151 175L75 0L-10 0L295 700zM345 625L183 250L420 250L420 625zM494 770L424 770L519 910L609 910z" />
      <glyph unicode="&#x1FD;" horiz-adv-x="885" d="M845 270C843 233 840 220 845 250L460 220C534 60 620 60 470 125C724 89 750 140 678 60L830 140C722 -10 620 -10 794 42C459 36 425 100 541 -10C309 -10 225 -10 391 36C160 -3 134 9 191 -10C86 40 72 63 107 22C50 112 50 140 57 86C115 295 250 295 50 234L385 295L385 320C339 440 265 440 385 394C145 403 140 355 193 440L65 355C76 407 92 431 67 382C130 474 160 488 108 455C225 510 265 510 190 502C408 467 435 405 346 510C534 510 620 510 472 469C702 500 736 480 663 510C796 431 816 395 770 460C845 317 845 270 835 359zM770 290C702 440 620 440 764 382C469 383 460 290 533 440zM225 60C385 119 385 215 325 60L385 225L250 225C125 192 125 140 167 225C162 60 225 60 125 93zM478 580L408 580L503 720L593 720z" />
      <glyph unicode="&#x1FE;" horiz-adv-x="770" d="M583 645C720 476 720 350 668 581C705 217 675 163 720 280C605 65 554 35 645 108C446 -10 385 -10 502 5C293 -1 252 17 337 -10L225 -35L140 -35L187 55C50 223 50 350 101 119C64 482 94 537 50 420C164 634 216 664 124 591C323 710 385 710 267 694C476 701 518 683 432 710L545 735L630 735zM130 350C165 177 224 125 130 256L482 615C419 635 385 635 451 628C295 623 256 599 338 635C186 541 164 498 217 575C130 405 130 350 141 454zM385 65C474 77 513 101 431 65C583 158 606 202 552 125C640 294 640 350 628 245C604 523 546 575 640 443L288 85C351 65 385 65 318 71zM419 770L349 770L444 910L534 910z" />
      <glyph unicode="&#x1FF;" horiz-adv-x="560" d="M429 458C520 338 520 250 486 412C509 154 488 115 520 199C438 45 402 23 467 75C324 -10 280 -10 365 1C216 -4 188 8 246 -10L165 -35L90 -35L131 42C40 162 40 250 73 87C50 345 71 385 40 300C121 455 158 477 92 424C235 510 280 510 194 499C344 504 372 492 313 510L395 535L470 535zM115 250C133 142 167 109 115 192L338 429C300 440 280 440 319 436C222 432 197 416 250 440C151 378 137 349 171 400C115 287 115 250 122 320zM280 60C337 67 363 83 310 60C408 121 423 150 388 99C445 212 445 250 437 179C426 357 393 391 445 307L222 71C260 60 280 60 240 63zM315 580L245 580L340 720L430 720z" />
      <glyph unicode="&#x218;" horiz-adv-x="615" d="M310 -10C210 0 170 19 256 -10C99 65 77 98 130 39C45 166 45 205 55 130L125 205C132 156 146 135 125 179C182 96 210 84 160 113C271 65 310 65 238 71C485 115 485 190 428 65C445 290 365 305 485 250L230 330C60 411 60 510 116 351C69 583 89 613 60 548C136 666 172 684 108 643C251 710 300 710 208 701C397 700 437 681 352 710C506 636 528 604 476 662C560 535 560 495 549 571L480 495C472 543 458 565 480 520C423 603 396 616 444 586C337 635 300 635 369 628C140 583 140 510 198 635C177 413 255 400 140 454L365 380C565 295 565 190 503 354C555 116 535 86 565 151C486 32 448 15 515 56C363 -10 310 -10 409 -1zM295 -245L235 -245L265 -85L350 -85z" />
      <glyph unicode="&#x219;" horiz-adv-x="460" d="M230 -10C154 -2 124 11 190 -10C70 44 54 68 94 25C30 117 30 145 38 92L105 145C152 60 230 60 105 98C350 92 350 135 306 60C323 199 265 210 350 175L180 225C40 287 40 365 86 241C105 510 225 510 40 449C297 502 327 488 263 510C380 455 396 431 357 474C420 381 420 355 412 407L345 355C297 440 225 440 345 401C115 407 115 365 154 440C137 305 195 295 115 327L280 280C425 215 425 135 380 262C355 -10 230 -10 425 51zM220 -245L160 -245L190 -85L275 -85z" />
      <glyph unicode="&#x21A;" horiz-adv-x="590" d="M335 0L255 0L255 625L25 625L25 700L565 700L565 625L335 625zM285 -245L225 -245L255 -85L340 -85z" />
      <glyph unicode="&#x21B;" horiz-adv-x="340" d="M195 0C105 34 105 85 140 0L105 430L25 430L25 500L105 500L105 640L180 640L180 500L295 500L295 430L180 430L180 100C190 70 210 70 180 80L295 70L295 0zM190 -245L130 -245L160 -85L245 -85z" />
      <glyph unicode="&#x232;" horiz-adv-x="590" d="M335 0L255 0L255 265L0 700L85 700L285 355L305 355L505 700L590 700L335 265zM435 813L155 813L155 873L435 873z" />
      <glyph unicode="&#x233;" horiz-adv-x="495" d="M405 500L485 500L260 -130C218 -200 165 -200 242 -178L65 -200L65 -130L160 -130C188 -120 195 -100 176 -130L215 -40L10 500L90 500L245 85L265 85zM395 618L115 618L115 678L395 678z" />
      <glyph unicode="&#x237;" horiz-adv-x="215" d="M-35 -200L-35 -130L40 -130C70 -120 70 -100 60 -130L70 500L145 500L145 -115C109 -200 55 -200 145 -165z" />
      <glyph unicode="&#x244;" horiz-adv-x="760" d="M750 503L750 428L655 428L655 275C643 170 619 127 655 219C562 50 520 26 595 83C431 -10 380 -10 478 2C282 2 240 26 328 -10C165 83 141 127 198 50C105 219 105 275 117 170L105 428L10 428L10 503L105 503L105 700L185 700L185 503L575 503L575 700L655 700L655 503zM575 428L185 428L185 275C193 198 210 166 185 234C250 109 280 91 227 134C343 65 380 65 310 73C449 73 479 91 416 65C532 134 549 166 509 109C575 234 575 275 566 198z" />
      <glyph unicode="&#x259;" horiz-adv-x="550" d="M270 -10C188 0 153 21 227 -10C90 70 70 106 117 41C40 184 40 230 50 142C41 275 45 285 40 256L435 285C355 440 270 440 425 378C160 410 135 360 210 440L55 360C166 510 270 510 89 456C355 499 392 477 314 510C457 424 478 385 428 455C510 300 510 250 499 345C499 154 478 115 510 199C428 45 392 23 457 75C314 -10 270 -10 355 1zM270 60C424 124 435 215 359 60L115 215C184 60 270 60 120 125z" />
      <glyph unicode="&#x289;" horiz-adv-x="610" d="M600 390L600 320L520 320L520 0L455 0L445 55L440 55C356 -10 290 -10 412 20C217 -1 187 16 252 -10C133 59 116 91 157 34C90 159 90 200 98 123L90 320L10 320L10 390L90 390L90 500L165 500L165 390L445 390L445 500L520 500L520 390zM445 320L165 320L165 200C171 150 183 129 165 174C211 90 232 78 195 107C275 60 300 60 252 66C350 66 372 79 326 60C412 109 425 131 394 92C445 175 445 200 438 152z" />
      <glyph unicode="&#x2BC;" horiz-adv-x="175" d="M90 540L30 540L60 700L145 700z" />
      <glyph unicode="&#x2C6;" horiz-adv-x="370" d="M110 580L30 580L145 715L225 715L340 580L260 580L185 670z" />
      <glyph unicode="&#x2C7;" horiz-adv-x="370" d="M225 580L145 580L30 715L110 715L185 625L260 715L340 715z" />
      <glyph unicode="&#x2D8;" horiz-adv-x="340" d="M170 585C35 635 30 710 94 585L95 710C128 640 170 640 100 666C239 666 245 710 211 640L310 710C246 585 170 585 304 635z" />
      <glyph unicode="&#x2D9;" horiz-adv-x="145" d="M115 605L30 605L30 690L115 690z" />
      <glyph unicode="&#x2DA;" horiz-adv-x="0" d="M-120 570C-210 610 -210 660 -170 570C-170 750 -120 750 -210 710C-30 710 -30 660 -70 750C-70 570 -120 570 -30 610zM-120 620C-80 636 -80 660 -98 620C-98 700 -120 700 -80 684C-160 684 -160 660 -141 700C-141 620 -120 620 -160 636z" />
      <glyph unicode="&#x2DB;" horiz-adv-x="180" d="M130 -165C30 -130 30 -80 66 -165C57 -10 85 0 30 -42L95 10L150 0C90 -44 90 -70 110 -20C107 -110 135 -110 90 -91L150 -110L150 -165z" />
      <glyph unicode="&#x2DC;" horiz-adv-x="375" d="M30 600C74 700 130 700 30 658C172 691 198 675 154 700C233 655 245 655 217 661C285 672 285 700 266 655L345 700C301 600 245 600 345 641C202 609 177 625 221 600C142 645 130 645 157 638C90 628 90 600 108 645z" />
      <glyph unicode="&#x2DD;" horiz-adv-x="405" d="M100 580L30 580L125 720L215 720zM260 580L190 580L285 720L375 720z" />
      <glyph unicode="&#x300;" horiz-adv-x="0" d="M-30 580L-100 580L-215 720L-125 720z" />
      <glyph unicode="&#x301;" horiz-adv-x="0" d="M-145 580L-215 580L-120 720L-30 720z" />
      <glyph unicode="&#x302;" horiz-adv-x="0" d="M-260 580L-340 580L-225 715L-145 715L-30 580L-110 580L-185 670z" />
      <glyph unicode="&#x303;" horiz-adv-x="0" d="M-345 600C-301 700 -245 700 -345 658C-202 691 -177 675 -221 700C-142 655 -130 655 -157 661C-90 672 -90 700 -108 655L-30 700C-74 600 -130 600 -30 641C-172 609 -198 625 -154 600C-233 645 -245 645 -217 638C-285 628 -285 600 -266 645z" />
      <glyph unicode="&#x304;" horiz-adv-x="0" d="M-30 618L-310 618L-310 678L-30 678z" />
      <glyph unicode="&#x306;" horiz-adv-x="0" d="M-170 585C-304 635 -310 710 -246 585L-245 710C-211 640 -170 640 -239 666C-100 666 -95 710 -128 640L-30 710C-94 585 -170 585 -35 635z" />
      <glyph unicode="&#x307;" horiz-adv-x="0" d="M-30 605L-115 605L-115 690L-30 690z" />
      <glyph unicode="&#x308;" horiz-adv-x="0" d="M-205 605L-290 605L-290 690L-205 690zM-30 605L-115 605L-115 690L-30 690z" />
      <glyph unicode="&#x309;" horiz-adv-x="0" d="M-128 550C-94 605 -94 627 -105 580C-108 665 -135 665 -94 648C-166 661 -182 652 -155 665L-182 712C-145 725 -121 725 -168 720C-30 689 -30 637 -63 725C-40 578 -61 550 -30 607z" />
      <glyph unicode="&#x30A;" horiz-adv-x="0" d="M-120 570C-210 610 -210 660 -170 570C-170 750 -120 750 -210 710C-30 710 -30 660 -70 750C-70 570 -120 570 -30 610zM-120 620C-80 636 -80 660 -98 620C-98 700 -120 700 -80 684C-160 684 -160 660 -141 700C-141 620 -120 620 -160 636z" />
      <glyph unicode="&#x30B;" horiz-adv-x="0" d="M-305 580L-375 580L-280 720L-190 720zM-145 580L-215 580L-120 720L-30 720z" />
      <glyph unicode="&#x30C;" horiz-adv-x="0" d="M-145 580L-225 580L-340 715L-260 715L-185 625L-110 715L-30 715z" />
      <glyph unicode="&#x312;" horiz-adv-x="0" d="M-74 580L-159 580L-95 750L-30 750z" />
      <glyph unicode="&#x31B;" horiz-adv-x="0" d="M-185 445L-185 502L-137 502C-100 516 -100 540 -114 502C-104 582 -113 602 -100 562L-43 602C-30 562 -30 540 -34 582C-64 445 -120 445 -30 480z" />
      <glyph unicode="&#x323;" horiz-adv-x="0" d="M-30 -150L-115 -150L-115 -65L-30 -65z" />
      <glyph unicode="&#x326;" horiz-adv-x="0" d="M-85 -245L-145 -245L-115 -85L-30 -85z" />
      <glyph unicode="&#x327;" horiz-adv-x="0" d="M-175 -200L-175 -150L-135 -150C-90 -136 -90 -115 -105 -150C-105 -80 -135 -80 -90 -93L-160 -80L-160 -45L-133 15L-80 0L-100 -45C-30 -84 -30 -120 -61 -50C-66 -200 -125 -200 -30 -166z" />
      <glyph unicode="&#x328;" horiz-adv-x="0" d="M-50 -165C-150 -130 -150 -80 -114 -165C-123 -10 -95 0 -150 -42L-85 10L-30 0C-90 -44 -90 -70 -70 -20C-73 -110 -45 -110 -90 -91L-30 -110L-30 -165z" />
      <glyph unicode="&#x3A9;" horiz-adv-x="820" d="M90 0L90 75L220 75C60 220 60 360 140 123C75 487 105 540 60 427C177 635 231 665 135 593C344 710 410 710 284 695C535 695 589 665 476 710C684 593 714 540 642 635C760 427 760 360 744 487C680 123 600 75 760 220L730 75L730 0L480 0L480 75C542 106 573 132 511 87C629 190 649 229 603 158C680 312 680 360 669 268C668 459 645 501 680 412C589 575 548 599 621 543C461 635 410 635 507 623C312 623 271 599 358 635C198 543 175 501 230 575C140 412 140 360 151 459C150 268 170 229 140 312C216 158 247 132 190 190C308 87 340 75 277 106L340 0z" />
      <glyph unicode="&#x400;" horiz-adv-x="585" d="M530 0L80 0L80 700L530 700L530 625L160 625L160 390L510 390L510 315L160 315L160 75L530 75zM345 770L275 770L160 910L250 910z" />
      <glyph unicode="&#x401;" horiz-adv-x="585" d="M530 0L80 0L80 700L530 700L530 625L160 625L160 390L510 390L510 315L160 315L160 75L530 75zM265 800L180 800L180 885L265 885zM440 800L355 800L355 885L440 885z" />
      <glyph unicode="&#x402;" horiz-adv-x="705" d="M400 -40C466 -31 493 -14 435 -40C541 28 557 60 520 3C580 131 580 175 572 92C522 375 420 375 580 297C317 360 265 330 361 375L265 0L185 0L185 625L0 625L0 700L450 700L450 625L265 625L265 405C351 450 425 450 313 434C660 343 660 175 573 450C650 71 631 27 660 120C582 -50 543 -76 611 -16C456 -115 400 -115 504 -102z" />
      <glyph unicode="&#x403;" horiz-adv-x="540" d="M160 0L80 0L80 700L520 700L520 625L160 625zM334 770L264 770L359 910L449 910z" />
      <glyph unicode="&#x404;" horiz-adv-x="730" d="M385 -10C267 5 216 35 323 -10C124 108 94 163 164 65C50 280 50 350 64 217C64 482 94 537 50 420C164 634 216 664 124 591C323 710 385 710 267 694C478 700 520 681 433 710C599 635 629 601 562 662C681 526 695 480 659 566L610 480C489 635 385 635 575 576C301 624 264 604 341 635C197 554 174 517 227 583C138 437 135 390 151 479L475 390L475 315L135 315C151 223 174 185 138 266C227 117 264 96 197 147C341 65 385 65 301 75C575 125 610 225 490 65L695 225C663 136 633 100 683 177C566 37 524 18 603 64C435 -10 385 -10 481 0z" />
      <glyph unicode="&#x405;" horiz-adv-x="615" d="M310 -10C210 0 170 19 256 -10C99 65 77 98 130 39C45 166 45 205 55 130L125 205C132 156 146 135 125 179C182 96 210 84 160 113C271 65 310 65 238 71C485 115 485 190 428 65C445 290 365 305 485 250L230 330C60 411 60 510 116 351C69 583 89 613 60 548C136 666 172 684 108 643C251 710 300 710 208 701C397 700 437 681 352 710C506 636 528 604 476 662C560 535 560 495 549 571L480 495C472 543 458 565 480 520C423 603 396 616 444 586C337 635 300 635 369 628C140 583 140 510 198 635C177 413 255 400 140 454L365 380C565 295 565 190 503 354C555 116 535 86 565 151C486 32 448 15 515 56C363 -10 310 -10 409 -1z" />
      <glyph unicode="&#x406;" horiz-adv-x="240" d="M160 0L80 0L80 700L160 700z" />
      <glyph unicode="&#x407;" horiz-adv-x="240" d="M160 0L80 0L80 700L160 700zM75 800L-10 800L-10 885L75 885zM250 800L165 800L165 885L250 885z" />
      <glyph unicode="&#x408;" horiz-adv-x="385" d="M10 0L10 75L180 75C230 95 230 125 210 75L230 700L310 700L310 115C268 0 190 0 310 43z" />
      <glyph unicode="&#x409;" horiz-adv-x="1020" d="M10 -5L10 75L45 75C114 101 120 155 86 75L165 700L580 700L580 410L770 410C844 401 876 384 809 410C931 342 949 311 907 366C975 244 975 205 966 279C966 130 949 99 975 165C907 43 876 26 931 67C809 0 770 0 844 8L500 0L500 625L240 625L200 155C141 -5 45 -5 190 45zM770 75C895 125 895 205 846 75C846 335 770 335 895 285L580 335L580 75z" />
      <glyph unicode="&#x40A;" horiz-adv-x="1030" d="M80 0L80 700L160 700L160 400L510 400L510 700L590 700L590 400L780 400C854 391 886 374 819 400C941 332 959 302 917 356C985 238 985 200 976 272C976 127 959 97 985 162C917 43 886 26 941 67C819 0 780 0 854 8L510 0L510 325L160 325L160 0zM780 75C905 125 905 200 854 75C854 325 780 325 905 274L590 325L590 75z" />
      <glyph unicode="&#x40B;" horiz-adv-x="715" d="M185 0L185 625L0 625L0 700L450 700L450 625L265 625L265 405C353 450 425 450 310 434C645 365 645 225 561 450L645 0L565 0L565 225C511 375 425 375 565 322C317 362 265 330 359 375L265 0z" />
      <glyph unicode="&#x40C;" horiz-adv-x="555" d="M160 0L80 0L80 700L160 700L160 370L455 700L555 700L245 355L575 0L474 0L160 340zM340 770L270 770L365 910L455 910z" />
      <glyph unicode="&#x40D;" horiz-adv-x="710" d="M215 0L80 0L80 700L160 700L160 95L180 95L495 700L630 700L630 0L550 0L550 605L530 605zM390 770L320 770L205 910L295 910z" />
      <glyph unicode="&#x40E;" horiz-adv-x="610" d="M515 700L600 700L315 70C261 0 200 0 295 26L100 0L100 75L195 75C239 83 250 110 224 75L270 155L10 700L95 700L300 265L320 265zM310 780C175 830 170 905 234 780L235 905C268 835 310 835 240 861C379 861 385 905 351 835L450 905C386 780 310 780 444 830z" />
      <glyph unicode="&#x40F;" horiz-adv-x="690" d="M385 -140L305 -140L305 0L80 0L80 700L160 700L160 75L530 75L530 700L610 700L610 0L385 0z" />
      <glyph unicode="&#x410;" horiz-adv-x="650" d="M650 0L565 0L498 180L152 180L85 0L0 0L265 700L385 700zM315 615L180 255L470 255L335 615z" />
      <glyph unicode="&#x411;" horiz-adv-x="635" d="M80 0L80 700L550 700L550 625L160 625L160 400L395 400C461 391 490 375 429 400C542 334 559 304 519 358C585 239 585 200 576 274C576 125 559 95 585 160C519 41 490 25 542 65C429 0 395 0 461 8zM395 75C505 125 505 200 460 75C460 325 395 325 505 274L160 325L160 75z" />
      <glyph unicode="&#x412;" horiz-adv-x="640" d="M80 0L80 700L380 700C446 691 475 674 414 700C527 633 544 603 504 656C570 541 570 505 561 573C532 377 495 355 570 434L495 350C580 272 580 195 539 330C571 126 554 96 580 159C514 43 485 26 537 66C424 0 390 0 456 8zM380 385C490 435 490 505 441 385C441 625 380 625 490 574L160 625L160 385zM390 75C500 125 500 195 451 75C451 315 390 315 500 264L160 315L160 75z" />
      <glyph unicode="&#x413;" horiz-adv-x="540" d="M160 0L80 0L80 700L520 700L520 625L160 625z" />
      <glyph unicode="&#x414;" horiz-adv-x="680" d="M0 -140L0 75L15 75C89 100 95 155 65 75L140 700L575 700L575 75L650 75L650 -140L570 -140L570 0L80 0L80 -140zM495 75L495 625L215 625L175 155C157 81 145 75 171 112z" />
      <glyph unicode="&#x415;" horiz-adv-x="585" d="M530 0L80 0L80 700L530 700L530 625L160 625L160 390L510 390L510 315L160 315L160 75L530 75z" />
      <glyph unicode="&#x416;" horiz-adv-x="800" d="M95 0L0 0L275 355L20 700L116 700L360 370L360 700L440 700L440 370L684 700L780 700L525 355L800 0L705 0L440 345L440 0L360 0L360 345z" />
      <glyph unicode="&#x417;" horiz-adv-x="595" d="M290 -10C192 -1 154 16 238 -10C86 58 66 89 116 34C35 153 35 190 45 119L115 190C121 147 135 128 115 168C169 94 195 82 149 109C253 65 290 65 221 70C356 70 383 82 325 65C430 109 444 128 409 94C465 168 465 190 458 147C458 232 446 251 465 212C415 285 393 297 433 270C344 315 315 315 370 309L245 315L245 390L315 390C450 443 450 510 393 390C387 635 290 635 450 582C229 629 205 617 258 635C162 590 149 571 181 605C130 532 130 510 136 552L50 510C59 580 79 611 50 546C126 665 162 683 98 641C241 710 290 710 198 701C380 700 417 682 338 710C481 639 501 609 453 664C530 545 530 510 520 578C476 372 420 355 530 430L420 350C545 272 545 190 484 332C534 119 514 89 545 153C463 34 425 16 493 58C342 -10 290 -10 387 -1z" />
      <glyph unicode="&#x418;" horiz-adv-x="710" d="M215 0L80 0L80 700L160 700L160 95L180 95L495 700L630 700L630 0L550 0L550 605L530 605z" />
      <glyph unicode="&#x419;" horiz-adv-x="710" d="M215 0L80 0L80 700L160 700L160 95L180 95L495 700L630 700L630 0L550 0L550 605L530 605zM355 780C220 830 215 905 279 780L280 905C313 835 355 835 285 861C424 861 430 905 396 835L495 905C431 780 355 780 489 830z" />
      <glyph unicode="&#x41A;" horiz-adv-x="555" d="M160 0L80 0L80 700L160 700L160 370L455 700L555 700L245 355L575 0L474 0L160 340z" />
      <glyph unicode="&#x41B;" horiz-adv-x="680" d="M10 -5L10 75L45 75C114 101 120 155 86 75L165 700L600 700L600 0L520 0L520 625L240 625L200 155C141 -5 45 -5 190 45z" />
      <glyph unicode="&#x41C;" horiz-adv-x="900" d="M160 0L80 0L80 700L225 700L440 90L460 90L675 700L820 700L820 0L740 0L740 595L720 595L510 0L390 0L180 595L160 595z" />
      <glyph unicode="&#x41D;" horiz-adv-x="710" d="M160 0L80 0L80 700L160 700L160 390L550 390L550 700L630 700L630 0L550 0L550 315L160 315z" />
      <glyph unicode="&#x41E;" horiz-adv-x="770" d="M385 -10C267 5 216 35 323 -10C124 108 94 163 164 65C50 280 50 350 64 217C64 482 94 537 50 420C164 634 216 664 124 591C323 710 385 710 267 694C502 694 554 664 446 710C645 591 675 537 605 634C720 420 720 350 705 482C705 217 675 163 720 280C605 65 554 35 645 108C446 -10 385 -10 502 5zM385 65C474 77 513 101 431 65C583 158 606 202 552 125C640 294 640 350 628 245C628 454 606 498 640 405C552 575 513 599 583 541C431 635 385 635 474 623C295 623 256 599 338 635C186 541 164 498 217 575C130 405 130 350 141 454C141 245 164 202 130 294C217 125 256 101 186 158C338 65 385 65 295 77z" />
      <glyph unicode="&#x41F;" horiz-adv-x="710" d="M160 0L80 0L80 700L630 700L630 0L550 0L550 625L160 625z" />
      <glyph unicode="&#x420;" horiz-adv-x="635" d="M80 0L80 700L385 700C455 690 485 672 421 700C540 627 558 595 515 653C585 525 585 485 576 562C576 407 558 375 585 444C515 316 485 298 540 342C421 270 385 270 455 279L160 270L160 0zM385 345C505 402 505 485 451 345C451 625 385 625 505 567L160 625L160 345z" />
      <glyph unicode="&#x421;" horiz-adv-x="730" d="M385 -10C267 5 216 35 323 -10C124 108 94 163 164 65C50 280 50 350 64 217C64 482 94 537 50 420C164 634 216 664 124 591C323 710 385 710 267 694C655 620 695 475 535 710L610 475C490 635 385 635 575 575C295 623 256 599 338 635C186 541 164 498 217 575C130 405 130 350 141 454C141 245 164 202 130 294C217 125 256 101 186 158C338 65 385 65 295 77C575 126 610 230 490 65L695 230C535 -10 385 -10 655 80z" />
      <glyph unicode="&#x422;" horiz-adv-x="590" d="M335 0L255 0L255 625L25 625L25 700L565 700L565 625L335 625z" />
      <glyph unicode="&#x423;" horiz-adv-x="610" d="M515 700L600 700L315 70C261 0 200 0 295 26L100 0L100 75L195 75C239 83 250 110 224 75L270 155L10 700L95 700L300 265L320 265z" />
      <glyph unicode="&#x424;" horiz-adv-x="800" d="M455 630C571 618 617 595 517 630C698 539 723 499 663 571C760 412 760 360 747 458C747 261 723 221 760 308C663 148 617 125 698 180C517 90 455 90 571 101L440 90L440 -20L360 -20L360 90L345 90C229 101 183 125 283 90C101 180 77 221 137 148C40 308 40 360 52 261C52 458 77 499 40 412C137 571 183 595 101 539C283 630 345 630 229 618L360 630L360 720L440 720L440 630zM120 360C129 287 147 257 120 321C191 203 225 186 165 227C299 160 345 160 259 168L360 160L360 560L345 560C259 551 225 534 299 560C165 493 147 463 191 516C120 398 120 360 129 433zM455 160C540 168 574 186 501 160C634 227 652 257 608 203C680 321 680 360 670 287C670 433 652 463 680 398C608 516 574 534 634 493C501 560 455 560 540 551L440 560L440 160z" />
      <glyph unicode="&#x425;" horiz-adv-x="620" d="M101 0L10 0L255 360L25 700L115 700L300 425L320 425L505 700L595 700L365 360L610 0L519 0L320 295L300 295z" />
      <glyph unicode="&#x426;" horiz-adv-x="715" d="M685 -140L605 -140L605 0L80 0L80 700L160 700L160 75L530 75L530 700L610 700L610 75L685 75z" />
      <glyph unicode="&#x427;" horiz-adv-x="665" d="M505 300C387 235 310 235 465 266C65 315 65 485 144 235L65 700L145 700L145 485C199 310 310 310 145 366C469 344 505 380 392 310L505 700L585 700L585 0L505 0z" />
      <glyph unicode="&#x428;" horiz-adv-x="950" d="M870 0L80 0L80 700L160 700L160 75L435 75L435 700L515 700L515 75L790 75L790 700L870 700z" />
      <glyph unicode="&#x429;" horiz-adv-x="975" d="M945 -140L865 -140L865 0L80 0L80 700L160 700L160 75L435 75L435 700L515 700L515 75L790 75L790 700L870 700L870 75L945 75z" />
      <glyph unicode="&#x42A;" horiz-adv-x="695" d="M165 0L165 625L10 625L10 700L245 700L245 440L445 440C517 430 549 411 483 440C605 365 623 331 580 391C650 260 650 220 641 297C641 142 623 108 650 179C580 48 549 29 605 74C483 0 445 0 517 9zM445 75C570 136 570 220 515 75C515 365 445 365 570 304L245 365L245 75z" />
      <glyph unicode="&#x42B;" horiz-adv-x="795" d="M80 0L80 700L160 700L160 440L350 440C422 430 454 411 388 440C510 365 528 331 485 391C555 260 555 220 546 297C546 142 528 108 555 179C485 48 454 29 510 74C388 0 350 0 422 9zM715 0L635 0L635 700L715 700zM350 75C475 136 475 220 420 75C420 365 350 365 475 304L160 365L160 75z" />
      <glyph unicode="&#x42C;" horiz-adv-x="620" d="M80 0L80 700L160 700L160 440L370 440C442 430 474 411 408 440C530 365 548 331 505 391C575 260 575 220 566 297C566 142 548 108 575 179C505 48 474 29 530 74C408 0 370 0 442 9zM370 75C495 136 495 220 440 75C440 365 370 365 495 304L160 365L160 75z" />
      <glyph unicode="&#x42D;" horiz-adv-x="730" d="M345 -10C248 0 206 18 295 -10C127 64 97 100 163 37C46 177 35 225 67 136L120 225C239 65 345 65 154 125C428 75 465 96 388 65C532 147 555 185 502 117C591 266 595 315 578 223L255 315L255 390L595 390C578 479 555 517 591 437C502 583 465 604 532 554C388 635 345 635 428 624C154 576 120 480 241 635L35 480C70 566 100 601 48 526C167 662 209 681 130 635C297 710 345 710 251 700C462 694 514 664 406 710C605 591 635 537 565 634C680 420 680 350 665 482C665 217 635 163 680 280C565 65 514 35 605 108C406 -10 345 -10 462 5z" />
      <glyph unicode="&#x42E;" horiz-adv-x="950" d="M585 -10C479 3 433 31 530 -10C349 96 320 145 387 58C274 251 270 315 291 194L160 315L160 0L80 0L80 700L160 700L160 390L270 390C294 510 323 558 276 454C389 644 435 670 352 606C530 710 585 710 480 696C696 694 744 664 643 710C830 591 858 537 792 634C900 420 900 350 886 482C886 217 858 163 900 280C792 65 744 35 830 108C643 -10 585 -10 696 5zM585 65C668 76 704 100 628 65C768 156 789 200 740 123C820 293 820 350 809 243C809 456 789 500 820 406C740 576 704 600 768 543C628 635 585 635 668 623C502 623 466 600 541 635C401 543 381 500 430 576C350 406 350 350 360 456C360 243 381 200 350 293C430 123 466 100 401 156C541 65 585 65 502 76z" />
      <glyph unicode="&#x42F;" horiz-adv-x="640" d="M560 700L560 0L480 0L480 270L410 270L140 0L40 0L310 270L255 270C184 279 154 298 218 270C100 342 82 375 124 316C55 444 55 485 64 407C64 562 82 595 55 525C124 653 154 672 100 627C218 700 255 700 184 690zM480 345L480 625L255 625C135 567 135 485 188 625C188 345 255 345 135 402z" />
      <glyph unicode="&#x430;" horiz-adv-x="530" d="M225 -10C50 54 50 145 121 -10C115 305 250 305 50 245L385 305L385 320C339 440 265 440 385 394C145 403 140 355 193 440L65 355C76 407 92 431 67 382C130 474 160 488 108 455C225 510 265 510 190 502C460 438 460 320 386 510L460 0L395 0L385 60L380 60C298 -10 225 -10 357 24zM225 60C385 119 385 215 325 60L385 235L250 235C125 198 125 145 164 235C161 60 225 60 125 94z" />
      <glyph unicode="&#x431;" horiz-adv-x="555" d="M280 -10C195 0 159 22 235 -10C95 73 75 113 123 43C45 198 45 250 55 152L45 280C83 552 185 610 45 453C275 645 353 653 230 635C418 681 420 725 399 658L485 725C444 595 359 587 483 641C256 571 220 550 299 581C128 460 120 385 162 515L125 385C220 465 290 465 165 438C369 454 403 434 331 465C465 386 485 350 437 414C515 274 515 230 505 314C504 142 484 106 515 184C436 41 400 21 464 70C324 -10 280 -10 364 0zM280 60C337 67 361 81 310 60C405 116 419 142 385 95C440 197 440 230 433 168C433 292 419 318 440 262C385 364 361 378 405 344C310 400 280 400 337 392C222 392 198 378 250 400C155 344 141 318 174 364C120 262 120 230 127 292C127 168 141 142 120 197C174 95 198 81 155 116C250 60 280 60 222 67z" />
      <glyph unicode="&#x432;" horiz-adv-x="520" d="M70 0L70 500L330 500C470 445 470 360 415 500C440 271 410 255 470 309L410 250C480 198 480 142 446 236C420 0 340 0 480 60zM320 285C395 316 395 360 361 285C361 435 320 435 395 404L145 435L145 285zM330 65C405 96 405 142 371 65C371 220 330 220 405 188L145 220L145 65z" />
      <glyph unicode="&#x433;" horiz-adv-x="410" d="M145 0L70 0L70 500L390 500L390 430L145 430z" />
      <glyph unicode="&#x434;" horiz-adv-x="535" d="M0 -120L0 70L10 70C76 90 80 140 55 70L110 500L445 500L445 70L515 70L515 -120L440 -120L440 0L75 0L75 -120zM370 70L370 430L180 430L155 140C140 76 130 70 152 104z" />
      <glyph unicode="&#x435;" horiz-adv-x="550" d="M280 -10C194 1 158 23 235 -10C92 75 71 115 121 45C40 199 40 250 50 154C50 345 71 385 40 300C121 455 158 477 92 424C235 510 280 510 194 499C361 499 397 479 322 510C460 429 480 393 432 458C510 316 510 270 500 357C508 225 505 215 510 243L115 215C194 60 280 60 124 121C389 89 415 140 340 60L495 140C384 -10 280 -10 460 44zM435 285C365 440 280 440 429 375C125 375 115 285 190 440z" />
      <glyph unicode="&#x436;" horiz-adv-x="645" d="M90 0L0 0L205 255L15 500L105 500L285 265L285 500L360 500L360 265L540 500L630 500L440 255L645 0L555 0L360 245L360 0L285 0L285 245z" />
      <glyph unicode="&#x437;" horiz-adv-x="460" d="M225 -10C152 -2 122 12 186 -10C70 46 54 72 92 26C30 125 30 155 38 97L105 155C153 60 225 60 105 103C345 92 345 140 306 60C302 220 230 220 345 186L185 220L185 285L230 285C335 318 335 365 298 285C295 440 225 440 335 407C115 402 115 350 157 440L40 350C47 407 63 431 40 380C101 475 129 489 79 455C189 510 225 510 157 503C410 448 410 364 341 510C370 268 330 255 410 308L330 250C420 196 420 139 379 239C346 -10 225 -10 420 52z" />
      <glyph unicode="&#x438;" horiz-adv-x="555" d="M200 0L70 0L70 500L145 500L145 90L165 90L355 500L485 500L485 0L410 0L410 410L390 410z" />
      <glyph unicode="&#x439;" horiz-adv-x="555" d="M200 0L70 0L70 500L145 500L145 90L165 90L355 500L485 500L485 0L410 0L410 410L390 410zM280 585C145 635 140 710 204 585L205 710C238 640 280 640 210 666C349 666 355 710 321 640L420 710C356 585 280 585 414 635z" />
      <glyph unicode="&#x43A;" horiz-adv-x="475" d="M145 0L70 0L70 500L145 500L145 270L369 500L465 500L225 255L475 0L379 0L145 240z" />
      <glyph unicode="&#x43B;" horiz-adv-x="540" d="M10 -5L10 70L40 70C101 92 105 140 77 70L135 500L470 500L470 0L395 0L395 430L205 430L180 140C125 -5 40 -5 170 41z" />
      <glyph unicode="&#x43C;" horiz-adv-x="710" d="M145 0L70 0L70 500L210 500L345 85L365 85L500 500L640 500L640 0L565 0L565 410L545 410L410 0L300 0L165 410L145 410z" />
      <glyph unicode="&#x43D;" horiz-adv-x="555" d="M145 0L70 0L70 500L145 500L145 285L410 285L410 500L485 500L485 0L410 0L410 215L145 215z" />
      <glyph unicode="&#x43E;" horiz-adv-x="560" d="M280 -10C194 1 158 23 235 -10C92 75 71 115 121 45C40 199 40 250 50 154C50 345 71 385 40 300C121 455 158 477 92 424C235 510 280 510 194 499C365 499 402 477 324 510C467 424 488 385 438 455C520 300 520 250 509 345C509 154 488 115 520 199C438 45 402 23 467 75C324 -10 280 -10 365 1zM280 60C337 67 363 83 310 60C408 121 423 150 388 99C445 212 445 250 437 179C437 320 423 349 445 287C388 400 363 416 408 378C310 440 280 440 337 432C222 432 197 416 250 440C151 378 137 349 171 400C115 287 115 250 122 320C122 179 137 150 115 212C171 99 197 83 151 121C250 60 280 60 222 67z" />
      <glyph unicode="&#x43F;" horiz-adv-x="555" d="M145 0L70 0L70 500L485 500L485 0L410 0L410 430L145 430z" />
      <glyph unicode="&#x440;" horiz-adv-x="580" d="M70 -200L70 500L135 500L145 430L150 430C242 510 310 510 191 482C392 499 427 477 353 510C490 424 510 385 462 455C540 300 540 250 530 345C530 154 510 115 540 199C462 45 427 23 490 75C353 -10 310 -10 392 1C191 18 150 70 242 -10L145 70L145 -200zM305 60C360 68 384 84 333 60C428 122 443 151 408 100C465 212 465 250 457 179C457 320 443 349 465 287C408 400 384 416 428 377C333 440 305 440 360 432C249 432 225 416 276 440C181 377 167 349 201 400C145 287 145 250 152 320C152 179 167 151 145 212C201 100 225 84 181 122C276 60 305 60 249 68z" />
      <glyph unicode="&#x441;" horiz-adv-x="535" d="M280 -10C194 1 158 23 235 -10C92 75 71 115 121 45C40 199 40 250 50 154C50 345 71 385 40 300C121 455 158 477 92 424C235 510 280 510 194 499C474 445 500 340 390 510L425 340C350 440 280 440 405 404C222 432 197 416 250 440C151 378 137 349 171 400C115 287 115 250 122 320C122 179 137 150 115 212C171 99 197 83 151 121C250 60 280 60 222 67C405 97 425 165 352 60L500 165C390 -10 280 -10 474 55z" />
      <glyph unicode="&#x442;" horiz-adv-x="445" d="M260 0L185 0L185 430L15 430L15 500L430 500L430 430L260 430z" />
      <glyph unicode="&#x443;" horiz-adv-x="495" d="M405 500L485 500L260 -130C218 -200 165 -200 242 -178L65 -200L65 -130L160 -130C188 -120 195 -100 176 -130L215 -40L10 500L90 500L245 85L265 85z" />
      <glyph unicode="&#x444;" horiz-adv-x="685" d="M395 500C491 489 529 469 446 500C597 419 618 381 567 448C650 299 650 250 639 343C639 157 618 119 650 200C567 51 529 31 597 81C446 0 395 0 491 10L380 0L380 -200L305 -200L305 0L290 0C193 10 155 31 238 0C87 81 66 119 117 51C35 200 35 250 45 157C45 343 66 381 35 299C117 448 155 469 87 419C238 500 290 500 193 489L305 500L305 700L380 700L380 500zM110 250C176 70 290 70 110 139L305 70L305 430L290 430C110 360 110 250 176 430zM395 70C575 139 575 250 508 70C508 430 395 430 575 360L380 430L380 70z" />
      <glyph unicode="&#x445;" horiz-adv-x="480" d="M100 0L10 0L180 255L15 500L105 500L230 310L250 310L375 500L465 500L300 255L470 0L380 0L250 200L230 200z" />
      <glyph unicode="&#x446;" horiz-adv-x="565" d="M545 -120L470 -120L470 0L70 0L70 500L145 500L145 70L400 70L400 500L475 500L475 70L545 70z" />
      <glyph unicode="&#x447;" horiz-adv-x="520" d="M375 195C287 155 230 155 331 165C50 219 50 345 110 155L50 500L125 500L125 345C164 225 240 225 125 265C333 239 375 270 293 225L375 500L450 500L450 0L375 0z" />
      <glyph unicode="&#x448;" horiz-adv-x="775" d="M705 0L70 0L70 500L145 500L145 70L350 70L350 500L425 500L425 70L630 70L630 500L705 500z" />
      <glyph unicode="&#x449;" horiz-adv-x="795" d="M775 -120L700 -120L700 0L70 0L70 500L145 500L145 70L350 70L350 500L425 500L425 70L630 70L630 500L705 500L705 70L775 70z" />
      <glyph unicode="&#x44A;" horiz-adv-x="560" d="M135 0L135 430L10 430L10 500L210 500L210 330L360 330C422 322 448 308 392 330C494 274 508 249 474 294C530 196 530 165 522 224C522 105 508 80 530 133C474 35 448 21 494 55C392 0 360 0 422 7zM360 70C455 110 455 165 414 70C414 260 360 260 455 219L210 260L210 70z" />
      <glyph unicode="&#x44B;" horiz-adv-x="670" d="M70 0L70 500L145 500L145 330L280 330C342 322 368 308 312 330C414 274 428 249 394 294C450 196 450 165 442 224C442 105 428 80 450 133C394 35 368 21 414 55C312 0 280 0 342 7zM600 0L525 0L525 500L600 500zM280 70C375 110 375 165 334 70C334 260 280 260 375 219L145 260L145 70z" />
      <glyph unicode="&#x44C;" horiz-adv-x="500" d="M70 0L70 500L145 500L145 330L300 330C362 322 388 308 332 330C434 274 448 249 414 294C470 196 470 165 462 224C462 105 448 80 470 133C414 35 388 21 434 55C332 0 300 0 362 7zM300 70C395 110 395 165 354 70C354 260 300 260 395 219L145 260L145 70z" />
      <glyph unicode="&#x44D;" horiz-adv-x="535" d="M255 -10C60 54 35 160 144 -10L110 160C188 60 255 60 130 97C410 121 420 215 341 60L195 215L195 285L420 285C341 440 255 440 410 378C130 403 110 345 188 440L35 345C145 510 255 510 60 445C340 499 377 477 299 510C442 424 463 385 413 455C495 300 495 250 484 345C484 154 463 115 495 199C413 45 377 23 442 75C299 -10 255 -10 340 1z" />
      <glyph unicode="&#x44E;" horiz-adv-x="720" d="M450 -10C373 0 340 18 410 -10C280 63 259 97 307 36C224 170 220 215 237 131L145 215L145 0L70 0L70 500L145 500L145 285L220 285C237 369 259 403 224 329C307 463 340 482 280 437C410 510 450 510 373 500C532 499 567 477 493 510C630 424 650 385 602 455C680 300 680 250 670 345C670 154 650 115 680 199C602 45 567 23 630 75C493 -10 450 -10 532 1zM450 60C504 67 528 83 478 60C570 121 584 150 551 99C605 212 605 250 598 179C598 320 584 349 605 287C551 400 528 416 570 378C478 440 450 440 504 432C395 432 372 416 421 440C330 378 316 349 348 400C295 287 295 250 302 320C302 179 316 150 295 212C348 99 372 83 330 121C421 60 450 60 395 67z" />
      <glyph unicode="&#x44F;" horiz-adv-x="510" d="M440 500L440 0L365 0L365 180L305 180L125 0L30 0L210 180L205 180C40 245 40 340 109 180C109 500 205 500 40 434zM365 250L365 430L205 430C115 393 115 340 154 430C154 250 205 250 115 286z" />
      <glyph unicode="&#x450;" horiz-adv-x="550" d="M280 -10C194 1 158 23 235 -10C92 75 71 115 121 45C40 199 40 250 50 154C50 345 71 385 40 300C121 455 158 477 92 424C235 510 280 510 194 499C361 499 397 479 322 510C460 429 480 393 432 458C510 316 510 270 500 357C508 225 505 215 510 243L115 215C194 60 280 60 124 121C389 89 415 140 340 60L495 140C384 -10 280 -10 460 44zM435 285C365 440 280 440 429 375C125 375 115 285 190 440zM315 580L245 580L130 720L220 720z" />
      <glyph unicode="&#x451;" horiz-adv-x="550" d="M280 -10C194 1 158 23 235 -10C92 75 71 115 121 45C40 199 40 250 50 154C50 345 71 385 40 300C121 455 158 477 92 424C235 510 280 510 194 499C361 499 397 479 322 510C460 429 480 393 432 458C510 316 510 270 500 357C508 225 505 215 510 243L115 215C194 60 280 60 124 121C389 89 415 140 340 60L495 140C384 -10 280 -10 460 44zM435 285C365 440 280 440 429 375C125 375 115 285 190 440zM230 605L145 605L145 690L230 690zM405 605L320 605L320 690L405 690z" />
      <glyph unicode="&#x452;" horiz-adv-x="585" d="M300 -200L300 -130L350 -130C440 -100 440 -40 410 -130L440 250C434 299 422 321 440 276C393 359 373 371 410 342C329 390 305 390 352 383C254 383 232 370 279 390C192 340 179 319 210 357C160 274 160 250 166 297L160 0L85 0L85 550L0 550L0 620L85 620L85 700L160 700L160 620L320 620L320 550L160 550L160 395L165 395C248 460 315 460 191 428C387 451 417 433 353 460C471 391 489 359 447 415C515 290 515 250 506 327L515 -40C454 -200 350 -200 515 -140z" />
      <glyph unicode="&#x453;" horiz-adv-x="410" d="M145 0L70 0L70 500L390 500L390 430L145 430zM265 580L195 580L290 720L380 720z" />
      <glyph unicode="&#x454;" horiz-adv-x="535" d="M280 -10C194 1 158 23 235 -10C92 75 71 115 121 45C40 199 40 250 50 154C50 345 71 385 40 300C121 455 158 477 92 424C235 510 280 510 194 499C474 445 500 345 389 510L425 345C346 440 280 440 405 403C124 378 115 285 193 440L340 285L340 215L115 215C193 60 280 60 124 121C405 97 425 160 346 60L500 160C390 -10 280 -10 474 54z" />
      <glyph unicode="&#x455;" horiz-adv-x="460" d="M230 -10C154 -2 124 11 190 -10C70 44 54 68 94 25C30 117 30 145 38 92L105 145C152 60 230 60 105 98C350 92 350 135 306 60C323 199 265 210 350 175L180 225C40 287 40 365 86 241C105 510 225 510 40 449C297 502 327 488 263 510C380 455 396 431 357 474C420 381 420 355 412 407L345 355C297 440 225 440 345 401C115 407 115 365 154 440C137 305 195 295 115 327L280 280C425 215 425 135 380 262C355 -10 230 -10 425 51z" />
      <glyph unicode="&#x456;" horiz-adv-x="215" d="M145 0L70 0L70 500L145 500zM151 605L66 605L66 690L151 690z" />
      <glyph unicode="&#x457;" horiz-adv-x="215" d="M145 0L70 0L70 500L145 500zM73 605L-12 605L-12 690L73 690zM228 605L143 605L143 690L228 690z" />
      <glyph unicode="&#x458;" horiz-adv-x="215" d="M-35 -200L-35 -130L40 -130C70 -120 70 -100 60 -130L70 500L145 500L145 -115C109 -200 55 -200 145 -165zM151 605L66 605L66 690L151 690z" />
      <glyph unicode="&#x459;" horiz-adv-x="780" d="M10 -5L10 70L40 70C101 92 105 140 77 70L135 500L460 500L460 300L595 300C750 239 750 150 685 300C685 0 595 0 750 60L385 0L385 430L205 430L180 140C125 -5 40 -5 170 41zM595 70C675 100 675 150 641 70C641 230 595 230 675 199L460 230L460 70z" />
      <glyph unicode="&#x45A;" horiz-adv-x="785" d="M70 0L70 500L145 500L145 300L390 300L390 500L465 500L465 300L600 300C755 239 755 150 690 300C690 0 600 0 755 60L390 0L390 230L145 230L145 0zM600 70C680 100 680 150 646 70C646 230 600 230 680 199L465 230L465 70z" />
      <glyph unicode="&#x45B;" horiz-adv-x="585" d="M85 0L85 550L0 550L0 620L85 620L85 700L160 700L160 620L320 620L320 550L160 550L160 395L165 395C248 460 315 460 191 428C387 451 417 433 353 460C471 391 489 359 447 415C515 290 515 250 506 327L515 0L440 0L440 250C434 299 422 321 440 276C393 359 373 371 410 342C329 390 305 390 352 383C254 383 232 370 279 390C192 340 179 319 210 357C160 274 160 250 166 297L160 0z" />
      <glyph unicode="&#x45C;" horiz-adv-x="475" d="M145 0L70 0L70 500L145 500L145 270L369 500L465 500L225 255L475 0L379 0L145 240zM285 580L215 580L310 720L400 720z" />
      <glyph unicode="&#x45D;" horiz-adv-x="555" d="M200 0L70 0L70 500L145 500L145 90L165 90L355 500L485 500L485 0L410 0L410 410L390 410zM320 580L250 580L135 720L225 720z" />
      <glyph unicode="&#x45E;" horiz-adv-x="495" d="M405 500L485 500L260 -130C218 -200 165 -200 242 -178L65 -200L65 -130L160 -130C188 -120 195 -100 176 -130L215 -40L10 500L90 500L245 85L265 85zM255 585C120 635 115 710 179 585L180 710C213 640 255 640 185 666C324 666 330 710 296 640L395 710C331 585 255 585 389 635z" />
      <glyph unicode="&#x45F;" horiz-adv-x="545" d="M310 -120L235 -120L235 0L70 0L70 500L145 500L145 70L400 70L400 500L475 500L475 0L310 0z" />
      <glyph unicode="&#x462;" horiz-adv-x="680" d="M150 0L150 535L0 535L0 610L150 610L150 700L230 700L230 610L420 610L420 535L230 535L230 410L435 410C506 401 537 383 472 410C591 340 609 309 567 365C635 243 635 205 626 277C626 132 609 101 635 167C567 45 537 27 591 69C472 0 435 0 506 9zM435 75C555 130 555 205 504 75C505 335 435 335 555 281L230 335L230 75z" />
      <glyph unicode="&#x463;" horiz-adv-x="540" d="M115 0L115 450L0 450L0 520L115 520L115 700L190 700L190 520L335 520L335 450L190 450L190 330L340 330C402 322 428 308 372 330C474 274 488 249 454 294C510 196 510 165 502 224C502 105 488 80 510 133C454 35 428 21 474 55C372 0 340 0 402 7zM340 70C435 110 435 165 394 70C394 260 340 260 435 219L190 260L190 70z" />
      <glyph unicode="&#x46A;" horiz-adv-x="780" d="M45 60C55 176 77 224 45 122C128 309 166 338 98 271C249 386 300 395 204 367L65 625L65 700L715 700L715 625L480 395C575 367 613 338 530 386C681 271 703 224 651 309C735 122 735 60 724 176L735 0L655 0L655 60C645 163 626 203 655 115C580 273 546 294 606 243C474 325 430 325 512 314L430 0L350 0L350 325C267 314 233 294 306 325C173 243 154 203 199 273C125 115 125 60 134 163L125 0L45 0zM165 625L390 405L615 625z" />
      <glyph unicode="&#x46B;" horiz-adv-x="615" d="M30 0C108 253 223 275 30 150L65 430L65 500L550 500L550 430L392 275C585 150 585 0 506 253L510 0C502 80 488 112 510 43C453 168 428 185 473 144C375 210 345 210 403 201L345 0L270 0L270 210C211 201 186 185 239 210C141 144 127 112 161 168C105 43 105 0 112 80zM155 430L307 278L460 430z" />
      <glyph unicode="&#x472;" horiz-adv-x="770" d="M385 -10C267 5 216 35 323 -10C124 108 94 163 164 65C50 280 50 350 64 217C64 482 94 537 50 420C164 634 216 664 124 591C323 710 385 710 267 694C502 694 554 664 446 710C645 591 675 537 605 634C720 420 720 350 705 482C705 217 675 163 720 280C605 65 554 35 645 108C446 -10 385 -10 502 5zM525 365C606 372 638 386 569 365C619 478 595 516 633 435C541 583 505 604 571 554C428 635 385 635 468 624C302 624 266 604 342 635C199 555 175 518 229 584C137 437 132 389 151 480C199 410 245 410 161 403C325 403 392 387 290 410C486 365 525 365 453 372zM385 65C467 75 504 96 427 65C570 145 594 182 540 116C632 262 638 311 618 219C571 290 525 290 608 297C444 297 378 313 479 290C283 335 245 335 316 327C161 328 132 314 199 335C150 221 174 183 136 264C228 116 265 96 198 145C341 65 385 65 301 75z" />
      <glyph unicode="&#x473;" horiz-adv-x="560" d="M280 -10C194 1 158 23 235 -10C92 75 71 115 121 45C40 199 40 250 50 154C50 345 71 385 40 300C121 455 158 477 92 424C235 510 280 510 194 499C365 499 402 477 324 510C467 424 488 385 438 455C520 300 520 250 509 345C509 154 488 115 520 199C438 45 402 23 467 75C324 -10 280 -10 365 1zM117 282C166 295 195 295 140 290C244 291 280 285 215 295C345 275 365 275 317 278C419 279 443 287 393 275C361 440 280 440 429 379C129 378 117 282 196 440zM280 60C431 122 443 218 364 60C393 205 365 205 419 209C317 208 280 215 345 205C215 225 195 225 244 221C142 221 117 213 168 225C198 60 280 60 130 121z" />
      <glyph unicode="&#x474;" horiz-adv-x="680" d="M265 0L10 700L95 700L315 85L335 85L507 565C581 705 647 705 543 665C685 700 692 695 667 705L692 620C670 630 657 630 682 626C608 610 592 565 627 630L385 0z" />
      <glyph unicode="&#x475;" horiz-adv-x="520" d="M190 0L10 500L90 500L240 80L260 80L372 390C437 505 492 505 401 470C526 500 532 495 512 505L532 428C516 435 502 435 526 432C462 420 452 390 479 435L310 0z" />
      <glyph unicode="&#x48A;" horiz-adv-x="730" d="M355 780C220 830 215 905 279 780L280 905C313 835 355 835 285 861C424 861 430 905 396 835L495 905C431 780 355 780 489 830zM660 -140L600 -140L625 0L550 0L550 605L530 605L215 0L80 0L80 700L160 700L160 95L180 95L495 700L630 700L630 75L730 75L730 64z" />
      <glyph unicode="&#x48B;" horiz-adv-x="575" d="M280 585C145 635 140 710 204 585L205 710C238 640 280 640 210 666C349 666 355 710 321 640L420 710C356 585 280 585 414 635zM515 -120L460 -120L480 0L410 0L410 410L390 410L200 0L70 0L70 500L145 500L145 90L165 90L355 500L485 500L485 70L575 70L575 58z" />
      <glyph unicode="&#x48C;" horiz-adv-x="680" d="M150 0L150 535L0 535L0 610L150 610L150 700L230 700L230 610L420 610L420 535L230 535L230 410L435 410C506 401 537 383 472 410C591 340 609 309 567 365C635 243 635 205 626 277C626 132 609 101 635 167C567 45 537 27 591 69C472 0 435 0 506 9zM435 75C555 130 555 205 504 75C505 335 435 335 555 281L230 335L230 75z" />
      <glyph unicode="&#x48D;" horiz-adv-x="540" d="M115 0L115 450L0 450L0 520L115 520L115 700L190 700L190 520L335 520L335 450L190 450L190 330L340 330C402 322 428 308 372 330C474 274 488 249 454 294C510 196 510 165 502 224C502 105 488 80 510 133C454 35 428 21 474 55C372 0 340 0 402 7zM340 70C435 110 435 165 394 70C394 260 340 260 435 219L190 260L190 70z" />
      <glyph unicode="&#x48E;" horiz-adv-x="635" d="M585 485C555 353 509 315 585 414L555 250L495 210L446 280C407 270 385 270 428 273L160 270L160 0L80 0L80 700L385 700C455 690 485 672 421 700C540 627 558 595 515 653C585 525 585 485 576 562zM385 345C395 345 399 346 391 345L350 415L410 455L464 378C505 439 505 485 489 403C451 625 385 625 505 567L160 625L160 345z" />
      <glyph unicode="&#x48F;" horiz-adv-x="580" d="M540 250C514 106 472 60 540 172L525 -15L470 -50L421 19C350 -10 310 -10 387 0C191 18 150 70 242 -10L145 70L145 -200L70 -200L70 500L135 500L145 430L150 430C242 510 310 510 191 482C392 499 427 477 353 510C490 424 510 385 462 455C540 300 540 250 530 345zM305 60C355 66 378 80 331 60L325 155L380 190L427 124C465 201 465 250 452 159C457 320 443 349 465 287C408 400 384 416 428 377C333 440 305 440 360 432C249 432 225 416 276 440C181 377 167 349 201 400C145 287 145 250 152 320C152 179 167 151 145 212C201 100 225 84 181 122C276 60 305 60 249 68z" />
      <glyph unicode="&#x490;" horiz-adv-x="540" d="M160 0L80 0L80 700L445 700L445 840L520 840L520 625L160 625z" />
      <glyph unicode="&#x491;" horiz-adv-x="425" d="M145 0L70 0L70 500L335 500L335 620L405 620L405 430L145 430z" />
      <glyph unicode="&#x492;" horiz-adv-x="555" d="M185 0L105 0L105 315L10 315L10 390L105 390L105 700L535 700L535 625L185 625L185 390L380 390L380 315L185 315z" />
      <glyph unicode="&#x493;" horiz-adv-x="425" d="M160 0L85 0L85 215L10 215L10 285L85 285L85 500L405 500L405 430L160 430L160 285L335 285L335 215L160 215z" />
      <glyph unicode="&#x494;" horiz-adv-x="615" d="M315 -40C490 30 490 140 420 -40C420 320 315 320 490 249C190 295 160 270 252 320L160 0L80 0L80 700L520 700L520 625L160 625L160 355C253 395 320 395 190 375C413 384 451 363 369 395C518 312 539 274 489 342C570 191 570 140 559 236C559 43 538 5 570 88C487 -62 449 -83 517 -32C366 -115 315 -115 411 -104z" />
      <glyph unicode="&#x495;" horiz-adv-x="500" d="M260 -130C395 -68 395 40 346 -124C341 205 260 205 395 142C167 185 145 165 213 205L145 0L70 0L70 500L390 500L390 430L145 430L145 240C214 275 265 275 167 257C340 265 371 246 305 275C426 200 444 164 402 227C470 87 470 40 461 128C461 -52 443 -88 470 -9C401 -151 369 -171 425 -124C301 -200 260 -200 337 -190z" />
      <glyph unicode="&#x496;" horiz-adv-x="805" d="M805 -140L725 -140L725 0L705 0L440 345L440 0L360 0L360 345L95 0L0 0L275 355L20 700L115 700L360 370L360 700L440 700L440 370L685 700L780 700L525 355L740 75L805 75z" />
      <glyph unicode="&#x497;" horiz-adv-x="650" d="M650 -120L575 -120L575 0L555 0L360 245L360 0L285 0L285 245L90 0L0 0L205 255L15 500L105 500L285 265L285 500L360 500L360 265L540 500L630 500L440 255L590 70L650 70z" />
      <glyph unicode="&#x498;" horiz-adv-x="595" d="M545 190C536 125 519 97 545 156C477 44 445 26 502 68C374 -3 330 -8 412 8L330 -140L250 -140L250 -8C167 8 135 26 206 -3C77 68 60 97 102 44C35 156 35 190 43 125L115 190C121 147 135 128 115 168C169 94 195 82 149 109C253 65 290 65 221 70C356 70 383 82 325 65C430 109 444 128 409 94C465 168 465 190 458 147C458 232 446 251 465 212C415 285 393 297 433 270C344 315 315 315 370 309L245 315L245 390L315 390C450 443 450 510 393 390C387 635 290 635 450 582C229 629 205 617 258 635C162 590 149 571 181 605C130 532 130 510 136 552L50 510C59 580 79 611 50 546C126 665 162 683 98 641C241 710 290 710 198 701C380 700 417 682 338 710C481 639 501 609 453 664C530 545 530 510 520 578C476 372 420 355 530 430L420 350C545 272 545 190 484 332z" />
      <glyph unicode="&#x499;" horiz-adv-x="460" d="M420 139C363 5 265 -8 420 61L265 -120L190 -120L190 -8C30 72 30 155 92 5L105 155C153 60 225 60 105 103C345 92 345 140 306 60C302 220 230 220 345 186L185 220L185 285L230 285C335 318 335 365 298 285C295 440 225 440 335 407C115 402 115 350 157 440L40 350C47 407 63 431 40 380C101 475 129 489 79 455C189 510 225 510 157 503C410 448 410 364 341 510C370 268 330 255 410 308L330 250C420 196 420 139 379 239z" />
      <glyph unicode="&#x49A;" horiz-adv-x="570" d="M570 -140L490 -140L490 0L475 0L160 340L160 0L80 0L80 700L160 700L160 370L455 700L555 700L245 355L506 75L570 75z" />
      <glyph unicode="&#x49B;" horiz-adv-x="465" d="M465 -120L390 -120L390 0L380 0L145 240L145 0L70 0L70 500L145 500L145 270L370 500L465 500L225 255L407 70L465 70z" />
      <glyph unicode="&#x49C;" horiz-adv-x="615" d="M160 0L80 0L80 700L160 700L160 390L210 390L210 510L285 510L285 390L320 390L520 700L615 700L385 355L635 0L540 0L320 315L285 315L285 195L210 195L210 315L160 315z" />
      <glyph unicode="&#x49D;" horiz-adv-x="510" d="M145 0L70 0L70 500L145 500L145 290L184 290L184 380L249 380L249 290L275 290L410 500L500 500L340 255L510 0L420 0L275 220L249 220L249 130L184 130L184 220L145 220z" />
      <glyph unicode="&#x49E;" horiz-adv-x="575" d="M180 0L100 0L100 545L0 545L0 620L100 620L100 700L180 700L180 620L265 620L265 545L180 545L180 370L475 700L575 700L265 355L595 0L495 0L180 340z" />
      <glyph unicode="&#x49F;" horiz-adv-x="490" d="M160 0L85 0L85 550L0 550L0 620L85 620L85 700L160 700L160 620L280 620L280 550L160 550L160 270L385 500L480 500L240 255L490 0L395 0L160 240z" />
      <glyph unicode="&#x4A0;" horiz-adv-x="595" d="M200 0L120 0L120 625L0 625L0 700L200 700L200 370L495 700L595 700L285 355L615 0L515 0L200 340z" />
      <glyph unicode="&#x4A1;" horiz-adv-x="510" d="M180 0L105 0L105 430L0 430L0 500L180 500L180 270L405 500L500 500L260 255L510 0L415 0L180 240z" />
      <glyph unicode="&#x4A2;" horiz-adv-x="735" d="M705 -140L625 -140L625 0L550 0L550 315L160 315L160 0L80 0L80 700L160 700L160 390L550 390L550 700L630 700L630 75L705 75z" />
      <glyph unicode="&#x4A3;" horiz-adv-x="575" d="M555 -120L480 -120L480 0L410 0L410 215L145 215L145 0L70 0L70 500L145 500L145 285L410 285L410 500L485 500L485 70L555 70z" />
      <glyph unicode="&#x4A4;" horiz-adv-x="970" d="M160 0L80 0L80 700L160 700L160 390L530 390L530 700L950 700L950 625L610 625L610 0L530 0L530 315L160 315z" />
      <glyph unicode="&#x4A5;" horiz-adv-x="720" d="M145 0L70 0L70 500L145 500L145 285L395 285L395 500L700 500L700 430L470 430L470 0L395 0L395 215L145 215z" />
      <glyph unicode="&#x4A6;" horiz-adv-x="1030" d="M735 -40C910 30 910 140 840 -40C840 320 735 320 910 249C610 295 580 270 672 320L580 0L500 0L500 625L160 625L160 0L80 0L80 700L580 700L580 355C682 395 740 395 616 377C833 384 871 363 789 395C938 312 959 274 909 342C990 191 990 140 979 236C979 43 958 5 990 88C907 -62 869 -83 937 -32C786 -115 735 -115 831 -104z" />
      <glyph unicode="&#x4A7;" horiz-adv-x="795" d="M560 -130C695 -69 695 40 645 -130C641 205 560 205 695 142C467 185 445 165 513 205L445 0L370 0L370 430L145 430L145 0L70 0L70 500L445 500L445 240C514 275 565 275 467 257C640 265 671 246 605 275C726 200 744 164 702 227C770 87 770 40 761 128C761 -52 743 -88 770 -9C701 -151 669 -171 725 -124C601 -200 560 -200 637 -190z" />
      <glyph unicode="&#x4A8;" horiz-adv-x="790" d="M375 -10C260 5 211 35 315 -10C122 108 93 163 161 65C50 280 50 350 64 217C64 482 93 537 50 420C160 634 208 664 121 591C308 710 365 710 256 694L365 635C286 623 250 599 324 635C185 541 163 497 214 575C130 404 130 350 141 453C141 245 163 202 130 294C215 125 253 101 185 158C331 65 375 65 291 77C415 67 435 71 395 65C300 240 300 360 348 137C309 466 328 508 300 416C373 583 407 606 347 550C478 640 520 640 440 628C594 628 628 606 558 640C689 550 709 508 662 583C740 416 740 360 729 465C693 139 613 73 740 241C663 65 695 65 636 67L695 -10C575 0 526 20 631 -10C429 -10 375 -10 480 0zM524 106C660 250 660 360 608 158C600 565 520 565 660 493C380 493 380 360 440 565C433 156 524 106 380 249z" />
      <glyph unicode="&#x4A9;" horiz-adv-x="560" d="M280 -10C194 1 158 23 235 -10C92 75 71 115 121 45C40 199 40 250 50 154C50 345 71 385 40 300C119 455 155 477 91 424C228 510 270 510 190 499L270 440C218 432 194 416 243 440C150 377 136 349 170 400C115 287 115 250 122 320C122 179 137 150 115 212C171 99 197 83 151 121C250 60 280 60 222 67C301 61 310 64 291 60C230 182 230 260 259 113C291 445 375 445 230 376C520 376 520 260 459 445C492 116 447 67 520 184C480 60 500 60 463 62L500 -10C417 -1 380 15 457 -10C314 -10 280 -10 348 -1zM378 102C445 196 445 260 419 139C413 375 375 375 445 334C305 334 305 260 336 375C332 139 378 102 305 194z" />
      <glyph unicode="&#x4AA;" horiz-adv-x="730" d="M385 65C575 126 610 230 490 65L695 230C555 5 421 -8 657 92L421 -140L341 -140L341 -7C236 19 192 51 286 0C113 123 88 175 148 82C50 285 50 350 62 227C64 482 94 537 50 420C164 634 216 664 124 591C323 710 385 710 267 694C655 620 695 475 535 710L610 475C490 635 385 635 575 575C295 623 256 599 338 635C186 541 164 498 217 575C130 405 130 350 141 454C141 245 164 202 130 294C217 125 256 101 186 158C338 65 385 65 295 77z" />
      <glyph unicode="&#x4AB;" horiz-adv-x="535" d="M280 60C405 97 425 165 352 60L500 165C410 6 317 -7 478 69L317 -120L242 -120L242 -7C168 13 138 36 203 -1C83 89 66 126 107 59C40 204 40 250 48 162C50 345 71 385 40 300C121 455 158 477 92 424C235 510 280 510 194 499C474 445 500 340 390 510L425 340C350 440 280 440 405 404C222 432 197 416 250 440C151 378 137 349 171 400C115 287 115 250 122 320C122 179 137 150 115 212C171 99 197 83 151 121C250 60 280 60 222 67z" />
      <glyph unicode="&#x4AC;" horiz-adv-x="590" d="M410 -140L330 -140L330 0L255 0L255 625L25 625L25 700L565 700L565 625L335 625L335 75L410 75z" />
      <glyph unicode="&#x4AD;" horiz-adv-x="445" d="M330 -120L255 -120L255 0L185 0L185 430L15 430L15 500L430 500L430 430L260 430L260 70L330 70z" />
      <glyph unicode="&#x4AE;" horiz-adv-x="590" d="M335 0L255 0L255 265L0 700L85 700L285 355L305 355L505 700L590 700L335 265z" />
      <glyph unicode="&#x4AF;" horiz-adv-x="495" d="M285 -200L210 -200L210 0L190 0L10 500L90 500L240 84L255 84L405 500L485 500L305 0L285 0z" />
      <glyph unicode="&#x4B0;" horiz-adv-x="590" d="M335 0L255 0L255 265L100 265L100 340L211 340L0 700L85 700L285 355L305 355L505 700L590 700L379 340L490 340L490 265L335 265z" />
      <glyph unicode="&#x4B1;" horiz-adv-x="495" d="M285 -200L210 -200L210 0L100 0L100 70L165 70L10 500L90 500L240 84L255 84L405 500L485 500L330 70L395 70L395 0L285 0z" />
      <glyph unicode="&#x4B2;" horiz-adv-x="625" d="M625 -140L545 -140L545 0L520 0L320 295L300 295L100 0L10 0L255 360L25 700L115 700L300 425L320 425L505 700L595 700L365 360L560 75L625 75z" />
      <glyph unicode="&#x4B3;" horiz-adv-x="485" d="M485 -120L410 -120L410 0L380 0L250 200L230 200L100 0L10 0L180 255L15 500L105 500L230 310L250 310L375 500L465 500L300 255L425 70L485 70z" />
      <glyph unicode="&#x4B4;" horiz-adv-x="860" d="M830 -140L750 -140L750 0L225 0L225 625L20 625L20 700L505 700L505 625L305 625L305 75L675 75L675 700L755 700L755 75L830 75z" />
      <glyph unicode="&#x4B5;" horiz-adv-x="660" d="M640 -120L565 -120L565 0L165 0L165 430L15 430L15 500L380 500L380 430L240 430L240 70L495 70L495 500L570 500L570 70L640 70z" />
      <glyph unicode="&#x4B6;" horiz-adv-x="690" d="M580 -140L580 0L505 0L505 300C387 235 310 235 465 266C65 315 65 485 144 235L65 700L145 700L145 485C199 310 310 310 145 366C469 344 505 380 392 310L505 700L585 700L585 75L660 75L660 -140z" />
      <glyph unicode="&#x4B7;" horiz-adv-x="540" d="M445 -120L445 0L375 0L375 195C287 155 230 155 331 165C50 219 50 345 110 155L50 500L125 500L125 345C164 225 240 225 125 265C333 239 375 270 293 225L375 500L450 500L450 70L520 70L520 -120z" />
      <glyph unicode="&#x4B8;" horiz-adv-x="665" d="M505 700L585 700L585 0L505 0L505 300C422 250 365 240 477 276L365 135L290 135L290 235C65 322 65 485 138 241L65 700L145 700L145 485C192 317 290 311 145 373L290 450L365 450L365 315C478 353 505 380 425 325z" />
      <glyph unicode="&#x4B9;" horiz-adv-x="520" d="M375 500L450 500L450 0L375 0L375 195C317 165 285 159 347 177L285 95L220 95L220 155C50 223 50 345 106 159L50 500L125 500L125 345C156 233 220 226 125 273L220 325L285 325L285 229C345 248 375 270 315 234z" />
      <glyph unicode="&#x4BA;" horiz-adv-x="665" d="M80 0L80 700L160 700L160 400C277 465 355 465 200 433C600 384 600 215 520 465L600 0L520 0L520 215C465 390 355 390 520 333C196 356 160 320 272 390L160 0z" />
      <glyph unicode="&#x4BB;" horiz-adv-x="575" d="M75 0L75 700L150 700L150 445L155 445C238 510 305 510 181 478C377 501 407 483 343 510C461 441 479 409 437 465C505 340 505 300 496 377L505 0L430 0L430 300C424 349 412 371 430 326C383 409 363 421 400 392C319 440 295 440 342 433C244 433 222 420 269 440C182 390 169 369 200 407C150 324 150 300 156 347L150 0z" />
      <glyph unicode="&#x4BC;" horiz-adv-x="840" d="M790 315L215 315C233 224 257 186 219 267C310 118 347 97 280 148C425 65 470 65 384 75C655 120 695 210 566 65L780 210C611 -10 470 -10 736 76C356 3 307 31 410 -10C218 97 188 147 258 59C139 252 135 315 157 196L115 315C0 349 0 425 35 315L0 455L75 455L75 435C90 385 125 385 75 400L135 385C157 503 188 553 139 447C258 640 307 668 218 602C410 710 470 710 356 696C586 696 635 668 531 710C721 600 749 549 683 640C790 440 790 375 776 498zM710 385C699 477 679 515 710 434C630 582 594 603 659 553C516 635 470 635 557 624C384 624 347 603 425 635C280 552 257 514 310 581C219 433 215 385 233 476z" />
      <glyph unicode="&#x4BD;" horiz-adv-x="630" d="M590 270C588 225 585 215 590 243L195 215C273 60 360 60 204 121C469 89 495 140 420 60L575 140C464 -10 360 -10 540 44C280 0 246 18 318 -10C183 63 161 97 211 36C125 171 121 215 139 131L100 215C0 245 0 320 29 215L0 340L70 340L70 330C79 285 110 285 70 295L121 285C139 368 161 402 125 329C211 463 246 482 183 436C318 510 360 510 280 500C441 499 477 479 402 510C540 429 560 393 512 458C590 316 590 270 580 357zM515 285C445 440 360 440 509 375C205 375 195 285 270 440z" />
      <glyph unicode="&#x4BE;" horiz-adv-x="840" d="M790 315L215 315C233 224 257 186 219 267C310 118 347 97 280 148C425 65 470 65 384 75C655 120 695 210 566 65L780 210C634 6 510 -8 740 90L510 -140L430 -140L430 -8C329 15 286 44 377 -2C207 111 181 158 242 73C139 257 135 315 155 204L115 315C0 349 0 425 35 315L0 455L75 455L75 435C90 385 125 385 75 400L135 385C157 503 188 553 139 447C258 640 307 668 218 602C410 710 470 710 356 696C586 696 635 668 531 710C721 600 749 549 683 640C790 440 790 375 776 498zM710 385C699 477 679 515 710 434C630 582 594 603 659 553C516 635 470 635 557 624C384 624 347 603 425 635C280 552 257 514 310 581C219 433 215 385 233 476z" />
      <glyph unicode="&#x4BF;" horiz-adv-x="630" d="M590 270C588 225 585 215 590 243L195 215C273 60 360 60 204 121C469 89 495 140 420 60L575 140C484 5 400 -7 544 57L400 -120L325 -120L325 -8C134 95 121 215 215 8L100 215C0 245 0 320 29 215L0 340L70 340L70 330C79 285 110 285 70 295L121 285C139 368 161 402 125 329C211 463 246 482 183 436C318 510 360 510 280 500C441 499 477 479 402 510C540 429 560 393 512 458C590 316 590 270 580 357zM515 285C445 440 360 440 509 375C205 375 195 285 270 440z" />
      <glyph unicode="&#x4C0;" horiz-adv-x="240" d="M160 0L80 0L80 700L160 700z" />
      <glyph unicode="&#x4C1;" horiz-adv-x="800" d="M95 0L0 0L275 355L20 700L116 700L360 370L360 700L440 700L440 370L684 700L780 700L525 355L800 0L705 0L440 345L440 0L360 0L360 345zM400 780C265 830 260 905 324 780L325 905C358 835 400 835 330 861C469 861 475 905 441 835L540 905C476 780 400 780 534 830z" />
      <glyph unicode="&#x4C2;" horiz-adv-x="645" d="M90 0L0 0L205 255L15 500L105 500L285 265L285 500L360 500L360 265L540 500L630 500L440 255L645 0L555 0L360 245L360 0L285 0L285 245zM323 585C188 635 183 710 247 585L248 710C281 640 323 640 253 666C392 666 398 710 364 640L463 710C399 585 323 585 457 635z" />
      <glyph unicode="&#x4C3;" horiz-adv-x="615" d="M320 410C413 399 451 378 369 410C518 327 539 289 489 357C570 206 570 155 559 251C559 49 538 9 570 98C488 -62 450 -83 517 -31C370 -115 322 -115 412 -104L322 -40C490 29 490 155 419 -40C420 335 315 335 490 264C190 308 160 280 252 335L160 0L80 0L80 700L160 700L160 370L455 700L555 700L290 408C313 410 320 410 303 409z" />
      <glyph unicode="&#x4C4;" horiz-adv-x="520" d="M264 290C349 280 383 261 309 290C443 214 462 179 417 241C490 102 490 56 480 143C402 -200 250 -200 490 -108L250 -130C415 -68 415 56 356 -130C355 220 255 220 415 160C162 204 145 190 204 220L145 0L70 0L70 500L145 500L145 270L370 500L465 500L259 290L264 290z" />
      <glyph unicode="&#x4C5;" horiz-adv-x="700" d="M570 -140L595 0L520 0L520 625L240 625L200 155C141 -5 45 -5 190 45L10 -5L10 75L45 75C114 101 120 155 86 75L165 700L600 700L600 75L700 75L700 64L630 -140z" />
      <glyph unicode="&#x4C6;" horiz-adv-x="560" d="M445 -120L465 0L395 0L395 430L205 430L180 140C125 -5 40 -5 170 41L10 -5L10 70L40 70C101 92 105 140 77 70L135 500L470 500L470 70L560 70L560 58L500 -120z" />
      <glyph unicode="&#x4C7;" horiz-adv-x="710" d="M460 -200L460 -125L475 -125C550 -100 550 -50 525 -125L550 315L160 315L160 0L80 0L80 700L160 700L160 390L550 390L550 700L630 700L630 -50C579 -200 475 -200 630 -150z" />
      <glyph unicode="&#x4C8;" horiz-adv-x="555" d="M320 -200L320 -130L330 -130C410 -104 410 -50 384 -130L410 215L145 215L145 0L70 0L70 500L145 500L145 285L410 285L410 500L485 500L485 -50C434 -200 330 -200 485 -150z" />
      <glyph unicode="&#x4C9;" horiz-adv-x="730" d="M660 -140L600 -140L625 0L550 0L550 315L160 315L160 0L80 0L80 700L160 700L160 390L550 390L550 700L630 700L630 75L730 75L730 64z" />
      <glyph unicode="&#x4CA;" horiz-adv-x="575" d="M515 -120L460 -120L480 0L410 0L410 215L145 215L145 0L70 0L70 500L145 500L145 285L410 285L410 500L485 500L485 70L575 70L575 58z" />
      <glyph unicode="&#x4CB;" horiz-adv-x="665" d="M430 -140L430 75L505 75L505 300C387 235 310 235 465 266C65 315 65 485 144 235L65 700L145 700L145 485C199 310 310 310 145 366C469 344 505 380 392 310L505 700L585 700L585 0L510 0L510 -140z" />
      <glyph unicode="&#x4CC;" horiz-adv-x="520" d="M305 -120L305 70L375 70L375 195C287 155 230 155 331 165C50 219 50 345 110 155L50 500L125 500L125 345C164 225 240 225 125 265C333 239 375 270 293 225L375 500L450 500L450 0L380 0L380 -120z" />
      <glyph unicode="&#x4CD;" horiz-adv-x="920" d="M850 -140L790 -140L815 0L740 0L740 595L720 595L510 0L390 0L180 595L160 595L160 0L80 0L80 700L225 700L440 90L460 90L675 700L820 700L820 75L920 75L920 64z" />
      <glyph unicode="&#x4CE;" horiz-adv-x="730" d="M670 -120L615 -120L635 0L565 0L565 410L545 410L410 0L300 0L165 410L145 410L145 0L70 0L70 500L210 500L345 85L365 85L500 500L640 500L640 70L730 70L730 58z" />
      <glyph unicode="&#x4CF;" horiz-adv-x="225" d="M150 0L75 0L75 700L150 700z" />
      <glyph unicode="&#x4D0;" horiz-adv-x="650" d="M650 0L565 0L498 180L152 180L85 0L0 0L265 700L385 700zM315 615L180 255L470 255L335 615zM325 780C190 830 185 905 249 780L250 905C283 835 325 835 255 861C394 861 400 905 366 835L465 905C401 780 325 780 459 830z" />
      <glyph unicode="&#x4D1;" horiz-adv-x="530" d="M225 -10C50 54 50 145 121 -10C115 305 250 305 50 245L385 305L385 320C339 440 265 440 385 394C145 403 140 355 193 440L65 355C76 407 92 431 67 382C130 474 160 488 108 455C225 510 265 510 190 502C460 438 460 320 386 510L460 0L395 0L385 60L380 60C298 -10 225 -10 357 24zM225 60C385 119 385 215 325 60L385 235L250 235C125 198 125 145 164 235C161 60 225 60 125 94zM265 585C130 635 125 710 189 585L190 710C223 640 265 640 195 666C334 666 340 710 306 640L405 710C341 585 265 585 399 635z" />
      <glyph unicode="&#x4D2;" horiz-adv-x="650" d="M650 0L565 0L498 180L152 180L85 0L0 0L265 700L385 700zM315 615L180 255L470 255L335 615zM280 800L195 800L195 885L280 885zM455 800L370 800L370 885L455 885z" />
      <glyph unicode="&#x4D3;" horiz-adv-x="530" d="M225 -10C50 54 50 145 121 -10C115 305 250 305 50 245L385 305L385 320C339 440 265 440 385 394C145 403 140 355 193 440L65 355C76 407 92 431 67 382C130 474 160 488 108 455C225 510 265 510 190 502C460 438 460 320 386 510L460 0L395 0L385 60L380 60C298 -10 225 -10 357 24zM225 60C385 119 385 215 325 60L385 235L250 235C125 198 125 145 164 235C161 60 225 60 125 94zM220 605L135 605L135 690L220 690zM395 605L310 605L310 690L395 690z" />
      <glyph unicode="&#x4D6;" horiz-adv-x="585" d="M530 0L80 0L80 700L530 700L530 625L160 625L160 390L510 390L510 315L160 315L160 75L530 75zM310 780C175 830 170 905 234 780L235 905C268 835 310 835 240 861C379 861 385 905 351 835L450 905C386 780 310 780 444 830z" />
      <glyph unicode="&#x4D7;" horiz-adv-x="550" d="M280 -10C194 1 158 23 235 -10C92 75 71 115 121 45C40 199 40 250 50 154C50 345 71 385 40 300C121 455 158 477 92 424C235 510 280 510 194 499C361 499 397 479 322 510C460 429 480 393 432 458C510 316 510 270 500 357C508 225 505 215 510 243L115 215C194 60 280 60 124 121C389 89 415 140 340 60L495 140C384 -10 280 -10 460 44zM435 285C365 440 280 440 429 375C125 375 115 285 190 440zM275 585C140 635 135 710 199 585L200 710C233 640 275 640 205 666C344 666 350 710 316 640L415 710C351 585 275 585 409 635z" />
      <glyph unicode="&#x4D8;" horiz-adv-x="755" d="M370 -10C253 4 205 32 308 -10C118 99 91 150 156 60C50 259 50 325 63 201L50 385L625 385C606 476 583 514 620 433C529 581 492 603 559 552C414 635 370 635 455 624C185 579 145 490 274 635L60 490C228 710 370 710 104 623C487 694 539 664 431 710C630 591 660 537 590 634C705 420 705 350 690 482C690 217 660 163 705 280C590 65 539 35 630 108C431 -10 370 -10 487 5zM370 65C455 75 492 97 414 65C559 148 583 186 529 118C620 267 625 315 606 224L130 315C140 222 160 184 130 265C209 117 246 96 180 146C324 65 370 65 282 75z" />
      <glyph unicode="&#x4D9;" horiz-adv-x="550" d="M270 -10C188 0 153 21 227 -10C90 70 70 106 117 41C40 184 40 230 50 142C41 275 45 285 40 256L435 285C355 440 270 440 425 378C160 410 135 360 210 440L55 360C166 510 270 510 89 456C355 499 392 477 314 510C457 424 478 385 428 455C510 300 510 250 499 345C499 154 478 115 510 199C428 45 392 23 457 75C314 -10 270 -10 355 1zM270 60C424 124 435 215 359 60L115 215C184 60 270 60 120 125z" />
      <glyph unicode="&#x4DA;" horiz-adv-x="755" d="M370 -10C253 4 205 32 308 -10C118 99 91 150 156 60C50 259 50 325 63 201L50 385L625 385C606 476 583 514 620 433C529 581 492 603 559 552C414 635 370 635 455 624C185 579 145 490 274 635L60 490C228 710 370 710 104 623C487 694 539 664 431 710C630 591 660 537 590 634C705 420 705 350 690 482C690 217 660 163 705 280C590 65 539 35 630 108C431 -10 370 -10 487 5zM370 65C455 75 492 97 414 65C559 148 583 186 529 118C620 267 625 315 606 224L130 315C140 222 160 184 130 265C209 117 246 96 180 146C324 65 370 65 282 75zM330 800L245 800L245 885L330 885zM505 800L420 800L420 885L505 885z" />
      <glyph unicode="&#x4DB;" horiz-adv-x="550" d="M270 -10C188 0 153 21 227 -10C90 70 70 106 117 41C40 184 40 230 50 142C41 275 45 285 40 256L435 285C355 440 270 440 425 378C160 410 135 360 210 440L55 360C166 510 270 510 89 456C355 499 392 477 314 510C457 424 478 385 428 455C510 300 510 250 499 345C499 154 478 115 510 199C428 45 392 23 457 75C314 -10 270 -10 355 1zM270 60C424 124 435 215 359 60L115 215C184 60 270 60 120 125zM230 605L145 605L145 690L230 690zM405 605L320 605L320 690L405 690z" />
      <glyph unicode="&#x4DC;" horiz-adv-x="800" d="M95 0L0 0L275 355L20 700L116 700L360 370L360 700L440 700L440 370L684 700L780 700L525 355L800 0L705 0L440 345L440 0L360 0L360 345zM355 800L270 800L270 885L355 885zM530 800L445 800L445 885L530 885z" />
      <glyph unicode="&#x4DD;" horiz-adv-x="645" d="M90 0L0 0L205 255L15 500L105 500L285 265L285 500L360 500L360 265L540 500L630 500L440 255L645 0L555 0L360 245L360 0L285 0L285 245zM278 605L193 605L193 690L278 690zM453 605L368 605L368 690L453 690z" />
      <glyph unicode="&#x4DE;" horiz-adv-x="595" d="M290 -10C192 -1 154 16 238 -10C86 58 66 89 116 34C35 153 35 190 45 119L115 190C121 147 135 128 115 168C169 94 195 82 149 109C253 65 290 65 221 70C356 70 383 82 325 65C430 109 444 128 409 94C465 168 465 190 458 147C458 232 446 251 465 212C415 285 393 297 433 270C344 315 315 315 370 309L245 315L245 390L315 390C450 443 450 510 393 390C387 635 290 635 450 582C229 629 205 617 258 635C162 590 149 571 181 605C130 532 130 510 136 552L50 510C59 580 79 611 50 546C126 665 162 683 98 641C241 710 290 710 198 701C380 700 417 682 338 710C481 639 501 609 453 664C530 545 530 510 520 578C476 372 420 355 530 430L420 350C545 272 545 190 484 332C534 119 514 89 545 153C463 34 425 16 493 58C342 -10 290 -10 387 -1zM250 800L165 800L165 885L250 885zM425 800L340 800L340 885L425 885z" />
      <glyph unicode="&#x4DF;" horiz-adv-x="460" d="M225 -10C152 -2 122 12 186 -10C70 46 54 72 92 26C30 125 30 155 38 97L105 155C153 60 225 60 105 103C345 92 345 140 306 60C302 220 230 220 345 186L185 220L185 285L230 285C335 318 335 365 298 285C295 440 225 440 335 407C115 402 115 350 157 440L40 350C47 407 63 431 40 380C101 475 129 489 79 455C189 510 225 510 157 503C410 448 410 364 341 510C370 268 330 255 410 308L330 250C420 196 420 139 379 239C346 -10 225 -10 420 52zM185 605L100 605L100 690L185 690zM360 605L275 605L275 690L360 690z" />
      <glyph unicode="&#x4E0;" horiz-adv-x="585" d="M285 420C385 410 423 392 339 420C490 348 510 316 461 374C540 247 540 205 530 284C530 125 510 93 540 163C461 35 423 17 490 61C339 -10 285 -10 385 0C30 65 30 180 117 -10L110 180C166 65 285 65 110 110C460 122 460 205 397 65C397 345 285 345 460 287L150 345L150 420L410 625L50 625L50 700L520 700L520 625L265 425L265 420z" />
      <glyph unicode="&#x4E1;" horiz-adv-x="490" d="M228 220C455 135 455 5 369 220C370 -210 240 -210 455 -125C159 -201 127 -184 197 -210C70 -144 52 -114 95 -167C25 -51 25 -15 34 -84L100 -15C156 -140 240 -140 100 -87C380 -84 380 5 325 -140C323 150 225 150 380 95L125 150L125 220L345 430L45 430L45 500L440 500L440 430L225 225L225 220L228 220z" />
      <glyph unicode="&#x4E2;" horiz-adv-x="710" d="M215 0L80 0L80 700L160 700L160 95L180 95L495 700L630 700L630 0L550 0L550 605L530 605zM495 813L215 813L215 873L495 873z" />
      <glyph unicode="&#x4E3;" horiz-adv-x="555" d="M200 0L70 0L70 500L145 500L145 90L165 90L355 500L485 500L485 0L410 0L410 410L390 410zM420 618L140 618L140 678L420 678z" />
      <glyph unicode="&#x4E4;" horiz-adv-x="710" d="M215 0L80 0L80 700L160 700L160 95L180 95L495 700L630 700L630 0L550 0L550 605L530 605zM310 800L225 800L225 885L310 885zM485 800L400 800L400 885L485 885z" />
      <glyph unicode="&#x4E5;" horiz-adv-x="555" d="M200 0L70 0L70 500L145 500L145 90L165 90L355 500L485 500L485 0L410 0L410 410L390 410zM235 605L150 605L150 690L235 690zM410 605L325 605L325 690L410 690z" />
      <glyph unicode="&#x4E6;" horiz-adv-x="770" d="M385 -10C267 5 216 35 323 -10C124 108 94 163 164 65C50 280 50 350 64 217C64 482 94 537 50 420C164 634 216 664 124 591C323 710 385 710 267 694C502 694 554 664 446 710C645 591 675 537 605 634C720 420 720 350 705 482C705 217 675 163 720 280C605 65 554 35 645 108C446 -10 385 -10 502 5zM385 65C474 77 513 101 431 65C583 158 606 202 552 125C640 294 640 350 628 245C628 454 606 498 640 405C552 575 513 599 583 541C431 635 385 635 474 623C295 623 256 599 338 635C186 541 164 498 217 575C130 405 130 350 141 454C141 245 164 202 130 294C217 125 256 101 186 158C338 65 385 65 295 77zM340 800L255 800L255 885L340 885zM515 800L430 800L430 885L515 885z" />
      <glyph unicode="&#x4E7;" horiz-adv-x="560" d="M280 -10C194 1 158 23 235 -10C92 75 71 115 121 45C40 199 40 250 50 154C50 345 71 385 40 300C121 455 158 477 92 424C235 510 280 510 194 499C365 499 402 477 324 510C467 424 488 385 438 455C520 300 520 250 509 345C509 154 488 115 520 199C438 45 402 23 467 75C324 -10 280 -10 365 1zM280 60C337 67 363 83 310 60C408 121 423 150 388 99C445 212 445 250 437 179C437 320 423 349 445 287C388 400 363 416 408 378C310 440 280 440 337 432C222 432 197 416 250 440C151 378 137 349 171 400C115 287 115 250 122 320C122 179 137 150 115 212C171 99 197 83 151 121C250 60 280 60 222 67zM235 605L150 605L150 690L235 690zM410 605L325 605L325 690L410 690z" />
      <glyph unicode="&#x4E8;" horiz-adv-x="770" d="M385 710C502 694 554 664 446 710C645 591 675 537 605 634C720 420 720 350 705 482C705 217 675 163 720 280C605 65 554 35 645 108C446 -10 385 -10 502 5C267 5 216 35 323 -10C124 108 94 163 164 65C50 280 50 350 64 217C64 482 94 537 50 420C164 634 216 664 124 591C323 710 385 710 267 694zM385 635C301 624 265 604 341 635C198 554 174 516 228 583C136 434 132 385 150 478L638 385C619 478 595 516 633 434C541 583 505 604 571 554C428 635 385 635 468 624zM385 65C468 75 505 96 428 65C571 146 595 184 541 116C633 265 638 315 619 222L132 315C150 222 174 184 136 265C228 116 265 96 198 146C341 65 385 65 301 75z" />
      <glyph unicode="&#x4E9;" horiz-adv-x="560" d="M280 510C365 499 402 477 324 510C467 424 488 385 438 455C520 300 520 250 509 345C509 154 488 115 520 199C438 45 402 23 467 75C324 -10 280 -10 365 1C194 1 158 23 235 -10C92 75 71 115 121 45C40 199 40 250 50 154C50 345 71 385 40 300C121 455 158 477 92 424C235 510 280 510 194 499zM280 440C130 378 117 285 197 440L443 285C362 440 280 440 429 378zM280 60C429 121 443 215 362 60L117 215C197 60 280 60 130 121z" />
      <glyph unicode="&#x4EA;" horiz-adv-x="770" d="M385 710C502 694 554 664 446 710C645 591 675 537 605 634C720 420 720 350 705 482C705 217 675 163 720 280C605 65 554 35 645 108C446 -10 385 -10 502 5C267 5 216 35 323 -10C124 108 94 163 164 65C50 280 50 350 64 217C64 482 94 537 50 420C164 634 216 664 124 591C323 710 385 710 267 694zM385 635C301 624 265 604 341 635C198 554 174 516 228 583C136 434 132 385 150 478L638 385C619 478 595 516 633 434C541 583 505 604 571 554C428 635 385 635 468 624zM385 65C468 75 505 96 428 65C571 146 595 184 541 116C633 265 638 315 619 222L132 315C150 222 174 184 136 265C228 116 265 96 198 146C341 65 385 65 301 75zM340 800L255 800L255 885L340 885zM515 800L430 800L430 885L515 885z" />
      <glyph unicode="&#x4EB;" horiz-adv-x="560" d="M280 510C365 499 402 477 324 510C467 424 488 385 438 455C520 300 520 250 509 345C509 154 488 115 520 199C438 45 402 23 467 75C324 -10 280 -10 365 1C194 1 158 23 235 -10C92 75 71 115 121 45C40 199 40 250 50 154C50 345 71 385 40 300C121 455 158 477 92 424C235 510 280 510 194 499zM280 440C130 378 117 285 197 440L443 285C362 440 280 440 429 378zM280 60C429 121 443 215 362 60L117 215C197 60 280 60 130 121zM235 605L150 605L150 690L235 690zM410 605L325 605L325 690L410 690z" />
      <glyph unicode="&#x4EC;" horiz-adv-x="730" d="M345 -10C248 0 206 18 295 -10C127 64 97 100 163 37C46 177 35 225 67 136L120 225C239 65 345 65 154 125C428 75 465 96 388 65C532 147 555 185 502 117C591 266 595 315 578 223L255 315L255 390L595 390C578 479 555 517 591 437C502 583 465 604 532 554C388 635 345 635 428 624C154 576 120 480 241 635L35 480C70 566 100 601 48 526C167 662 209 681 130 635C297 710 345 710 251 700C462 694 514 664 406 710C605 591 635 537 565 634C680 420 680 350 665 482C665 217 635 163 680 280C565 65 514 35 605 108C406 -10 345 -10 462 5zM310 800L225 800L225 885L310 885zM485 800L400 800L400 885L485 885z" />
      <glyph unicode="&#x4ED;" horiz-adv-x="535" d="M255 -10C60 54 35 160 144 -10L110 160C188 60 255 60 130 97C410 121 420 215 341 60L195 215L195 285L420 285C341 440 255 440 410 378C130 403 110 345 188 440L35 345C145 510 255 510 60 445C340 499 377 477 299 510C442 424 463 385 413 455C495 300 495 250 484 345C484 154 463 115 495 199C413 45 377 23 442 75C299 -10 255 -10 340 1zM220 605L135 605L135 690L220 690zM395 605L310 605L310 690L395 690z" />
      <glyph unicode="&#x4EE;" horiz-adv-x="610" d="M515 700L600 700L315 70C261 0 200 0 295 26L100 0L100 75L195 75C239 83 250 110 224 75L270 155L10 700L95 700L300 265L320 265zM450 813L170 813L170 873L450 873z" />
      <glyph unicode="&#x4EF;" horiz-adv-x="495" d="M405 500L485 500L260 -130C218 -200 165 -200 242 -178L65 -200L65 -130L160 -130C188 -120 195 -100 176 -130L215 -40L10 500L90 500L245 85L265 85zM395 618L115 618L115 678L395 678z" />
      <glyph unicode="&#x4F0;" horiz-adv-x="610" d="M515 700L600 700L315 70C261 0 200 0 295 26L100 0L100 75L195 75C239 83 250 110 224 75L270 155L10 700L95 700L300 265L320 265zM265 800L180 800L180 885L265 885zM440 800L355 800L355 885L440 885z" />
      <glyph unicode="&#x4F1;" horiz-adv-x="495" d="M405 500L485 500L260 -130C218 -200 165 -200 242 -178L65 -200L65 -130L160 -130C188 -120 195 -100 176 -130L215 -40L10 500L90 500L245 85L265 85zM210 605L125 605L125 690L210 690zM385 605L300 605L300 690L385 690z" />
      <glyph unicode="&#x4F2;" horiz-adv-x="610" d="M515 700L600 700L315 70C261 0 200 0 295 26L100 0L100 75L195 75C239 83 250 110 224 75L270 155L10 700L95 700L300 265L320 265zM265 770L195 770L290 910L380 910zM425 770L355 770L450 910L540 910z" />
      <glyph unicode="&#x4F3;" horiz-adv-x="495" d="M405 500L485 500L260 -130C218 -200 165 -200 242 -178L65 -200L65 -130L160 -130C188 -120 195 -100 176 -130L215 -40L10 500L90 500L245 85L265 85zM205 580L135 580L230 720L320 720zM365 580L295 580L390 720L480 720z" />
      <glyph unicode="&#x4F4;" horiz-adv-x="665" d="M505 300C387 235 310 235 465 266C65 315 65 485 144 235L65 700L145 700L145 485C199 310 310 310 145 366C469 344 505 380 392 310L505 700L585 700L585 0L505 0zM285 800L200 800L200 885L285 885zM460 800L375 800L375 885L460 885z" />
      <glyph unicode="&#x4F5;" horiz-adv-x="520" d="M375 195C287 155 230 155 331 165C50 219 50 345 110 155L50 500L125 500L125 345C164 225 240 225 125 265C333 239 375 270 293 225L375 500L450 500L450 0L375 0zM210 605L125 605L125 690L210 690zM385 605L300 605L300 690L385 690z" />
      <glyph unicode="&#x4F6;" horiz-adv-x="540" d="M235 -140L155 -140L155 0L80 0L80 700L520 700L520 625L160 625L160 75L235 75z" />
      <glyph unicode="&#x4F7;" horiz-adv-x="410" d="M215 -120L140 -120L140 0L70 0L70 500L390 500L390 430L145 430L145 70L215 70z" />
      <glyph unicode="&#x4F8;" horiz-adv-x="795" d="M80 0L80 700L160 700L160 440L350 440C422 430 454 411 388 440C510 365 528 331 485 391C555 260 555 220 546 297C546 142 528 108 555 179C485 48 454 29 510 74C388 0 350 0 422 9zM715 0L635 0L635 700L715 700zM350 75C475 136 475 220 420 75C420 365 350 365 475 304L160 365L160 75zM355 800L270 800L270 885L355 885zM530 800L445 800L445 885L530 885z" />
      <glyph unicode="&#x4F9;" horiz-adv-x="670" d="M70 0L70 500L145 500L145 330L280 330C342 322 368 308 312 330C414 274 428 249 394 294C450 196 450 165 442 224C442 105 428 80 450 133C394 35 368 21 414 55C312 0 280 0 342 7zM600 0L525 0L525 500L600 500zM280 70C375 110 375 165 334 70C334 260 280 260 375 219L145 260L145 70zM290 605L205 605L205 690L290 690zM465 605L380 605L380 690L465 690z" />
      <glyph unicode="&#x4FA;" horiz-adv-x="555" d="M120 -200L120 -130L140 -130C180 -108 180 -65 166 -130L180 0L105 0L105 315L10 315L10 390L105 390L105 700L535 700L535 625L185 625L185 390L380 390L380 315L185 315L185 75L260 75L260 -70C225 -200 140 -200 260 -164z" />
      <glyph unicode="&#x4FB;" horiz-adv-x="425" d="M405 430L160 430L160 285L335 285L335 215L160 215L160 70L230 70L230 -50C196 -180 115 -180 230 -143L95 -180L95 -110L115 -110C155 -92 155 -50 141 -110L155 0L85 0L85 215L10 215L10 285L85 285L85 500L405 500z" />
      <glyph unicode="&#x4FC;" horiz-adv-x="620" d="M445 -200L445 -125L465 -125C535 -100 535 -70 509 -125C509 18 468 78 535 -28L320 295L300 295L100 0L10 0L255 360L25 700L115 700L300 425L320 425L505 700L595 700L365 360L550 90C615 -25 615 -75 584 39C562 -200 465 -200 615 -152z" />
      <glyph unicode="&#x4FD;" horiz-adv-x="480" d="M305 -200L305 -130L325 -130C395 -106 395 -68 366 -130C373 10 325 85 395 -26L250 200L230 200L100 0L10 0L180 255L15 500L105 500L230 310L250 310L375 500L465 500L300 255L415 85C475 -25 475 -75 445 39C422 -200 325 -200 475 -152z" />
      <glyph unicode="&#x4FE;" horiz-adv-x="620" d="M100 0L10 0L230 325L100 325L100 395L230 395L25 700L115 700L300 425L320 425L505 700L595 700L390 395L520 395L520 325L390 325L610 0L520 0L320 295L300 295z" />
      <glyph unicode="&#x4FF;" horiz-adv-x="480" d="M100 0L10 0L160 225L80 225L80 285L160 285L15 500L105 500L230 310L250 310L375 500L465 500L320 285L400 285L400 225L320 225L470 0L380 0L250 200L230 200z" />
      <glyph unicode="&#x510;" horiz-adv-x="595" d="M310 -10C210 -1 171 16 256 -10C101 58 81 88 131 34C50 152 50 190 60 118C111 332 175 350 50 272L175 355C65 430 65 510 119 372C74 578 94 609 65 545C142 664 179 682 114 639C260 710 310 710 216 700C550 634 550 520 464 710L470 520C415 635 310 635 470 588C145 582 145 510 207 635C201 390 280 390 145 443L350 390L350 315L280 315C224 309 202 297 250 315C161 270 149 251 179 285C130 212 130 190 136 232C137 147 151 128 130 168C186 94 214 82 165 109C273 65 310 65 241 70C378 70 404 81 346 65C450 106 464 124 430 92C485 160 485 180 478 142L565 180C554 114 534 85 565 146C483 33 445 16 513 56C361 -10 310 -10 406 -1z" />
      <glyph unicode="&#x511;" horiz-adv-x="460" d="M240 -10C40 48 40 139 118 -10C76 238 130 250 40 192L130 255C50 314 50 364 83 269C120 510 240 510 50 449C307 503 335 489 275 510C385 457 401 434 363 475C425 386 425 360 417 411L350 360C306 440 240 440 350 402C125 411 125 365 169 440C164 285 230 285 125 315L275 285L275 220L230 220C115 186 115 140 158 220C160 60 240 60 115 89C360 94 360 145 312 60L435 145C427 90 412 66 435 116C374 24 345 10 396 42C280 -10 240 -10 315 -3z" />
      <glyph unicode="&#x512;" horiz-adv-x="680" d="M430 -200L430 -125L445 -125C520 -100 520 -50 495 -125L520 625L240 625L200 155C141 -5 45 -5 190 45L10 -5L10 75L45 75C114 101 120 155 86 75L165 700L600 700L600 -50C549 -200 445 -200 600 -150z" />
      <glyph unicode="&#x513;" horiz-adv-x="540" d="M305 -200L305 -130L315 -130C395 -104 395 -50 369 -130L395 430L205 430L180 140C125 -5 40 -5 170 41L10 -5L10 70L40 70C101 92 105 140 77 70L135 500L470 500L470 -50C419 -200 315 -200 470 -150z" />
      <glyph unicode="&#x1E80;" horiz-adv-x="980" d="M328 0L190 0L15 700L100 700L250 85L270 85L430 700L550 700L710 85L730 85L880 700L965 700L790 0L652 0L500 585L480 585zM525 770L455 770L340 910L430 910z" />
      <glyph unicode="&#x1E81;" horiz-adv-x="790" d="M280 0L150 0L15 500L95 500L205 80L225 80L335 500L455 500L565 80L585 80L695 500L775 500L640 0L510 0L405 405L385 405zM435 580L365 580L250 720L340 720z" />
      <glyph unicode="&#x1E82;" horiz-adv-x="980" d="M328 0L190 0L15 700L100 700L250 85L270 85L430 700L550 700L710 85L730 85L880 700L965 700L790 0L652 0L500 585L480 585zM524 770L454 770L549 910L639 910z" />
      <glyph unicode="&#x1E83;" horiz-adv-x="790" d="M280 0L150 0L15 500L95 500L205 80L225 80L335 500L455 500L565 80L585 80L695 500L775 500L640 0L510 0L405 405L385 405zM430 580L360 580L455 720L545 720z" />
      <glyph unicode="&#x1E84;" horiz-adv-x="980" d="M328 0L190 0L15 700L100 700L250 85L270 85L430 700L550 700L710 85L730 85L880 700L965 700L790 0L652 0L500 585L480 585zM445 800L360 800L360 885L445 885zM620 800L535 800L535 885L620 885z" />
      <glyph unicode="&#x1E85;" horiz-adv-x="790" d="M280 0L150 0L15 500L95 500L205 80L225 80L335 500L455 500L565 80L585 80L695 500L775 500L640 0L510 0L405 405L385 405zM350 605L265 605L265 690L350 690zM525 605L440 605L440 690L525 690z" />
      </font>
</defs>
</svg>
